#TITLE:Metric;
#SUBTITLE:;
#ARTIST:Hommarju;
#TITLETRANSLIT:;
#SUBTITLETRANSLIT:;
#ARTISTTRANSLIT:;
#CREDIT:Grithokskulk;
#BANNER:Metric.png;
#BACKGROUND:Metric-bg.png;
#LYRICSPATH:;
#CDTITLE:jubeat.png;
#MUSIC:Metric.mp3;
#OFFSET:-0.224;
#SAMPLESTART:31.415;
#SAMPLELENGTH:15.000;
#SELECTABLE:YES;
#BPMS:0.000=123.000;
#STOPS:;
#BGCHANGES:;

//---------------dance-single - ----------------
#NOTES:
     dance-single:
     :
     Easy:
     2:
     0.172,0.228,0.254,0.034,0.000:
1000
0000
0000
0000
,
0100
0000
0000
0000
,
1000
0000
0000
0000
,
0001
0000
0000
0000
,
0110
0000
0110
0000
,
1001
0000
0000
0000
,
1001
0000
1001
0000
,
0110
0000
0000
0000
,
1001
0000
0110
0000
,
1001
0000
0000
0000
,
0110
0000
1001
0000
,
0110
0000
0000
0000
,
1000
1000
1000
1000
,
0001
0001
0001
0001
,
0200
0000
0000
0300
,
0010
0000
0000
0000
,
0000
1000
1000
0000
,
0001
0000
0010
0010
,
0010
0000
0001
0000
,
0100
0010
0100
0100
,
0010
0000
1000
0000
,
0100
0000
1000
1000
,
0001
0000
0100
0000
,
0010
0000
0100
0100
,
0110
0000
1001
0000
,
0110
0000
0000
0000
,
0011
0000
0000
0000
,
1001
0000
0010
0010
,
0110
0000
1000
0000
,
1001
0000
0010
0010
,
0110
0000
0100
0000
,
1001
0000
0100
0100
,
0020
0000
0000
0000
,
0000
0000
0000
0000
,
0000
0000
0000
0000
,
0000
0000
0000
0030
,
0200
0000
0000
0000
,
0000
0000
0000
0000
,
0000
0000
0000
0000
,
0000
0000
0000
0300
,
1001
0000
0000
0000
,
0110
0000
0000
0000
,
0101
0000
0000
0000
,
1001
0000
0000
0000
,
1100
0000
0000
0000
,
0110
0000
0000
0000
,
0011
0000
0000
0000
,
1010
0000
0000
0000
,
0010
0010
0100
0100
,
0001
0001
1000
1000
,
0100
0010
0100
0010
,
0200
0000
0000
0300
,
0010
0000
0100
0000
,
1000
0001
1000
0000
,
0010
0000
0100
0000
,
0001
0010
0100
0000
,
0010
0000
0001
0000
,
1000
0010
1000
0000
,
0010
0000
0100
0000
,
0010
0000
1000
0001
,
1001
0000
0000
0000
;

//---------------dance-single - ----------------
#NOTES:
     dance-single:
     :
     Medium:
     5:
     0.355,0.431,0.659,0.186,0.000:
2000
0000
0000
0000
,
3200
0000
0000
0000
,
0320
0000
0000
0000
,
0032
0000
0203
0300
,
1001
0000
1001
0000
,
0110
0000
0000
0000
0100
0100
0100
0000
,
0011
0000
1100
0000
,
1010
0000
0000
0000
0010
0100
0010
0000
,
1001
0000
0011
0000
,
1100
0000
0000
0000
0001
0100
0001
0000
,
1001
0000
1100
0000
,
0110
0000
0000
0000
0100
0010
0100
0000
,
0110
0110
0110
0110
,
1001
1001
1001
1001
,
0100
0010
0100
0000
0001
1000
0001
0000
,
0020
0000
0000
0130
,
0010
0100
0010
0000
0001
0000
0100
0000
,
0010
0100
0010
0000
1001
0000
1001
0000
,
1001
0000
1000
0000
0100
0000
0010
0100
,
2000
0010
3001
1001
,
0100
0000
0010
0000
0100
0010
0100
0000
,
2000
3010
0001
0010
,
0001
0000
0100
0000
0010
0000
0100
0001
,
1000
0100
0010
0100
,
0110
0000
1001
0000
,
0101
0000
1001
1001
,
1100
0000
0010
0100
,
0110
0000
0011
1100
,
1001
0000
0110
0000
,
0101
0000
0011
1100
,
1010
0000
0010
0100
,
0110
0000
0011
0011
,
2100
0000
0000
0010
,
3002
0000
0023
0000
,
0230
0001
0000
0000
,
2300
0010
0000
3000
,
1002
0000
0000
0100
,
0010
1000
0023
0000
,
0100
1000
0032
0000
,
2003
3200
0320
0031
,
1001
0000
0000
0000
,
0110
0000
0101
0101
,
1001
0000
0000
0000
,
1100
0000
0011
0011
,
1001
0000
0000
0000
,
0110
0000
0101
1001
,
0110
0000
0000
0000
,
0011
0000
1001
1001
,
0110
0110
0101
0101
,
1001
1001
1100
1100
,
0010
0100
0010
0000
1000
0001
1000
0000
,
0020
0000
0000
0130
,
0110
0000
0001
0000
0010
0000
0100
0010
,
0001
1000
0110
0110
,
0110
0000
1000
0010
0100
0000
0001
1000
,
0200
0301
0110
1001
,
0110
0000
0001
0010
0001
0000
1000
0010
,
1000
0010
0110
0001
,
1001
0000
0100
0010
0100
0000
1000
0000
,
0020
0000
0100
0130
,
1001
0000
0000
0000
;

//---------------dance-single - ----------------
#NOTES:
     dance-single:
     :
     Hard:
     8:
     0.543,0.609,0.938,0.093,0.220: // measure 1
1000
1000
0100
0100
0010
0010
0100
1000
,  // measure 2
0010
0010
0100
0100
0001
0001
0010
0001
,  // measure 3
0100
0100
0001
0001
1000
1000
0100
0010
,  // measure 4
0100
0100
1000
1000
0010
0100
0001
1000
,  // measure 5
1001
0000
0000
0100
1100
0000
0000
0010
,  // measure 6
0110
0000
0000
0100
0100
0010
0001
0100
,  // measure 7
0110
0000
0000
0001
1001
0000
0000
1000
,  // measure 8
1100
0000
0000
0100
0010
0010
0100
1000
,  // measure 9
1001
0010
0101
1000
,  // measure 10
1100
0000
0010
0100
0100
0010
1000
0000
,  // measure 11
1001
0000
0000
0010
0110
0000
0000
0100
,  // measure 12
0110
0000
0000
0001
0010
0100
0010
0001
,  // measure 13
1001
1010
0011
0110
,  // measure 14
1001
1100
0011
0101
,  // measure 15
0001
0000
0010
0000
0100
0000
1000
0000
0010
0100
0010
0100
0001
1000
0001
1000
,  // measure 16
0100
0010
0000
0100
0010
0000
0100
1000
0000
0100
1000
0000
1001
0000
0000
0000
,  // measure 17
0100
0010
1010
0000
1001
0000
0010
0100
,  // measure 18
0010
0001
0100
0010
0110
0000
0110
0000
,  // measure 19
1001
0000
0000
0000
1000
0000
0100
0000
0020
0000
0000
0000
0130
1000
0010
0200
,  // measure 20
0000
0010
0310
0000
0101
0000
1001
0000
,  // measure 21
1100
0000
0000
0000
0010
0000
0100
0000
2000
0000
0000
0000
3010
0100
0010
0000
,  // measure 22
0100
0000
0001
0010
0110
0000
0110
0000
,  // measure 23
0011
0000
0000
0000
0001
0000
1000
0000
0010
0000
0000
0000
1000
0010
1000
0000
,  // measure 24
1010
0000
0001
0010
0011
0000
1100
0000
,  // measure 25
1001
0000
0000
0000
0000
0000
0000
0000
0110
0000
0000
0000
0000
0101
0000
1001
,  // measure 26
0000
0000
1100
0011
,  // measure 27
1001
0000
0000
0000
0000
0000
0000
0110
0000
0000
1001
0000
0000
0100
0000
1100
,  // measure 28
0000
0010
1010
0101
,  // measure 29
1001
0000
0000
0000
0100
0010
0000
0100
0000
0010
0001
0000
0100
0010
0000
0110
,  // measure 30
0000
1000
1001
0000
1100
0000
1100
0000
,  // measure 31
0011
0000
0000
0000
0001
0100
0000
0010
0000
0100
0001
0000
1000
0100
0000
0110
,  // measure 32
0000
0100
1010
0101
,  // measure 33
0011
0000
0000
0100
,  // measure 34
0010
0000
0001
0100
0000
0000
0000
0010
,  // measure 35
0100
0000
0001
0000
0000
0000
0000
1000
,  // measure 36
0100
0010
0100
1000
,  // measure 37
1001
0000
0000
0010
,  // measure 38
0100
0000
0001
0010
0000
0000
0000
0100
,  // measure 39
0010
0000
0001
0100
0000
0010
0100
0000
,  // measure 40
0010
1000
0100
0000
0100
1000
0010
0000
,  // measure 41
1100
0000
0000
0000
0000
0000
0000
0011
0000
0000
0101
0000
0000
0110
0000
1001
,  // measure 42
0000
0000
1100
0011
,  // measure 43
1001
0000
0000
0000
0000
0000
0000
0101
0000
0000
0110
0000
0000
1001
0000
2200
,  // measure 44
0000
3300
0110
0110
,  // measure 45
1001
0000
0000
0000
0000
0000
0000
0101
0000
0000
0110
0000
0000
1001
0000
0022
,  // measure 46
0000
0033
0110
0110
,  // measure 47
1001
0000
0000
0000
0100
0010
0000
1010
0000
0000
0110
0000
0000
0101
0000
2002
,  // measure 48
0000
3003
1100
0011
,  // measure 49
0101
0101
0110
0110
,  // measure 50
1010
1010
1100
1100
,  // measure 51
0010
0000
0001
0000
0100
0000
0010
0000
1000
0001
1000
0001
0010
0100
0010
0100
,  // measure 52
1000
0001
0000
1000
0001
0000
0100
0010
0000
0100
0010
0000
1010
0000
0000
0000
,  // measure 53
1001
0000
0010
0100
0010
0000
0001
0100
,  // measure 54
0010
0100
0001
0001
1001
0000
1100
0000
,  // measure 55
0011
0000
0000
0000
0001
0000
0010
0000
0110
0000
0000
0000
0010
0001
0100
0020
,  // measure 56
0000
0000
0100
0000
0100
0030
0000
0000
0101
0000
0000
0000
1001
0000
0000
0000
,  // measure 57
1100
0000
0010
0100
1100
0000
1000
0010
,  // measure 58
0120
0100
0130
0001
0011
0000
0011
0000
,  // measure 59
1100
0000
0010
0100
1000
0100
0001
0010
,  // measure 60
0100
0010
0000
0100
0010
0000
0001
0000
1001
0000
0000
0000
1001
0000
0000
0000
,  // measure 61
1100
0000
0000
0000
;
