#TITLE:Mathematical Love;
#SUBTITLE:;
#ARTIST:Third Generation ADULTIC TEACHERS;
#TITLETRANSLIT:;
#SUBTITLETRANSLIT:;
#ARTISTTRANSLIT:;
#CREDIT:Grithokskulk;
#BANNER:Mathematical Love.png;
#BACKGROUND:Mathematical Love-bg.png;
#LYRICSPATH:;
#CDTITLE:REFLEC BEAT.png;
#MUSIC:Mathematical Love.mp3;
#OFFSET:-2.938;
#SAMPLESTART:2.955;
#SAMPLELENGTH:15.000;
#SELECTABLE:YES;
#BPMS:0.000=172.000;
#STOPS:;
#BGCHANGES:;

//---------------dance-single - ----------------
#NOTES:
     dance-single:
     :
     Easy:
     4:
     0.275,0.334,0.160,0.084,0.000: // measure 1
1000
0100
1000
0000
,  // measure 2
0001
0100
0001
0000
,  // measure 3
0010
0100
0010
0000
,  // measure 4
0001
1000
0001
0000
,  // measure 5
1000
0010
1000
0000
,  // measure 6
0100
0010
0100
0000
,  // measure 7
1000
0010
1000
0000
,  // measure 8
0002
0000
0000
0003
,  // measure 9
0010
0100
0010
0000
,  // measure 10
0001
0100
0001
0000
,  // measure 11
1000
0100
1000
0000
,  // measure 12
0010
0100
0010
0000
,  // measure 13
0001
0010
0001
0000
,  // measure 14
1000
0010
1000
0000
,  // measure 15
0001
0100
0001
0000
,  // measure 16
2002
0000
0000
3003
,  // measure 17
1000
0000
0100
0000
,  // measure 18
0010
0000
0100
0000
,  // measure 19
0010
0000
0001
0000
,  // measure 20
0100
0010
1000
0000
,  // measure 21
0010
0000
1000
0000
,  // measure 22
0100
0000
0010
0000
,  // measure 23
0100
0010
0100
0000
,  // measure 24
1000
0001
1000
0000
,  // measure 25
0001
0000
0100
0001
,  // measure 26
0010
0000
0010
0001
,  // measure 27
1000
0000
1000
0000
,  // measure 28
0010
0100
0010
0000
,  // measure 29
1000
0000
0001
0010
,  // measure 30
0001
0000
0100
0010
,  // measure 31
0100
0000
0001
0000
,  // measure 32
1001
0000
0110
0000
,  // measure 33
1002
0000
0000
0000
,  // measure 34
0000
0000
0000
0000
,  // measure 35
0000
0000
0000
0000
,  // measure 36
0003
0000
0000
0000
,  // measure 37
2000
0000
0000
3000
,  // measure 38
0100
0010
0100
0000
,  // measure 39
0020
0000
0000
0030
,  // measure 40
0100
1000
0100
0000
,  // measure 41
2000
0000
0000
3000
,  // measure 42
0001
0100
0001
0000
,  // measure 43
0020
0000
0000
0030
,  // measure 44
0001
0100
0001
0000
,  // measure 45
0001
1000
0001
0000
,  // measure 46
0001
0010
0001
0100
,  // measure 47
0010
0010
0100
0000
,  // measure 48
1000
0100
1000
0010
,  // measure 49
1000
1000
0001
0000
,  // measure 50
0010
0100
0010
0001
,  // measure 51
0010
0010
0100
0000
,  // measure 52
0100
0001
0100
0010
,  // measure 53
0100
0100
1000
0000
,  // measure 54
0020
0000
0000
0000
,  // measure 55
0030
0000
0000
0000
,  // measure 56
0110
0000
0001
1000
,  // measure 57
1001
0000
0100
1000
,  // measure 58
1100
0000
0001
0100
,  // measure 59
0101
0000
0010
0000
,  // measure 60
0110
0000
0010
0001
,  // measure 61
0011
0000
1000
0010
,  // measure 62
1010
0000
0010
0100
,  // measure 63
0110
0000
0001
0000
,  // measure 64
1001
0000
1000
0001
,  // measure 65
1001
0000
0100
1000
,  // measure 66
1100
0000
0010
0001
,  // measure 67
0011
0000
0001
0000
,  // measure 68
0110
0000
0100
0010
,  // measure 69
0110
0000
1000
0001
,  // measure 70
1001
0000
0010
0000
,  // measure 71
0220
0000
0000
0330
,  // measure 72
1000
0000
0001
0000
,  // measure 73
0100
0000
0010
0000
,  // measure 74
0100
0000
0001
0000
,  // measure 75
0010
0100
1000
0100
,  // measure 76
0010
0000
0100
0000
,  // measure 77
1000
0000
0010
0000
,  // measure 78
0100
0001
0100
0010
,  // measure 79
0100
0100
0100
0000
,  // measure 80
0001
0000
0010
0000
,  // measure 81
0100
0010
0001
0000
,  // measure 82
1000
0000
0010
0000
,  // measure 83
0100
0010
0001
0100
,  // measure 84
0010
0000
0100
0000
,  // measure 85
0001
1000
0100
0000
,  // measure 86
1000
0000
0010
0000
,  // measure 87
1000
0001
0010
0100
,  // measure 88
1000
0000
1001
0000
;

//---------------dance-single - ----------------
#NOTES:
     dance-single:
     :
     Medium:
     6:
     0.438,0.503,0.084,0.046,0.000:
0100
0000
0100
0000
0010
0100
0000
0000
,
0010
0000
0010
0000
0001
0010
0000
0000
,
0001
0000
0001
0000
0100
0001
0000
0000
,
1000
0000
1000
0000
0100
1000
0000
0000
,
0010
0000
0010
0000
1000
0010
0000
0000
,
0001
0000
0001
0000
0010
0001
0000
0000
,
0100
0000
0100
0000
0001
0100
0000
0000
,
0010
0010
0100
0010
,
1000
0000
1000
0000
0100
1000
0000
0000
,
0001
0000
0001
0000
0100
0001
0000
0000
,
0010
0000
0010
0000
0001
0010
0000
0000
,
1000
0000
1000
0000
0010
1000
0000
0000
,
0100
0000
0100
0000
1000
0100
0000
0000
,
0001
0000
0001
0000
0100
0001
0000
0000
,
0010
0000
0010
0000
0001
0010
0000
0000
,
0220
0000
0330
0000
,
1000
0100
1000
0100
,
0010
0001
0010
0001
,
0100
0010
0100
0000
0001
1000
0001
0000
,
0010
0100
1000
0010
,
0100
0000
0010
0000
1000
0001
1000
0000
,
0001
0000
0010
0000
0100
0010
0100
0000
,
0010
0001
0010
0000
0001
0000
0001
0000
,
1000
0001
1000
0000
0020
0000
0030
0000
,
0100
0000
0010
0010
0000
0100
0100
0000
,
0001
0000
0010
0010
0000
0100
0100
0000
,
0010
0001
0010
0100
,
1000
0100
1000
0000
,
0010
0000
1000
0000
0001
0010
0001
0000
,
1000
0000
0010
0000
0100
0001
0100
0000
,
0001
0010
0001
0000
1000
0100
1000
0000
,
1001
0110
1001
0110
,
0002
0000
0000
0000
,
0000
0000
0000
0000
,
0000
0000
0000
0000
,
0003
0000
0000
0000
,
1000
0100
0010
0001
,
0010
0100
1000
0000
,
1000
0010
0100
0001
,
0100
0010
1000
0000
,
0001
0010
0100
1000
,
0100
0010
0001
0000
,
0001
0010
0100
1000
,
0100
0010
0001
0000
,
0001
0010
0100
0010
,
0001
0010
0001
0000
1000
0000
0010
0000
,
1000
0100
1000
0000
0010
0000
0100
0000
,
0001
1000
0001
0000
1000
0100
1000
0000
,
0001
0010
0001
0000
0100
0000
0010
0000
,
0100
0001
0100
0000
0001
0000
1000
0000
,
0100
1000
0100
0000
0010
0000
0100
0000
,
1000
0010
1000
0000
0001
0010
0001
0000
,
0100
0000
0001
0000
1000
0001
1000
0000
,
0200
0000
0000
0000
,
0300
0000
0000
0000
,
0010
0000
0100
0100
0000
0010
0010
0000
,
0001
0000
0100
0100
0000
0001
0001
0000
,
1000
0100
1000
0010
,
0100
0000
0001
0000
0010
0100
0010
0000
,
0001
0000
1000
1000
0000
0010
0010
0000
,
0100
0000
0010
0010
0000
1000
1000
0000
,
0100
0010
0100
1000
,
0001
0100
0001
0000
2000
0000
3000
0000
,
0100
0000
0010
0010
0000
0100
0100
0000
,
1000
0000
0010
0010
0000
1000
1000
0000
,
0001
0010
0001
0000
1000
0010
1000
0000
,
0001
0000
0100
0000
0010
0100
0001
0000
,
0010
0000
0100
0100
0000
0010
0010
0000
,
0001
0000
1000
1000
0000
0100
0100
0000
,
1000
0010
1000
0000
0001
0100
0001
0000
,
0110
1001
0110
1001
,
0000
0010
0001
0010
0000
0100
1000
0100
,
0000
1000
0010
1000
0000
0001
0010
0001
,
0000
0100
0010
0100
0000
0001
1000
0001
,
0000
0010
0100
0010
0000
0001
0010
0001
,
0000
1000
0100
1000
0000
0010
1000
0010
,
0000
0100
0001
0100
0000
0001
0010
0001
,
0000
1000
0010
1000
0000
0010
0100
0010
,
0000
1000
0100
0000
0010
0000
0100
0000
,
1000
0001
0100
0001
0000
1000
0100
1000
,
0000
0001
0010
0001
0000
1000
0010
1000
,
0000
0001
0100
0001
0000
0010
0100
0010
,
0001
0010
0100
1000
,
0010
0100
0010
0100
0000
0001
0100
0001
,
0000
1000
0100
1000
0000
0001
0010
0001
,
0000
1000
0010
1000
0000
0010
0100
0010
,
1000
0100
0010
0001
,
0110
0000
0000
1001
0000
0000
0010
0100
;

//---------------dance-single - ----------------
#NOTES:
     dance-single:
     :
     Hard:
     8:
     0.631,0.637,0.191,0.076,0.103:
0100
0000
0010
0000
0100
0000
0000
0100
0001
0000
0010
0000
0010
0000
0000
0000
,
0100
0010
0100
0000
0010
0000
0000
0010
0100
0000
1000
0000
0010
0000
0000
0000
,
0100
0001
0100
0000
0001
0000
0000
0001
1000
0000
0100
0000
0001
0000
0000
0000
,
0100
1000
0100
0000
1000
0000
0000
1000
0010
0000
0100
0000
0010
0000
1000
0000
,
0001
0010
0001
0000
0010
0000
0000
0010
0001
0000
1000
0000
0010
0000
0100
0000
,
0001
1000
0001
0000
0100
0000
0000
0100
0010
0000
0100
0000
0001
0000
0010
0000
,
0100
0010
0100
0000
0010
0000
0000
0010
0001
0000
0100
0000
0010
0000
0100
0000
,
0002
1000
0000
0010
0000
0100
0000
1003
,
0001
0010
0001
0000
0100
0000
0000
0100
0010
0000
0100
0000
0001
0000
1000
0000
,
0100
0010
0100
0000
1000
0000
0000
1000
0010
0000
0100
0000
0010
0000
1000
0000
,
0001
0010
0001
0000
0010
0000
0000
0010
0100
0000
0010
0000
0001
0000
0100
0000
,
0010
0100
0010
0000
0100
0000
0000
0100
0001
0000
1000
0000
0100
0000
0001
0000
,
0100
1000
0100
0000
1000
0000
0000
1000
0010
0000
0001
0000
0010
0000
0100
0000
,
0001
1000
0001
0000
1000
0000
0000
1000
0100
0000
0001
0000
0100
0000
0010
0000
,
0001
1000
0001
0000
0100
0000
0100
0000
0001
1000
0001
0000
0010
0000
0010
0000
,
0100
0100
1000
1000
0010
0010
0100
0001
,
0010
0000
0100
0100
0000
0010
0001
0100
,
1000
0000
0100
0100
0000
0010
1000
0100
,
0001
0100
1000
0010
0100
0001
0010
0100
,
1000
0010
0001
0010
0000
0100
0100
0100
,
0001
0010
0100
0010
0100
1000
0010
0000
,
0100
0001
0010
0100
0000
0010
0010
0100
,
1000
0000
0010
0001
0010
0000
0100
0001
,
0020
0000
1000
0000
0001
0001
0031
0000
,
1001
0000
0100
0100
0000
1000
0010
0100
,
0101
0000
1000
1000
0000
0100
0010
0100
,
1000
0010
0001
0010
0100
1000
0100
0001
,
0020
1000
0001
0130
,
0011
0000
0100
0100
0000
0010
0100
0000
,
0001
1000
0100
0010
0100
1000
0010
0000
,
0100
0010
0100
0010
1000
0010
1000
0010
,
1000
1000
0100
0100
0010
0010
0001
0000
,
2002
0000
0000
0000
,
0000
0000
0000
0000
,
0000
0000
0000
0000
,
3003
0000
0000
0000
,
0001
0010
0100
0010
,
0001
0100
0010
0100
0001
0000
0000
0000
,
1000
0100
0010
0100
1000
0000
0010
0000
,
0100
0010
1000
0001
0010
0000
0000
0000
,
0001
0010
0100
1000
,
0010
0100
0010
1000
0100
0000
0000
0000
,
0010
0001
0100
0000
0010
1000
0100
0000
,
0010
0100
1000
0010
,
0100
0010
0100
0010
0100
0010
0100
0000
,
0001
0010
0100
0010
0001
0100
0010
1000
,
0100
0100
1000
1000
0010
0000
1010
0000
,
0110
0010
0000
1000
0100
0001
0100
1000
,
0000
0010
0100
0000
0001
0010
0100
0010
,
0001
1001
0000
0100
1000
0100
0010
1000
,
0100
0110
0000
0010
0001
0100
0010
0000
,
0001
0101
0000
1000
0100
0010
0100
1000
,
0001
0101
0100
0110
,
2002
0000
0000
0000
,
3003
0000
0000
0000
0000
1000
1000
0100
,
0010
0000
0100
0100
0000
0010
0001
0100
,
1000
0000
0100
0100
0000
0010
1000
0100
,
0001
0100
1000
0010
0000
0010
0100
0010
,
1000
1010
0101
0011
,
0100
0010
0001
0100
0010
0000
0110
0000
,
1000
0010
0001
0010
1000
0000
1100
0000
,
0001
0100
1000
0001
0010
1000
0010
0001
,
0200
1000
0010
0301
,
1001
0000
0100
0100
0000
0010
0100
1000
,
1001
0000
0001
0001
0000
0100
0010
0100
,
0002
0010
0100
1003
,
0200
0001
1000
0310
,
1000
0010
0100
0010
1000
0000
1001
0000
,
0001
0010
0100
0010
0001
0000
0101
0000
,
0001
0100
1000
0000
0100
0001
1000
0000
,
0100
0001
0100
1000
0100
0010
0100
1000
,
0000
0010
0100
0010
0000
1000
0001
0010
,
0000
0100
0010
0001
0000
0100
1000
0100
,
0000
0010
1000
0100
0000
0001
0100
1000
,
0010
0100
0001
1000
0100
0010
0100
1000
,
0010
0100
0001
0010
0000
0100
0010
0001
,
0000
0100
1000
0100
0000
0010
1000
0100
,
0000
0001
0100
0010
0001
0100
0010
1000
,
0001
0001
0010
0010
0100
0000
0010
0000
,
0100
1000
0010
0100
0000
0001
0010
1000
,
0000
0010
0001
0100
0000
1000
0100
0001
,
0000
1000
0100
0010
0000
1000
0010
0001
,
0100
0100
0010
0010
0100
0100
0001
0001
,
1000
0100
0010
0100
0000
1000
0010
0001
,
0000
0010
0100
0001
0000
0010
1000
0010
,
0000
0001
0100
0010
0000
1000
0100
0010
,
0100
1000
0010
0100
0001
0010
0100
1000
,
1001
0000
0000
0110
0000
0000
1001
1100
;

//---------------dance-single - ----------------
#NOTES:
     dance-single:
     :
     Challenge:
     9:
     0.678,0.637,0.145,0.069,0.560:
0010
0000
0100
0000
0010
0000
0000
0010
1000
0000
0100
0000
0100
0000
0000
0000
,
0010
0100
0010
0000
0100
0000
0000
0100
0010
0000
0001
0000
0100
0000
0000
0000
,
0010
1000
0010
0000
1000
0000
0000
1000
0001
0000
0010
0000
1000
0000
0000
0000
,
0010
0001
0010
0000
0001
0000
0000
0001
0100
0000
0010
0000
0100
0000
0001
0000
,
1000
0100
1000
0000
0100
0000
0000
0100
1000
0000
0001
0000
0100
0000
0010
0000
,
1000
0001
1000
0000
0010
0000
0000
0010
0100
0000
0010
0000
1000
0000
0100
0000
,
0010
0100
0010
0000
0100
0000
0000
0100
1000
0000
0010
0000
0100
0000
0010
0000
,
2000
0001
0000
0100
0000
0010
0000
3001
,
1000
0100
1000
0000
0010
0000
0000
0010
0100
0000
0010
0000
1000
0000
0001
0000
,
0010
0100
0010
0000
0001
0000
0000
0001
0100
0000
0010
0000
0100
0000
0001
0000
,
1000
0100
1000
0000
0100
0000
0000
0100
0010
0000
0100
0000
1000
0000
0010
0000
,
0100
0010
0100
0000
0010
0000
0000
0010
1000
0000
0001
0000
0010
0000
1000
0000
,
0010
0001
0010
0000
0001
0000
0000
0001
0100
0000
1000
0000
0100
0000
0010
0000
,
1000
0001
1000
0000
0001
0000
0000
0001
0010
0000
1000
0000
0010
0000
0100
0000
,
1000
0001
1000
0000
0010
0000
0010
0000
1000
0001
1000
0000
0100
0000
0100
0000
,
0010
0010
0001
0001
0100
0100
0010
1000
,
0100
0000
0000
0100
1000
0000
0000
1000
0010
0000
0000
0010
0100
0000
0000
0100
,
1000
0000
0000
1000
0100
0000
0000
0100
0001
0000
0000
0001
0010
0000
0000
0010
,
1000
0000
0000
1000
0010
0000
0000
0010
0001
0000
0000
0001
0100
0000
0000
0100
,
0010
0000
0000
0010
0100
0000
0000
0100
0001
0000
0000
0001
1000
0000
0000
1000
,
0100
0000
0000
0100
0001
0000
0000
0001
0100
0000
0000
0100
0010
0000
0000
0010
,
0001
0000
0000
0001
0100
0000
0000
0100
1000
0000
0000
1000
0100
0000
0000
0100
,
0010
0000
0000
0010
1000
0000
0000
1000
0100
0000
0000
0100
0010
0000
0000
0010
,
0002
0000
0100
0000
0100
0003
0000
0000
0010
0000
0100
0000
0001
0000
1000
0000
,
0100
0000
0000
0100
0001
0000
0000
0001
0100
0000
0000
0100
0010
0000
0000
0010
,
0001
0000
0000
0001
0100
0000
0000
0100
1000
0000
0000
1000
0100
0000
0000
0100
,
0010
0000
0000
0010
1000
0000
0000
1000
0010
0000
0000
0010
0001
0000
0000
0001
,
0010
0000
0000
0010
0100
0000
0000
0100
0001
0000
0000
0001
0010
0000
0100
0000
,
0010
0000
0000
0010
0001
0000
0000
0001
0100
0000
0000
0100
1000
0000
0000
1000
,
0100
0000
0000
0100
0010
0000
0000
0010
1000
0000
0000
1000
0100
0000
0000
0100
,
0010
0100
1000
0000
0010
0100
0001
0000
,
0010
0100
0100
1000
1000
0010
0010
0100
,
2002
0000
0000
0000
,
0000
0000
0000
0000
,
0000
0000
0000
0000
,
3003
0000
0000
0000
,
1000
0100
0010
0100
,
1000
0010
0100
0010
1000
0000
0000
0000
,
0001
0010
0100
0010
0001
0000
0100
0000
,
0010
0100
0001
1000
0100
0000
0000
0000
,
1000
0100
0010
0001
,
0100
0010
0100
0001
0010
0000
0000
0000
,
0100
1000
0010
0000
0100
0001
0010
0000
,
0100
0010
0001
0100
,
0010
0100
0010
0100
0010
0100
0010
0000
,
1000
0000
0000
1000
0100
0000
0000
0100
0001
0000
0000
0001
0100
0000
0000
0100
,
0010
0000
0000
0010
0001
0000
0000
0001
0100
0000
0000
0100
0010
0000
0000
0010
,
1000
0000
1001
0000
0000
0000
1000
0000
0100
0000
0000
0100
0010
0000
0000
0010
,
0100
0000
0000
0100
1000
0000
0000
1000
0010
0000
0000
0010
0100
0000
0000
0100
,
0001
0000
0011
0000
0000
0000
0010
0000
0100
0000
0000
0100
0010
0000
0000
0010
,
0001
0000
1001
0000
0000
0000
1000
0000
0010
0000
0000
0010
0100
0000
0000
0100
,
0010
0000
0110
0000
0000
0000
1000
0000
0001
0000
0000
0001
0010
0000
0000
0010
,
0100
0000
0000
0100
1000
0000
0000
1000
0010
0000
0000
0010
0100
0000
0000
0000
,
2002
0000
0000
0000
,
3003
0000
0000
0000
0000
0001
0001
0010
,
0100
0000
0010
0010
0000
0100
1000
0010
,
0001
0000
0010
0010
0000
0100
0001
0010
,
1000
0010
0001
0100
0000
0100
0010
0100
,
0001
0101
1010
1100
,
0010
0100
1000
0010
0100
0000
0110
0000
,
0001
0100
1000
0100
0001
0000
0011
0000
,
1000
0010
0001
1000
0100
0001
0100
1000
,
0020
0001
0100
1030
,
1001
0000
0010
0010
0000
0100
0010
0001
,
1001
0000
1000
1000
0000
0010
0100
0010
,
2000
0100
0010
3001
,
0020
1000
0001
0130
,
0001
0100
0010
0100
0001
0000
1001
0000
,
1000
0100
0010
0100
1000
0000
1010
0000
,
1000
0010
0001
0000
0010
1000
0001
0000
,
0010
1000
0010
0001
0010
0100
0010
0001
,
0000
0001
0100
0000
0000
0100
0010
0000
0000
0010
0100
0000
0000
0100
0001
0000
,
0000
0001
1000
0000
0000
1000
0100
0000
0000
0100
0001
0000
0000
0001
0100
0000
,
0000
0100
1000
0000
0000
1000
0010
0000
0000
0010
0100
0000
0000
0100
0010
0000
,
1000
0001
0010
0000
0100
0010
0001
0010
,
0000
0010
0100
0000
0000
0100
1000
0000
0000
1000
0001
0000
0000
0001
0100
0000
,
0000
0100
0001
0000
0000
0001
0010
0000
0000
0010
0100
0000
0000
0100
1000
0000
,
0000
1000
0010
0000
0000
0010
0001
0000
0000
0001
0010
0000
0000
0010
1000
0000
,
0100
0010
0100
1000
0010
0100
0001
0010
,
0100
0000
0010
0000
0000
0010
0001
0000
0000
0001
0100
0000
0000
0100
0010
0000
,
0000
0010
0001
0000
0000
0001
0010
0000
0000
0010
1000
0000
0000
1000
0100
0000
,
0000
0100
0010
0000
0000
0010
0100
0000
0000
0100
1000
0000
0000
1000
0010
0000
,
0001
0010
1000
0000
0100
0010
0001
1000
,
0010
0000
0100
0000
0000
0100
0001
0000
0000
0001
0100
0000
0000
0100
0001
0000
,
0000
0001
0010
0000
0000
0010
0100
0000
0000
0100
0010
0000
0000
0010
0001
0000
,
0000
0001
1000
0000
0000
1000
0010
0000
0000
0010
0100
0000
0000
0100
0010
0000
,
1000
0100
0001
0100
1000
0010
0001
0010
,
1001
0000
0000
0110
0000
0000
1001
0110
;
