#TITLE:Marigold;
#SUBTITLE:(Jazzy Hip-Hop Remix);
#ARTIST:SHORTCUTS rmx by ROMANTIC PRODUCTION;
#TITLETRANSLIT:;
#SUBTITLETRANSLIT:;
#ARTISTTRANSLIT:;
#CREDIT:Grithokskulk;
#BANNER:Marigold (Jazzy Hip-Hop Remix).png;
#BACKGROUND:Marigold (Jazzy Hip-Hop Remix)-bg.png;
#LYRICSPATH:;
#CDTITLE:pop'n music.png;
#MUSIC:Marigold (Jazzy Hip-Hop Remix).mp3;
#OFFSET:-3.755;
#SAMPLESTART:3.675;
#SAMPLELENGTH:14.980;
#SELECTABLE:YES;
#BPMS:0.000=95.000,48.000=190.000,176.000=95.000,200.000=190.000,232.000=94.999;
#STOPS:;
#BGCHANGES:;

//---------------dance-single - ----------------
#NOTES:
     dance-single:
     :
     Easy:
     3:
     0.190,0.270,0.009,0.231,0.000: // measure 1
0100
1000
0020
0030
,  // measure 2
0100
0010
2000
3000
,  // measure 3
0001
0010
0200
0300
,  // measure 4
0010
0001
0200
0300
,  // measure 5
0020
0000
0000
0030
,  // measure 6
0200
0000
0000
0300
,  // measure 7
0002
0000
0000
0003
,  // measure 8
0020
0000
0000
0030
,  // measure 9
0100
0010
0200
0300
,  // measure 10
0010
0001
0100
0010
,  // measure 11
1000
0100
2000
3000
,  // measure 12
0002
0000
1003
1001
,  // measure 13
1000
0000
0100
0000
,  // measure 14
1000
0000
0100
0000
,  // measure 15
1000
0000
0010
0000
,  // measure 16
0200
0000
0000
0300
,  // measure 17
0001
0000
0010
0000
,  // measure 18
0001
0000
0100
0000
,  // measure 19
0001
0000
0010
0000
,  // measure 20
0200
0000
0000
0300
,  // measure 21
0010
0000
0100
0000
,  // measure 22
0010
0000
0001
0000
,  // measure 23
0010
0000
0001
0000
,  // measure 24
0200
0000
0000
0300
,  // measure 25
0010
0000
0100
0000
,  // measure 26
0001
0000
0100
0000
,  // measure 27
0010
0000
1000
0000
,  // measure 28
0200
0000
0000
0300
,  // measure 29
0020
0000
0000
0000
,  // measure 30
0000
0000
0000
0030
,  // measure 31
0200
0000
0000
0000
,  // measure 32
0000
0000
0000
0300
,  // measure 33
2000
0000
0000
0000
,  // measure 34
0000
0000
0000
3000
,  // measure 35
0002
0000
0000
0003
,  // measure 36
2000
0000
0000
3000
,  // measure 37
0010
0000
0100
0000
,  // measure 38
0001
0000
0010
0000
,  // measure 39
0001
0000
0100
0000
,  // measure 40
0010
0000
0100
0000
,  // measure 41
0001
0000
1000
0000
,  // measure 42
0100
0000
1000
0000
,  // measure 43
0010
0000
0100
0000
,  // measure 44
0010
0000
1000
0000
,  // measure 45
0001
0001
1000
1000
,  // measure 46
0100
1000
0020
0030
,  // measure 47
0100
0100
0010
0010
,  // measure 48
1000
0001
0010
0000
,  // measure 49
0100
0100
0010
0010
,  // measure 50
0001
0100
0020
0030
,  // measure 51
0100
0000
0100
0000
,  // measure 52
0001
0000
0001
0000
,  // measure 53
1000
0000
0100
0000
,  // measure 54
1000
0000
1000
0000
,  // measure 55
0001
0000
0100
0000
,  // measure 56
0010
0000
0100
0000
,  // measure 57
0001
0000
0010
0000
,  // measure 58
0100
0000
0010
0000
,  // measure 59
0200
0300
0020
0030
,  // measure 60
0001
0100
0010
0100
,  // measure 61
0002
0003
2000
3000
;

//---------------dance-single - ----------------
#NOTES:
     dance-single:
     :
     Medium:
     5:
     0.313,0.404,0.036,0.195,0.000:
0001
0000
0010
0000
0001
0100
0001
0000
,
0010
0000
0100
0000
1000
0010
1000
0000
,
0010
0000
0100
0000
0001
0010
0001
0000
,
1000
0000
0010
0000
0100
0010
0100
0000
,
0002
0000
0010
0100
,
0023
0000
0000
0000
0100
0000
0031
0010
,
0200
0000
0000
0000
1000
0000
0310
0100
,
2000
0000
0000
0000
3001
0100
0001
0000
,
0020
0000
0130
0000
0100
0010
0100
1000
,
0020
0000
0130
0000
0100
0010
0100
0001
,
0020
0000
0031
0000
0001
1000
0001
0000
,
1000
0000
0100
0010
0100
0000
1001
0000
,
0001
0000
0000
0100
0000
0000
0010
0000
,
0000
0100
0000
0000
0001
0000
0010
0000
,
0001
1000
0100
0010
,
0200
0000
0310
0000
,
0100
0000
0000
1000
0000
0000
0010
0000
,
0000
0100
0000
0000
0010
0000
1000
0000
,
0001
0010
0100
0010
,
0002
0000
0103
0000
,
0010
0000
0000
0100
0000
0000
0001
0000
,
0000
0010
0000
0000
0001
0000
0100
0000
,
0010
1000
0100
0010
,
0200
0000
1300
0000
,
0010
0000
0000
1000
0000
0000
0001
0000
,
0000
0010
0000
0000
0001
0000
0000
0000
,
0100
0000
0010
1000
,
0002
0000
0000
0000
,
2003
0000
0000
0000
,
3002
0000
0000
0010
,
0023
0000
0000
0000
,
0032
0000
0000
0100
,
0203
0000
0000
0000
,
0320
0000
0100
0230
,
0000
0000
0000
0000
,
0302
0003
1001
0000
,
1000
0000
0100
0000
0010
0100
0010
0000
,
0100
1000
0010
0000
,
0001
0000
0010
0000
0100
0010
0100
0000
,
0010
0001
0100
0000
,
0001
0000
1000
0000
0010
1000
0010
0000
,
1000
0001
0010
0000
,
0100
0000
0010
0000
0001
0100
0001
0000
,
0010
0100
1000
0010
,
0100
0001
0010
0000
0100
0001
0010
0000
,
1000
0010
0100
0000
1000
0010
0100
0000
,
1000
0001
0010
0000
1000
0001
0010
0000
,
0100
0010
0001
0000
0100
0010
0001
0000
,
1000
0100
0001
0000
1000
0100
0001
0000
,
0010
0001
0100
0000
0020
0000
0030
0000
,
0100
0010
0001
0000
,
0100
0010
0001
0000
,
1000
0100
0010
0100
,
1000
1000
1001
0000
,
0001
0100
0010
0000
,
0001
0100
0010
0000
,
0001
1000
0100
0100
,
0010
0100
0110
0000
,
1000
1000
1000
0000
0001
0001
0001
0000
,
0100
0010
1000
0000
0100
0010
0001
0000
,
0200
0300
0002
0003
;

//---------------dance-single - ----------------
#NOTES:
     dance-single:
     :
     Hard:
     8:
     0.475,0.809,0.328,0.124,0.102:
1010
0110
0101
0110
1010
1010
1001
0000
,
0011
0110
1100
0110
0011
0011
1001
0000
,
0110
0101
1001
0101
0110
0110
1001
0000
,
1100
0011
0101
0011
1100
1100
1001
0000
,
0100
0000
0000
0100
0010
0000
0100
0000
0001
0000
0010
0001
0010
0000
0100
0000
,
0010
0000
0000
0010
0001
0000
1000
0000
0010
0000
0100
0000
0010
0000
1000
0000
,
0100
0000
0000
0100
1000
0000
0010
0000
0100
0000
0001
0000
0010
0000
0100
0000
,
0010
0000
0000
0010
0001
0000
0100
0000
0001
0000
0001
0000
1000
0000
1000
0000
,
0100
0010
0100
1000
0100
0100
0110
0000
,
0010
0001
0100
0010
0100
0100
0110
0000
,
0001
0010
1000
0010
0001
0001
1001
0000
,
1000
0000
0010
0000
0001
0010
1000
0001
,
0010
0100
0000
1000
0100
0000
0001
0100
,
0000
1000
0100
0000
0010
0100
0000
1000
,
0100
0000
0010
0000
0001
0100
0010
0100
,
0002
0010
1003
1001
,
1000
0010
0000
0001
0010
0000
1000
0010
,
0000
0100
0010
0000
1000
0010
0000
0001
,
0010
0100
0001
0010
,
0200
0001
0010
0310
,
0100
1000
0000
0010
1000
0000
0001
1000
,
0000
0100
1000
0000
0010
1000
0000
0100
,
1000
0010
0100
0001
,
0020
1000
0001
0130
,
0001
0010
0000
0001
0100
0000
0001
1000
,
0000
0001
0010
0000
0001
0100
0000
0001
,
0010
0100
0010
0001
,
0200
1000
0010
0310
,
2010
0000
0000
0000
,
0000
0000
0000
0001
,
3002
0000
0000
0000
,
0000
0000
0000
0010
,
0023
0000
0000
0000
,
0000
0000
0001
0032
,
0000
0000
0000
0000
,
2000
3003
1001
0000
,
0100
0010
0100
0000
0001
0000
0010
0000
,
0100
1000
0100
0010
0100
0000
1000
0010
,
0100
0010
1000
0000
0001
0000
0010
0000
,
0100
0010
0001
0100
0010
0000
0100
0001
,
0010
0100
0010
0001
1000
0000
0010
0000
,
0100
0010
1000
0100
0010
0000
0100
1000
,
0010
1000
0001
0010
0001
0000
0100
0010
,
0100
0100
0101
0000
,
1000
0000
0100
1000
0000
0000
1000
0010
0000
0000
0010
0100
0000
0000
0100
0001
,
0000
0000
0001
1000
0000
0000
1000
0100
0000
0000
0100
0001
0000
0000
0001
0100
,
0000
0000
0100
0010
0000
0000
0010
0001
0000
0000
0001
0100
0000
0000
0100
0010
,
0000
0000
0010
0100
0000
0000
0100
0000
0001
0000
0010
0000
0100
0000
0010
0000
,
0001
0000
0010
0001
0000
0000
0001
0100
0000
0000
0100
1000
0000
0000
1000
0100
,
0000
0000
0200
0010
0000
0000
0000
0000
0001
0000
0001
0000
1300
0000
0000
0000
,
0100
0000
0001
0010
0000
0001
0010
0001
,
0000
1000
0100
0110
,
0100
0000
1000
0010
0000
0100
0010
0100
,
0000
0010
1000
1001
,
0001
0000
0010
0001
0000
0100
0001
0100
,
0000
0010
0100
0010
0000
1000
0010
1000
,
0000
0100
1000
0100
0000
0010
0001
0010
,
0000
0001
0000
0100
0000
0010
0000
0100
,
0020
0000
1000
0000
0031
0010
0100
0001
,
0020
0000
1030
0010
0001
0100
0010
1000
,
0200
0310
0020
0030
;

//---------------dance-single - ----------------
#NOTES:
     dance-single:
     :
     Challenge:
     9:
     0.600,0.729,0.133,0.169,0.391:
0100
0000
0000
0010
0100
0000
0010
0000
1000
0001
0000
0010
0000
0100
0010
0000
,
0001
0000
0000
0001
0100
0000
0010
0000
0100
0001
0010
0001
0100
0000
0010
0000
,
1000
0000
0000
1000
0100
0000
0001
0000
0100
0010
0000
0001
0000
0010
0100
1000
,
0010
0000
0000
0010
0100
0000
0001
0000
0010
0001
0100
0010
0100
0000
0001
0000
,
0020
0000
0000
0100
0100
0000
0000
0001
0000
0001
0000
0001
0130
0000
0010
0000
,
0200
0000
0000
1000
1000
0000
1000
0000
0010
0000
0010
0000
1300
0000
0100
0000
,
0002
0000
0000
0010
0010
0000
0100
0000
0023
0000
0000
0000
0130
0000
0010
0000
,
0001
0000
0000
0100
0001
0000
0100
0000
0010
1000
0100
1000
0010
0000
0100
0000
,
0001
0000
0001
0000
0011
0000
0010
0100
0010
0000
0001
0000
0101
0000
0001
0100
,
0010
0000
0010
0000
0110
0000
0100
0001
0010
0100
0010
0000
0001
1000
0100
0010
,
0100
0000
0100
0000
1100
0000
1000
0010
0100
0000
0100
0000
0110
0020
0000
2030
,
0000
0000
0100
0000
0001
3002
0000
0023
0000
0000
0100
0000
0130
1000
0010
0100
,
0001
0010
0001
0100
0010
1000
0100
0010
,
0100
1000
0010
0001
0010
1000
0100
0010
,
0100
1000
0000
0100
0000
0001
0100
2000
,
0000
0010
3010
0000
0100
0100
0001
0010
,
0001
0100
1000
0100
0010
1000
0100
0001
,
0100
1000
0010
0100
0010
1000
0001
0010
,
1000
0010
0001
0100
0000
0010
0000
2000
,
0000
0000
0100
0000
0010
0010
3010
0000
,
0100
1000
0100
0010
1000
0100
0001
0100
,
1000
0010
0100
0010
1000
0100
0001
0100
,
0010
0100
1000
0010
0000
0100
0000
0002
,
0000
0000
0010
0000
0100
0100
0103
0000
,
0010
0001
0100
0010
1000
0100
0001
0100
,
1000
0010
0100
0010
1000
0100
0010
0100
,
1000
0010
0001
0010
0000
0100
0000
0002
,
0000
0000
1000
1000
1003
0000
1001
0000
,
2100
0000
0000
0000
,
0000
0000
0000
0010
,
0020
0000
0000
0000
,
0000
0000
3000
0100
,
0200
0000
0000
0000
,
0000
0030
0001
0002
,
0000
0000
0000
0300
,
0020
0033
1100
0000
,
0001
0100
0010
0100
0001
0001
0010
0000
,
0100
0010
0001
1000
0010
0010
0100
0000
,
0010
1000
0100
0001
0100
0100
0010
0000
,
0100
1000
0010
0100
0001
0001
1000
0000
,
0100
1000
0010
0100
0001
0001
0010
0000
,
0001
0010
1000
0010
0001
0001
1000
0000
,
0010
0100
0010
1000
0100
0100
0010
0000
,
0100
1000
0010
0100
0001
0000
1001
0000
,
1000
0000
0100
0100
0000
1000
0010
1000
0000
0010
0100
0010
0000
0100
0001
0100
,
0000
0001
0010
0001
0000
1000
0010
1000
0000
0001
0100
0001
0000
0010
0100
0010
,
0000
0001
0010
0001
0000
1000
0100
1000
0000
0010
0100
0010
0000
1000
0010
1000
,
0000
0001
0010
0001
0000
1000
0200
1000
0000
1000
0000
1300
0000
1000
0010
1000
,
0000
0010
0100
0010
0000
0100
0001
0100
0000
0001
0010
0001
0000
1000
0100
1000
,
0000
0001
0100
0001
0000
0010
0100
0020
0100
0000
0100
0000
0100
0000
0030
0000
,
0010
0001
0100
0010
0100
0001
0001
0000
,
1000
0100
0010
0100
1000
0010
0010
0000
,
0100
0010
1000
0010
0100
0001
0010
1000
,
0010
0001
0100
0010
1000
0100
0100
0000
,
1000
0010
0100
0010
0000
1000
0001
1000
,
0000
0001
0010
0001
0000
0100
0010
0100
,
0000
0001
1000
0001
0000
1000
0100
1000
,
0010
0100
0010
1000
0010
0001
0010
0100
,
0010
0000
0010
0000
1010
0000
1000
0100
0010
0100
1000
0000
1001
0000
1000
0001
,
0010
0000
0010
0000
0011
0000
0001
0100
0010
0100
0001
0000
0101
0000
1000
0100
,
0010
0000
0010
0000
0110
0000
0100
1000
0010
0100
0010
0000
1010
0000
1000
0000
;
