#TITLE:Machiko no uta;
#SUBTITLE:;
#ARTIST:AKIRA YAMAOKA;
#TITLETRANSLIT:;
#SUBTITLETRANSLIT:;
#ARTISTTRANSLIT:;
#CREDIT:Grithokskulk;
#BANNER:Machiko no uta.png;
#BACKGROUND:Machiko no uta-bg.png;
#LYRICSPATH:;
#CDTITLE:beatmania IIDX.png;
#MUSIC:Machiko no uta.mp3;
#OFFSET:0.339;
#SAMPLESTART:73.455;
#SAMPLELENGTH:15.000;
#SELECTABLE:YES;
#BPMS:0.000=152.000;
#STOPS:;
#BGCHANGES:0.875=Machiko no uta.avi=1.000=1=0=1,
99999=-nosongbg-=1.000=0=0=0 // don't automatically add -songbackground-
;

//---------------dance-single - ----------------
#NOTES:
     dance-single:
     :
     Easy:
     3:
     0.251,0.262,0.017,0.100,0.000: // measure 1
0000
0000
0000
0000
,  // measure 2
0000
0000
0000
1100
,  // measure 3
0000
0000
0000
0100
,  // measure 4
0100
0100
0100
0010
,  // measure 5
0000
0010
0000
0000
,  // measure 6
0100
0100
0000
1000
,  // measure 7
0000
1000
0000
0001
,  // measure 8
0001
0001
0000
1000
,  // measure 9
0000
1000
0000
0001
,  // measure 10
0001
0001
0000
0010
,  // measure 11
0000
0010
0000
0001
,  // measure 12
0001
0001
0000
0100
,  // measure 13
0100
0100
0000
0001
,  // measure 14
0001
0001
0000
1000
,  // measure 15
0100
1000
0000
0001
,  // measure 16
0100
0001
0000
0010
,  // measure 17
0100
0010
0000
1000
,  // measure 18
0100
1000
0000
0001
,  // measure 19
0001
0100
0001
1000
,  // measure 20
1000
0100
1000
0010
,  // measure 21
0010
0010
0000
0100
,  // measure 22
0100
0100
0000
0001
,  // measure 23
0000
1000
0000
0100
,  // measure 24
0000
1000
0010
1000
,  // measure 25
0000
0100
0000
0010
,  // measure 26
0100
0010
0000
0001
,  // measure 27
0000
0100
0000
0001
,  // measure 28
0000
0010
0100
0010
,  // measure 29
0000
0100
0000
0010
,  // measure 30
0010
0010
0000
0001
,  // measure 31
0001
0001
0001
0000
,  // measure 32
0000
1000
0000
1000
,  // measure 33
1000
1000
1000
0000
,  // measure 34
0000
0010
0010
0100
,  // measure 35
0100
0100
0100
0000
,  // measure 36
0000
0001
0001
0010
,  // measure 37
0010
0010
0010
0000
,  // measure 38
0000
0001
0001
0200
,  // measure 39
0300
0100
0100
0200
,  // measure 40
0300
0200
0300
0020
,  // measure 41
0030
0010
0010
0020
,  // measure 42
0030
0020
0030
2000
,  // measure 43
3000
1000
1000
2000
,  // measure 44
3000
2000
3000
0002
,  // measure 45
0003
0001
0001
0002
,  // measure 46
0003
2000
3000
0001
,  // measure 47
1000
0001
1000
0001
,  // measure 48
0000
0010
0100
0010
,  // measure 49
0000
0001
0010
0001
,  // measure 50
0000
1000
1000
0010
,  // measure 51
0010
0100
0100
0010
,  // measure 52
0000
1000
0100
1000
,  // measure 53
0000
0001
0100
0001
,  // measure 54
0000
0010
0010
0001
,  // measure 55
0001
1000
1000
0010
,  // measure 56
0000
1000
0100
1000
,  // measure 57
0000
0001
0100
0001
,  // measure 58
0000
0010
0010
0001
,  // measure 59
0001
1000
1000
0010
,  // measure 60
0000
1000
0010
1000
,  // measure 61
0000
0001
0010
0001
,  // measure 62
0000
0100
0100
0010
,  // measure 63
0010
1000
1000
0001
,  // measure 64
0000
0001
0000
1000
,  // measure 65
1000
1000
0000
0001
,  // measure 66
0000
0001
0000
0100
,  // measure 67
0100
0100
0000
0001
,  // measure 68
0010
0001
0000
1000
,  // measure 69
0010
1000
0000
0100
,  // measure 70
0100
0100
0010
0100
,  // measure 71
0100
0110
0000
0000
;

//---------------dance-single - ----------------
#NOTES:
     dance-single:
     :
     Medium:
     6:
     0.434,0.525,0.407,0.149,0.000:
0000
0000
0000
0000
,
0000
0000
0000
2200
,
0000
0000
3300
0010
,
0100
1000
0020
0100
,
0000
0100
0030
0000
,
0100
0100
0110
0000
,
1000
0000
0100
1000
0100
0000
0010
0000
,
0010
0000
0001
0010
0001
0000
0100
0000
,
0100
0000
0010
0100
0010
0000
1000
0000
,
1000
0001
0000
0010
,
0010
0000
0001
0100
0001
0000
1000
0000
,
1000
0000
0100
1000
0100
0000
0010
0000
,
0010
0100
0100
1100
,
0101
2100
3001
0101
,
0101
0000
0001
0100
0001
0100
0110
0000
,
0110
0000
0100
0010
0100
0010
1010
0000
,
1010
0000
1000
0010
1000
0010
1100
0000
,
1100
0000
1000
0100
1000
0100
1001
0000
,
1001
0000
1000
0001
1000
0001
0011
0000
,
0011
0000
0010
0000
0100
0010
0110
0000
,
0110
0000
0110
0000
1000
0001
1001
0000
,
0110
0000
1001
0000
0110
0000
0001
0100
,
0001
0000
1000
0100
1000
0000
0001
0010
,
0001
0000
1000
0000
0010
0000
0100
0010
,
0100
0000
0001
1000
0001
0000
0010
0000
,
0100
0000
0010
0100
0000
0000
0001
0010
,
0001
0000
1000
0010
1000
0000
0001
0100
,
0001
0000
1000
0000
0100
0000
1000
0010
,
1000
0000
0001
0100
0001
0000
0010
0100
,
0010
0100
0010
0100
0000
0000
0100
0000
,
0000
0010
0010
0010
0010
0000
0001
0000
,
0100
0010
1000
0100
,
0000
1000
1000
1000
1000
0000
0010
0000
,
0100
0000
0001
1000
0001
0000
0010
0000
,
0000
0100
0100
0100
0100
0000
0010
0000
,
0000
0001
0001
0001
0001
0000
0100
0000
,
0000
0010
0010
0010
0010
0000
0100
0010
,
0100
0000
0001
0001
0001
0000
2002
0000
,
3003
0000
1000
1000
1000
0000
0220
0000
,
0000
0330
0000
0202
,
0303
0000
0010
0010
0010
0000
0022
0000
,
0000
0033
0000
2002
,
3003
0000
1000
1000
1000
0000
2020
0000
,
0000
3030
0000
0220
,
0330
0000
0001
0001
0001
0000
0010
0000
,
0010
0010
0010
0011
,
0110
1100
0110
0011
,
0000
0000
1000
0001
1000
0000
0110
0000
,
0000
0000
1000
0010
1000
0000
0101
0000
,
0000
1000
0100
0010
,
0010
0100
0100
0011
,
0000
0000
0001
0100
0001
0000
1001
0000
,
0000
0000
1000
0100
1000
0000
1001
0000
,
0000
0100
0010
1000
,
0001
0010
0010
0011
,
0000
0000
0100
0010
0100
0000
1001
0000
,
0000
0000
0001
0010
0001
0000
1010
0000
,
0000
1000
0010
0100
,
0010
1000
1000
1001
,
0000
0000
0100
0010
0100
0000
0101
0000
,
0000
0000
1000
0100
1000
0000
1010
0000
,
0000
0100
0010
1000
,
0001
0001
0010
0110
,
0010
0000
0010
0001
0010
0000
0001
0000
,
0001
0000
0100
0001
0100
0000
0010
0000
,
0010
0000
1000
0100
1000
0000
0010
0000
,
0010
0000
1000
0001
1000
0000
0001
0000
,
0010
0000
0100
0010
0001
0010
0100
0000
,
0100
0000
1000
0000
0010
0100
0001
0000
,
0001
0000
1000
0000
0001
0010
0100
0000
,
1000
1001
0000
0000
;

//---------------dance-single - ----------------
#NOTES:
     dance-single:
     :
     Hard:
     7:
     0.561,0.612,0.822,0.183,0.046:
0000
0000
0000
0000
,
0000
0000
0000
2200
,
0000
0000
3300
1010
,
0101
0011
1100
2001
,
0000
0001
0000
0000
,
0001
3001
1001
0001
,
0001
0000
0001
0010
0100
1000
0100
0000
,
0100
0000
0100
1000
0100
0010
0001
0000
,
0001
0000
0001
0010
0100
1000
0100
0000
,
0100
0000
0100
1000
0010
0100
0001
0000
,
0001
0000
0001
0100
0010
1000
0100
0000
,
0100
0000
0100
0000
1000
0010
0100
0000
,
0100
0000
0100
0000
0001
0010
0110
0000
,
1001
0101
1010
1100
,
1010
0000
1000
0010
0001
0010
0110
0000
,
0101
0000
0010
0001
0100
0010
1010
0000
,
1100
0000
1000
0010
0100
0001
0011
0000
,
1100
0000
0001
0010
1000
0010
0011
0000
,
0011
0000
0001
0100
0010
1000
1010
0000
,
1100
0000
1010
0000
0100
0010
0100
0000
,
0100
0000
0110
0000
0001
1000
1100
0000
,
0011
0000
0101
0000
1010
0000
1000
0100
,
0010
0000
1000
0100
0010
0000
1000
0100
,
0010
0000
1000
0100
0001
0100
1000
0010
,
0001
0000
1000
0010
0001
0000
1000
0010
,
0001
0010
0100
0100
0000
0000
0001
0010
,
0100
0000
0001
0010
0100
0000
0001
0010
,
0100
0000
0001
0010
0100
0010
0001
0100
,
1000
0000
0001
0100
1000
0000
0001
0100
,
0001
0100
0010
0010
0100
0000
0001
0001
,
0001
0000
0000
0000
1000
0000
0100
0000
1000
0000
0000
0000
0010
1000
0000
0000
,
1000
0100
0000
0000
0100
0010
0000
0000
0010
0100
0000
0000
1000
0000
1000
0000
,
1000
0000
0001
0100
0010
0000
0100
0100
,
0100
0000
0001
0010
0100
0000
0010
0010
,
0010
0000
0001
0100
0010
0000
0100
0100
,
0100
0000
0010
1000
0100
0000
0001
0001
,
0001
0000
0100
1000
0010
0000
0100
0100
,
0100
0000
0010
0010
0010
0000
0220
0000
,
0330
0000
0100
0100
0100
0100
0220
0000
,
0330
1010
0101
0022
,
0033
0000
1000
1000
1000
1000
2002
0000
,
3003
0110
0101
2002
,
3003
0000
0100
0100
0100
0100
0220
0000
,
0330
0011
1100
0220
,
0330
0000
1000
1000
1000
1000
2001
0000
,
0001
0001
3001
0011
,
1100
1010
0101
1001
,
0000
0000
1000
0100
0001
0100
1100
0000
,
0000
0000
1000
0010
0001
0010
1010
0000
,
0000
0011
0011
1100
,
1100
1010
0110
0101
,
0000
0000
0001
0010
0100
0010
0011
0000
,
0000
0000
1000
0010
0100
0010
1010
0000
,
0000
1100
1100
0011
,
0011
0101
1010
1001
,
0000
0000
1000
0100
0010
0100
1100
0000
,
0000
0000
0010
0001
0100
0001
0011
0000
,
0000
0101
0110
0101
,
0101
1001
1001
1100
,
0000
0000
0010
0100
1000
0100
0110
0000
,
0000
0000
0100
0010
0001
0100
0110
0000
,
0000
0101
1010
0101
,
0101
0011
0011
2100
,
3100
0000
2100
0100
3100
0010
0011
0000
,
0101
0000
0011
0100
0010
0001
0201
0000
,
0310
0000
0201
0010
0310
1000
1100
0000
,
1010
0000
0000
0000
1100
0000
0010
0000
0100
0000
1000
0000
0010
0100
0000
0000
,
0100
0001
0000
0000
0001
0010
0000
0000
0010
0100
0000
0000
0100
0010
0000
0000
,
0010
0001
0000
0000
0001
0100
0000
0000
0100
0000
0010
0000
1010
0000
0000
0000
,
0101
0000
0011
0000
1000
0100
0110
0000
,
1001
0110
0000
0000
;
