#TITLE:MAX 300;
#SUBTITLE:takamatt MIN REMIX;
#ARTIST:takamatt;
#TITLETRANSLIT:;
#SUBTITLETRANSLIT:;
#ARTISTTRANSLIT:;
#CREDIT:Grithokskulk;
#BANNER:MAX 300 takamatt MIN REMIX.png;
#BACKGROUND:MAX 300 takamatt MIN REMIX-bg.png;
#LYRICSPATH:;
#CDTITLE:SOUND VOLTEX.png;
#MUSIC:MAX 300 takamatt MIN REMIX.mp3;
#OFFSET:-7.139;
#SAMPLESTART:84.755;
#SAMPLELENGTH:15.000;
#SELECTABLE:YES;
#BPMS:0.000=136.000,48.000=68.000,64.000=136.000,112.000=272.000,136.000=68.000,138.000=136.000;
#STOPS:;
#BGCHANGES:;

//---------------dance-single - ----------------
#NOTES:
     dance-single:
     :
     Easy:
     3:
     0.228,0.262,0.085,0.057,0.005: // measure 1
1000
0100
0000
0100
,  // measure 2
0000
0100
0000
0100
,  // measure 3
1000
0010
0000
0010
,  // measure 4
0000
0010
0000
0010
,  // measure 5
1000
0100
0001
0100
,  // measure 6
1000
0100
0001
0100
,  // measure 7
1000
0010
0001
0010
,  // measure 8
1000
0010
0001
0010
,  // measure 9
1000
0100
1000
0010
,  // measure 10
1000
0100
1000
0010
,  // measure 11
1000
0001
0010
0001
,  // measure 12
0100
0001
0010
0001
,  // measure 13
0100
0010
2000
3100
,  // measure 14
0010
0001
0010
0100
,  // measure 15
0010
0001
0100
0010
,  // measure 16
0100
0001
1000
0100
,  // measure 17
2000
0100
0000
0100
,  // measure 18
0000
0100
0000
3100
,  // measure 19
0020
0100
0000
0100
,  // measure 20
0000
0100
0000
0130
,  // measure 21
2000
0010
0000
0010
,  // measure 22
0000
0010
0000
3010
,  // measure 23
0002
0010
0000
0010
,  // measure 24
0000
0010
0000
0013
,  // measure 25
0200
0000
0000
0000
,  // measure 26
0300
0000
0000
0000
,  // measure 27
0000
0000
0000
0000
,  // measure 28
0000
0000
0000
0000
,  // measure 29
1000
0000
1000
0000
,  // measure 30
0001
0000
0001
0000
,  // measure 31
1000
0000
0100
0000
,  // measure 32
0010
0001
1000
0000
,  // measure 33
0001
0000
0100
0000
,  // measure 34
0001
0000
0010
0000
,  // measure 35
0100
0000
1000
0000
0001
1000
0001
0000
1000
0000
0000
0000
1000
0000
0000
0000
,  // measure 36
0000
0001
0000
0010
,  // measure 37
0100
0100
0010
0001
,  // measure 38
0000
0001
0000
0001
,  // measure 39
0100
0010
0100
0010
,  // measure 40
0000
0010
0000
0010
,  // measure 41
1000
0100
1000
0010
,  // measure 42
0000
0010
0000
0100
,  // measure 43
0001
0100
0010
0100
,  // measure 44
0001
0101
0001
0010
,  // measure 45
0100
1100
1000
0010
,  // measure 46
0100
0110
0010
1000
,  // measure 47
0001
1001
1000
0010
,  // measure 48
0100
0110
0010
1000
,  // measure 49
0100
1100
1000
0001
,  // measure 50
0100
0110
0010
1000
,  // measure 51
0001
0110
1001
0000
;

//---------------dance-single - ----------------
#NOTES:
     dance-single:
     :
     Medium:
     5:
     0.358,0.429,0.028,0.151,0.014:
1000
0100
0000
0100
0000
1000
0000
1000
,
0000
0010
0000
0010
0100
0010
0100
0000
,
0001
0010
0000
0010
0000
0100
0000
0100
,
0000
0010
0000
0010
0001
0010
0001
0000
,
0100
0001
0100
0000
0010
1000
0010
0000
,
1000
0100
1000
0000
0001
0010
0001
0010
,
0001
0100
0001
0000
0100
0010
0100
0000
,
0010
1000
0010
0000
1000
0100
1000
0100
,
1000
0001
1000
0000
0001
0100
0001
0000
,
1000
0100
1000
0000
0010
0100
0010
0100
,
0010
1000
0010
0000
1000
0100
1000
0000
,
0001
0010
0001
0000
0100
0010
0100
0010
,
0200
0000
0001
0010
0302
0000
0010
1003
,
0200
0000
0010
0001
0320
0000
1000
0100
,
2030
0000
0100
0010
3002
0000
0100
0010
,
2003
0000
0100
0010
3002
0000
1003
1001
,
0001
1000
0000
0100
0000
1000
0100
1000
,
0000
0010
0000
0100
0000
0010
0100
0010
,
0000
0100
0000
0001
0010
0001
0010
0001
,
0000
1000
0000
0100
1000
0100
1000
0000
,
0010
0100
0000
0010
0000
0100
0001
0100
,
0000
0001
1000
0001
1000
0001
0000
1000
,
0000
0100
1000
0100
0000
1000
0010
1000
,
0010
0000
0100
0000
0010
0100
0010
0000
,
2002
0000
0000
0000
,
3003
0000
0000
0000
,
0000
0000
0000
0000
,
0000
0000
0000
0000
,
0001
0100
0020
0030
,
1000
0100
0020
0030
,
0001
1000
0001
1000
,
0001
1000
2000
3000
,
0001
0010
0200
0300
,
1000
0010
0200
0300
,
0001
1000
0001
1000
0001
1000
2000
3000
0010
0000
0000
0000
0100
0000
0100
0000
,
0000
0000
0001
0001
0000
0000
0010
0010
,
0100
1000
0100
0000
1000
0000
0010
0010
,
0000
0000
0100
0100
0000
0000
0001
1000
,
0001
1000
0100
0010
,
0100
1000
0010
0100
,
0001
1000
0001
1000
0001
0000
0010
0000
,
0100
0010
0001
0001
,
0100
0010
0100
0010
0100
0000
0001
0000
,
0010
0100
0000
0100
1000
0000
0010
0000
,
0100
0100
0000
0100
0001
0000
0010
0000
,
0001
0001
0000
0001
1000
0000
0010
0000
,
1000
1000
0000
1000
0000
0000
1000
0000
,
0010
0010
0000
0010
0100
0000
0001
0000
,
0010
0100
0000
0100
1000
0000
0010
0000
,
0100
0001
0000
0001
1000
0000
0100
0000
,
0010
0100
0000
0100
0110
0000
0000
0000
;

//---------------dance-single - ----------------
#NOTES:
     dance-single:
     :
     Hard:
     8:
     0.565,0.643,0.406,0.123,0.458:
1000
0100
1000
0100
0000
1000
0100
0010
,
0000
0001
0100
0001
0100
0010
1000
0100
,
0010
0001
0010
0001
0000
1000
0010
0100
,
0000
0010
1000
0100
0010
0001
0010
0001
,
1000
0000
1010
0000
1000
0100
0010
0001
,
0200
0000
1000
0000
0310
0100
0001
0010
,
0100
1000
0100
1000
0020
0000
0001
0000
,
1030
0010
0100
0010
1000
0100
0010
0001
,
1000
0100
1000
0010
0200
0000
1000
0000
,
0310
0100
0001
0010
0100
0010
0001
0100
,
0001
1000
0001
1000
0200
0000
0001
0000
,
1300
0010
1000
0000
0010
1000
0100
0010
,
0002
0000
0100
0000
0013
0100
0000
0100
2000
0000
3010
0000
0001
0000
0020
0000
,
0130
0000
0001
0000
0010
0100
0000
0100
0010
0000
0001
0000
0100
0000
1000
0000
,
0200
0000
0301
0000
0010
0001
0000
0001
1000
0000
0100
0000
0020
0000
0130
0000
,
1000
0000
0000
0000
0020
0000
0000
0000
0130
0000
0010
0000
0000
0000
0010
0000
1000
0000
0000
0000
0001
0000
0010
0000
0001
1000
0000
1000
0001
0000
0010
0100
,
1000
0000
0100
0000
1000
0000
0010
0000
0100
0000
0000
0001
0000
0000
0010
0000
,
0100
0000
0000
0010
0000
0100
0000
0010
0001
0000
1000
0000
0010
0000
0000
0100
,
0010
0000
0000
1000
0000
0000
0100
0000
0000
1000
0000
0010
0000
0100
0010
0000
,
0100
0000
0001
0010
0000
0100
0000
0010
0000
0100
1000
0000
0010
0000
0100
0010
,
1000
0100
0000
0010
0000
0000
0100
0000
1000
0000
0000
0010
0000
0100
0010
0000
,
1000
0100
0000
0001
0000
0100
0000
1000
0000
0000
0010
0000
0100
0001
0010
0100
,
0010
0001
0000
0100
1000
0000
0100
0001
0000
0100
0000
0010
0000
0100
0010
0000
,
1000
0100
0010
0100
0000
1000
0000
0010
0000
0000
0100
0000
0001
0100
0010
1000
,
0200
0010
0010
0010
,
0010
0010
0010
0010
,
0320
0001
1000
0001
,
0230
1000
0010
1300
,
0001
0000
0100
0000
0010
1000
0000
0010
,
1000
0000
0100
0000
0010
0001
0000
0010
,
0001
0000
1000
0000
0001
0100
0000
0010
,
1000
0001
0001
0000
,
1000
0000
0100
0000
0010
0001
0000
0010
,
0001
0000
0100
0000
0010
1000
0000
0010
,
1000
0000
0001
0000
1000
0100
0000
0010
0001
0000
1000
0000
1000
0000
0000
0000
1010
0000
0000
0000
0000
0000
1010
0000
0000
0000
0000
0000
1010
0000
0000
0000
,
0000
0000
0000
0101
0000
0000
0101
0000
0000
0000
0000
1001
0000
0000
1001
0000
,
1000
0000
0100
0000
0001
0000
0100
0000
0110
0000
0000
0110
0000
0000
0110
0000
,
0000
0000
0000
1100
0000
0000
1100
0000
0000
0000
0000
1010
0000
0000
1010
0000
,
0010
0000
0100
0000
0010
0000
1000
0000
0000
0101
0000
0000
0101
0000
0000
1010
,
0000
0000
1010
0000
0000
1100
0000
0000
1100
0000
0000
0011
0000
0000
0011
0000
,
0010
0000
0100
0000
0010
0000
0001
0000
0000
0101
0000
0000
0101
0000
0000
0110
,
0000
0000
0110
0000
0000
1010
0000
0000
1010
0000
0000
1100
0000
0000
1100
0000
,
0010
0000
0100
0000
1000
0000
0100
0000
0010
0000
0001
1000
0000
1000
0001
0000
,
0010
0000
0000
0011
0000
0000
1100
0000
0100
0000
1000
0001
0000
0001
1000
0000
,
0100
0000
0000
1100
0000
0000
0011
0000
0001
0000
0010
0100
0000
0100
0010
0000
,
0001
0000
0100
0010
0000
0010
0100
0000
0010
0000
1000
0001
0000
0001
1000
0000
,
0001
0000
0000
1001
0000
0000
1001
0000
0000
0000
0000
0010
0000
0010
0100
0000
,
0010
0000
0000
1001
0000
0000
0110
0000
1000
0000
0100
0010
0000
0010
0100
0000
,
1000
0000
0000
1001
0000
0000
0110
0000
0001
0000
0100
0010
0000
0010
0100
0000
,
0000
0000
0000
1010
0000
0000
0101
0000
1000
0100
1000
0100
1000
0001
1000
0001
,
1000
0010
0100
0001
0010
0100
1000
0010
0100
0000
0000
0000
0000
0000
0000
0000
;
