#TITLE:M4K3 1T B0UNC3;
#SUBTITLE:;
#ARTIST:kors k;
#TITLETRANSLIT:;
#SUBTITLETRANSLIT:;
#ARTISTTRANSLIT:;
#CREDIT:Grithokskulk;
#BANNER:M4K3 1T B0UNC3.png;
#BACKGROUND:M4K3 1T B0UNC3-bg.png;
#LYRICSPATH:;
#CDTITLE:beatmania IIDX.png;
#MUSIC:M4K3 1T B0UNC3.mp3;
#OFFSET:-7.219;
#SAMPLESTART:45.575;
#SAMPLELENGTH:15.000;
#SELECTABLE:YES;
#BPMS:0.000=150.000;
#STOPS:;
#BGCHANGES:;

//---------------dance-single - ----------------
#NOTES:
     dance-single:
     :
     Easy:
     4:
     0.292,0.279,0.033,0.231,0.000: // measure 1
1000
0100
1000
0100
,  // measure 2
0020
0030
0200
0300
,  // measure 3
0020
0030
0002
0003
,  // measure 4
0200
0300
0020
0030
,  // measure 5
0100
0100
0010
0010
,  // measure 6
0100
0100
0001
0001
,  // measure 7
0010
0010
0100
0100
,  // measure 8
0020
0000
0000
0030
,  // measure 9
0100
0010
0010
0100
,  // measure 10
0001
0001
0010
0000
,  // measure 11
0001
1000
1000
0001
,  // measure 12
0100
0100
0001
0000
,  // measure 13
1000
0100
0100
1000
,  // measure 14
0010
0010
1000
0000
,  // measure 15
0100
0010
0010
0100
,  // measure 16
1000
0000
0001
0000
,  // measure 17
0100
0010
0010
0100
,  // measure 18
0001
0001
0010
0000
,  // measure 19
0001
1000
1000
0010
,  // measure 20
1000
1000
0100
0000
,  // measure 21
0010
0100
0100
0010
,  // measure 22
0001
0001
0100
0000
,  // measure 23
0001
1000
1000
0010
,  // measure 24
1000
0000
0001
0000
,  // measure 25
0020
0000
0100
0100
,  // measure 26
0100
0100
0130
0000
,  // measure 27
2000
0000
0001
0001
,  // measure 28
0001
0001
3001
0000
,  // measure 29
0002
0000
0100
0100
,  // measure 30
0100
0100
0103
0000
,  // measure 31
0200
0000
0010
0010
,  // measure 32
0010
0010
0310
0000
,  // measure 33
1000
1000
1000
1000
,  // measure 34
1000
1000
1000
1001
,  // measure 35
0000
0001
0001
0000
,  // measure 36
0020
0030
0200
0300
,  // measure 37
0000
0010
0010
0000
,  // measure 38
0002
0003
2000
3000
,  // measure 39
0000
0010
0010
0000
,  // measure 40
2000
3000
0002
0003
,  // measure 41
0000
0010
0010
0000
,  // measure 42
0200
0300
2000
3000
,  // measure 43
0001
0001
0001
0001
,  // measure 44
0200
0300
0020
0030
,  // measure 45
0100
0100
0100
0100
,  // measure 46
0002
0003
2000
3000
,  // measure 47
0200
0300
0020
0030
,  // measure 48
0200
0300
2000
3000
,  // measure 49
0001
0100
0001
1000
,  // measure 50
0100
0000
0110
0110
,  // measure 51
0010
0001
0100
0010
,  // measure 52
1000
1000
1000
1000
,  // measure 53
1000
1000
0100
0010
,  // measure 54
0001
0001
0001
0001
,  // measure 55
0100
0100
0001
1000
,  // measure 56
0010
0010
0010
0010
,  // measure 57
0010
0010
1000
0001
,  // measure 58
0010
0010
0100
0000
,  // measure 59
0010
0010
0001
0010
,  // measure 60
0100
0010
0100
1000
,  // measure 61
0000
1000
0010
1000
,  // measure 62
0010
0100
0001
0100
,  // measure 63
0000
0001
0010
0001
,  // measure 64
0100
0010
1000
0010
,  // measure 65
0000
1000
0100
1000
,  // measure 66
0001
0100
0001
0020
,  // measure 67
0100
0100
0100
0100
,  // measure 68
0100
0100
0130
0110
;

//---------------dance-single - ----------------
#NOTES:
     dance-single:
     :
     Medium:
     6:
     0.561,0.503,1.000,0.099,0.000:
1000
0100
0010
0001
,
1000
0010
0100
0001
,
0010
0000
0001
0100
0010
0000
1000
0100
,
0010
0000
0001
0100
0010
0000
1000
0100
,
0010
0110
0100
0110
,
0010
0110
0100
0110
,
0110
0110
0110
0110
,
1001
0000
0000
0000
1001
1001
1001
0000
,
0101
0101
1001
1001
,
1100
1100
0110
1100
,
1001
1001
0110
0110
,
0101
1010
1100
1100
,
0011
0101
1010
1100
,
1001
1001
0110
0110
,
0101
0101
1010
1010
,
0200
0010
0000
0010
0000
0010
0010
0300
,
0110
0110
0011
0011
,
1100
0011
1100
1100
,
1010
1010
0101
0101
,
1010
0101
1010
1010
,
1001
1001
0110
0110
,
1001
0110
1001
1001
,
0101
0101
0011
0011
,
0200
0010
0000
0010
0000
0010
0310
0000
,
0110
0000
0110
0000
0001
1000
0001
1000
,
0001
1000
0001
1000
0001
0000
1001
0000
,
0110
0000
0110
0000
1000
0001
1000
0001
,
1000
0001
1000
0001
1000
0000
1001
0000
,
0110
0000
0110
0000
0001
0010
0001
0010
,
0001
0010
0001
0010
0001
0000
1001
0000
,
0110
0000
0110
0000
1000
0100
1000
0100
,
1000
0100
1000
0100
1000
0000
0100
0000
,
0020
0100
0100
0100
,
0100
0100
0100
0130
,
0000
0001
0002
0003
,
1000
2000
3100
0010
,
0100
0010
0020
0030
,
0100
0200
0310
0001
,
0100
0010
0020
0030
,
0100
0200
0301
1000
,
0100
0100
0200
0300
,
0010
0020
0130
1000
,
1010
1010
0101
0101
,
1010
0101
1010
1010
,
1100
1100
0011
0011
,
1100
0011
1100
1100
,
1001
1001
0110
0110
,
0101
0101
0011
0011
,
1100
1100
0110
0110
,
1000
0001
1000
0001
1000
0001
1000
0000
,
1001
1001
1010
1100
,
1100
1100
1100
1100
,
1100
1100
1010
0110
,
0101
0011
0011
0011
,
0011
0011
0101
0110
,
1010
1100
1100
1100
,
1100
1100
1010
0110
,
0101
0011
0011
0011
,
0011
0011
0101
0110
,
1010
1100
1100
1100
,
1100
1010
0110
0101
,
0011
0011
0011
0011
,
0011
0011
0101
0110
,
1010
1100
1100
1100
,
1100
1100
1010
0110
,
0101
0011
0011
1001
,
2001
0001
0001
0001
,
0001
0001
0001
3001
;

//---------------dance-single - ----------------
#NOTES:
     dance-single:
     :
     Hard:
     9:
     0.743,0.978,0.380,0.470,0.528:
1010
0000
0000
0000
0010
0000
0100
0000
0010
0000
0000
0010
0100
0000
0000
0000
,
0001
0000
0010
0000
0100
0000
0010
0000
0001
0000
0000
0001
1000
0000
0100
0000
,
0010
0000
0000
0010
0100
0000
1000
0000
0010
0000
0000
0010
0100
0000
0001
0000
,
0010
0000
0000
0010
0100
0000
0010
0000
0001
0000
0000
0001
0100
0000
1000
0000
,
0110
0000
0010
0100
0101
0000
0001
0100
,
1001
0000
1000
0001
1100
0000
1000
0100
,
0010
0100
1000
0010
0100
0001
0010
0100
,
0010
0010
0100
0100
0110
0110
1001
0000
,
0101
0000
0000
0001
0010
0000
0100
0000
0010
0000
0000
0010
0100
0000
0010
0000
,
0001
0000
0000
0001
0100
0000
0010
0000
0100
0010
0000
0100
0010
0000
0100
0001
,
0010
0000
0000
0000
0110
0000
0000
0000
0010
0000
0000
0010
0001
0000
0100
0000
,
0010
0000
0000
0010
0100
0000
0001
0000
1000
0100
0000
1000
0100
0000
1000
0010
,
0100
0000
0000
0000
0010
0000
0100
0000
0001
0000
0000
0001
0010
0000
0100
0000
,
0010
0001
0000
0010
0001
0000
0100
0000
0010
1000
0000
0010
0100
0000
0010
0100
,
0001
0000
0000
1000
0100
0000
0000
0010
0100
0000
0000
0100
0010
0000
0001
0000
,
0200
0000
0010
0000
0000
0000
0010
0000
0000
0010
0300
0000
0110
0000
0000
0000
,
1001
0000
0000
0000
0001
0000
0010
0000
0100
0000
0000
0100
0010
0000
0001
0000
,
0100
0000
0000
0100
0001
0000
1000
0000
0100
0010
0000
0100
1000
0000
0010
1000
,
0100
0000
0000
0100
0001
0000
0000
0001
0100
0000
0000
0100
0010
0000
0001
0000
,
0100
0010
0000
0100
0001
0000
0100
1000
0000
0100
0010
0000
0100
0001
0010
0100
,
1000
0000
0000
0000
1010
0000
0000
0000
0010
0000
0000
0100
0001
0000
0010
0000
,
0100
0000
0000
0100
0010
0000
0001
0000
0010
0100
0000
0010
0001
0000
0100
0010
,
1000
0000
0000
0000
0100
0000
0010
0000
0001
0000
0000
0001
0010
0000
0100
0000
,
0010
0002
0100
0010
0103
0000
1001
0000
,
1000
0000
0000
0001
0000
0000
0110
0000
0000
0000
0000
0000
0002
0000
0023
0000
0230
0000
2300
0000
3020
0000
0230
0000
,
0302
0000
0000
0000
0023
0000
0000
0000
0230
0000
0000
0000
2300
0000
0000
0000
3020
0000
0000
0000
0230
0000
0000
0000
0302
0000
0000
0000
0003
0000
1000
0000
0000
0001
0000
0000
1000
0000
0000
0000
0000
0000
0001
0000
0000
0000
0000
0000
,
0010
0000
0000
0000
0000
0000
0000
0000
0000
0010
0000
0000
0100
0000
0000
0000
0000
0000
1000
0000
0000
0000
0000
0000
0002
0000
0000
0000
0000
0000
0000
0000
0023
0000
0000
0000
0000
0000
0000
0000
0230
0000
0000
0000
0000
0000
0000
0000
,
0320
0000
0000
0000
0000
0000
0000
0000
0032
0000
0000
0000
0000
0000
0000
0000
0203
0000
0000
0000
0000
0000
0000
0000
0320
0000
0000
0000
0000
0000
0000
0000
0000
1030
0000
0000
0100
0000
0000
0000
0000
0000
0010
0000
0000
0000
0000
0000
,
0100
0000
0000
1000
0000
0000
1001
0000
0000
0000
0000
0000
2000
0000
3020
0000
0032
0000
2003
0000
3200
0000
0302
0000
,
2003
0000
0000
0000
3020
0000
0000
0000
0032
0000
0000
0000
2003
0000
0000
0000
3200
0000
0000
0000
0302
0000
0000
0000
2003
0000
0000
0000
3000
0000
0001
0000
0000
1000
0000
0000
0001
0000
0000
0000
0000
0000
1000
0000
0000
0000
0000
0000
,
0100
0000
0000
0010
0000
0000
0110
0000
0000
0000
0000
0000
0002
0000
0000
0000
2003
0000
0000
0000
3020
0000
0000
0000
,
0230
0000
0000
0000
0000
0000
0000
0000
0320
0000
0000
0000
0000
0000
0000
0000
2030
0000
0000
0000
0000
0000
0000
0000
3002
0000
0000
0000
0000
0000
0000
0000
0000
1003
0000
0000
0100
0000
0000
0000
0000
0000
0010
0000
0000
0000
0000
0000
,
0200
0300
0200
0300
0200
0300
0200
0300
,
0200
0300
0200
0300
0200
0300
0110
0000
,
0000
0000
0000
0000
0001
1000
0001
0000
1000
0000
0001
1000
0000
0000
0001
0000
,
0100
0010
0100
0010
0100
0000
0010
0000
0100
0000
0010
0100
0000
0000
0010
0000
,
0000
0000
0000
0000
1000
0100
1000
0000
0100
0000
1000
0100
0000
0000
1000
0000
,
0001
0010
0001
0010
0001
0000
0010
0000
0001
0000
0010
0001
0000
0000
0010
0000
,
0000
0000
0000
0000
0001
0100
0001
0000
0100
0000
0001
0100
0000
0000
0001
0000
,
1000
0010
1000
0010
1000
0000
0010
0000
1000
0000
0010
1000
0000
0000
0010
0000
,
0000
0000
0000
0000
1000
0001
1000
0000
0001
0000
1000
0001
0000
0000
1000
0000
,
0100
0010
0100
0010
0100
0000
0010
0000
0100
0000
0010
0100
0000
0000
0010
0000
,
0011
0000
0000
0000
0001
0100
0010
0000
0100
0000
0001
0010
0000
0000
0100
0000
,
0010
0001
0010
0000
0001
0000
0100
0000
0010
0000
0000
0010
0100
0000
0001
0000
,
1000
0000
0000
0000
0100
1000
0100
0000
1000
0000
0010
0100
0000
0000
0010
0000
,
0100
0001
0010
0000
0100
0000
0010
0000
0001
0000
0000
0001
1000
0000
0010
0000
,
0100
0000
0000
0100
0001
0000
0010
0000
1000
0000
0000
1000
0010
0000
0001
0000
,
0100
0000
0000
0100
0010
0000
1000
0000
0100
0000
0000
0100
0001
0000
0100
0000
,
1000
1000
0010
0010
0100
0100
0001
0001
,
0010
0010
0100
0100
0110
0110
1001
0000
,
0101
0000
0000
0000
1000
0100
1000
0000
0100
0000
0010
0000
0100
0000
1000
0000
,
0010
0000
0001
0000
0010
0000
0100
0000
0110
0000
0000
1001
0000
0000
0110
0000
,
0011
0000
0000
0000
0001
0010
0100
0000
0010
0000
0001
0000
0100
0000
1000
0000
,
0100
0000
0010
0000
1000
0000
0100
0000
0101
0000
0000
1100
0000
0000
1010
0000
,
1001
0000
0000
0000
0010
0001
0100
0000
0010
0000
1000
0000
0100
0000
0010
0000
,
0100
0000
1000
0000
0010
0000
0001
0000
0011
0000
0000
1010
0000
0000
0110
0000
,
0101
0000
0000
0000
1000
0100
0010
0000
0100
0000
1000
0000
0010
0000
0100
0000
,
0002
0000
0010
0000
0010
0000
0013
0000
0000
0100
0000
0000
0110
0000
0000
0000
,
0011
0000
0000
0000
1000
0010
0100
0010
1000
0000
0100
0000
0001
0000
0100
0000
,
0010
0000
0001
0000
0100
0000
1000
0000
0100
0000
0000
0110
0000
0000
0001
0000
,
1001
0000
0000
0000
1000
0100
0010
0100
1000
0000
0010
0000
0100
0000
1000
0000
,
0100
0000
0001
0000
0010
0000
1000
0000
0010
0000
0000
0110
0000
0000
0001
0000
,
1001
0000
0000
0000
1000
0100
0010
0001
0010
0000
0100
0000
0010
0000
0001
0000
,
0100
0000
1000
0000
0100
0000
0010
0000
0100
0000
0000
0110
0000
0000
1000
0000
,
1100
0000
0000
0000
0001
0010
0100
1000
0100
0000
0010
0000
0100
0000
1000
0000
,
0010
0000
0001
0000
0010
0000
0100
0000
0001
0000
0000
1001
0000
0000
0100
0000
,
0120
0030
0020
0030
0020
0030
0020
0030
,
0020
0030
0020
0030
0020
0030
1100
0000
;
