#TITLE:Lost wing at.0;
#SUBTITLE:;
#ARTIST:Nekomata Master+;
#TITLETRANSLIT:;
#SUBTITLETRANSLIT:;
#ARTISTTRANSLIT:;
#CREDIT:Grithokskulk;
#BANNER:Lost wing at.0.png;
#BACKGROUND:Lost wing at.0-bg.png;
#LYRICSPATH:;
#CDTITLE:grithokskulk.png;
#MUSIC:Lost wing at.0.mp3;
#OFFSET:-3.981;
#SAMPLESTART:82.875;
#SAMPLELENGTH:15.000;
#SELECTABLE:YES;
#BPMS:0.000=185.000;
#STOPS:240.500=0.960
;
#BGCHANGES:;

//---------------dance-single - ----------------
#NOTES:
     dance-single:
     :
     Easy:
     3:
     0.221,0.250,0.087,0.214,0.000: // measure 1
1000
0000
0001
0000
,  // measure 2
0200
0000
0000
0000
,  // measure 3
0000
0000
0000
0300
,  // measure 4
0010
0000
1000
0000
,  // measure 5
0200
0000
0000
0000
,  // measure 6
0000
0000
0000
0300
,  // measure 7
0010
0000
0001
0000
,  // measure 8
0020
0000
0000
0000
,  // measure 9
0000
0000
0000
0030
,  // measure 10
0100
0000
0010
0000
,  // measure 11
0002
0000
0000
0003
,  // measure 12
2000
0000
0000
3000
,  // measure 13
0020
0000
0000
0000
,  // measure 14
0000
0000
0000
0000
,  // measure 15
0000
0000
0000
0030
,  // measure 16
0100
0000
0000
0000
,  // measure 17
0010
0000
0000
0000
,  // measure 18
1000
0000
0000
0100
,  // measure 19
0100
0000
0010
0000
,  // measure 20
0001
0000
0000
0000
,  // measure 21
0010
0000
0000
0000
,  // measure 22
0001
0000
0000
0100
,  // measure 23
0100
0000
0010
0000
,  // measure 24
0100
0000
0110
0000
,  // measure 25
0001
0000
1001
0000
,  // measure 26
0010
0000
0110
0000
,  // measure 27
1000
0100
1000
0000
,  // measure 28
0001
0000
1001
0000
,  // measure 29
0100
0000
0110
0000
,  // measure 30
0010
0000
0110
0000
,  // measure 31
1000
0001
1000
0000
,  // measure 32
0002
0000
0000
0003
,  // measure 33
2000
0000
0000
3000
,  // measure 34
0010
0000
0100
0000
,  // measure 35
0010
1000
0010
0000
,  // measure 36
2000
0000
0000
3000
,  // measure 37
0002
0000
0000
0003
,  // measure 38
0010
0000
0001
0000
,  // measure 39
0100
0010
0100
0000
,  // measure 40
2002
0000
0000
0000
,  // measure 41
0000
0000
0000
3003
,  // measure 42
0010
0010
0010
0000
,  // measure 43
0100
0100
0000
0000
,  // measure 44
0001
0000
0010
0000
,  // measure 45
0001
0000
0010
0000
,  // measure 46
0100
0000
1000
0000
,  // measure 47
0100
0000
1000
0000
,  // measure 48
0010
0000
1000
0000
,  // measure 49
0010
0000
1000
0000
,  // measure 50
0001
0000
0010
0000
,  // measure 51
0001
0000
0010
0000
,  // measure 52
0001
0100
0001
0000
,  // measure 53
0100
0000
0100
0000
,  // measure 54
0010
1000
0010
0000
,  // measure 55
1000
0000
1000
0000
,  // measure 56
0001
0010
0001
0000
,  // measure 57
0010
0000
0010
0000
,  // measure 58
0100
0100
0000
0010
,  // measure 59
0010
0000
0001
0000
,  // measure 60
1000
1000
0000
0001
,  // measure 61
0001
1000
1000
1000
,  // measure 62
0000
0100
0100
0100
,  // measure 63
0000
0010
0010
0010
,  // measure 64
0000
0001
0001
0001
,  // measure 65
0000
0200
0000
0000
,  // measure 66
0300
0020
0000
0000
,  // measure 67
0030
2000
0000
0000
,  // measure 68
3000
0001
0000
0010
,  // measure 69
0000
0100
0100
0100
,  // measure 70
0000
0010
0010
0010
,  // measure 71
0000
0100
0100
0100
,  // measure 72
0000
1000
1000
1000
,  // measure 73
0000
0020
0000
0000
,  // measure 74
0030
0200
0000
0000
,  // measure 75
0300
0001
0000
0010
,  // measure 76
0000
0001
0000
0100
,  // measure 77
0000
0210
0000
0010
,  // measure 78
0000
0010
0000
0020
,  // measure 79
0000
0000
0000
0000
,  // measure 80
0330
1002
0000
1000
,  // measure 81
0000
1000
0000
2000
,  // measure 82
0000
0000
0000
0000
,  // measure 83
3003
0120
0000
0100
,  // measure 84
0000
0100
0000
0200
,  // measure 85
0000
0000
0000
0000
,  // measure 86
0330
2001
0000
0001
,  // measure 87
0000
0001
0000
3002
,  // measure 88
0000
2003
0000
0000
,  // measure 89
0000
3002
0000
0000
,  // measure 90
0000
0000
0000
0000
,  // measure 91
0000
0003
0000
0000
;

//---------------dance-single - ----------------
#NOTES:
     dance-single:
     :
     Medium:
     5:
     0.360,0.429,0.253,0.277,0.016:
1010
0000
0000
0100
0000
0000
0001
0000
,
0000
0020
0000
0000
0000
0000
0000
0000
,
0000
0000
0000
0030
,
0110
0000
0000
0010
0000
0000
0001
0000
,
0000
0200
0000
0000
0000
0000
0000
0000
,
0000
0000
0000
0300
,
0110
0000
0000
1000
0000
0000
0100
0000
,
0000
2000
0000
0000
0000
0000
0000
0000
,
0000
0000
0000
3000
,
1001
0000
0000
0001
0000
0000
0100
0000
,
0000
0020
0000
0000
0000
0000
0000
0000
,
0200
0000
0000
0030
,
0002
0000
0000
0000
,
0000
0000
0000
0000
,
0000
0000
0000
0303
,
1000
0000
0100
0000
0000
1000
0100
0000
,
0010
0000
0001
0000
0000
0010
0001
0000
,
1000
0000
0010
0000
0000
1000
0010
0000
,
0100
0001
0010
0100
,
1000
0000
0001
0000
0000
1000
0001
0000
,
0010
0000
0100
0000
0000
0010
0100
0000
,
1000
0000
0100
0000
0000
1000
0100
0000
,
0010
0001
0100
0010
,
0200
0000
0010
0310
,
2000
0000
0001
3001
,
0020
0000
0100
0130
,
1000
0010
0100
0001
,
0020
0000
0001
0031
,
0002
0000
0100
0103
,
0200
0000
0010
0310
,
0010
1000
0100
1000
,
0010
0000
0000
0010
0100
0000
0110
0000
,
0001
0000
0000
0001
1000
0000
1001
0000
,
1000
0000
0000
1000
0100
0000
1100
0000
,
1000
0010
0100
0001
,
0010
0000
0000
0010
0001
0000
0011
0000
,
0001
0000
0000
0001
0100
0000
0101
0000
,
0100
0000
0000
0100
0010
0000
0110
0000
,
0010
1000
0100
0010
,
0200
0000
0000
0000
,
0000
0000
0000
0300
,
0110
0000
0000
0110
0000
0000
1001
0000
,
0000
2002
0000
0000
0000
0000
3003
0000
,
0001
0000
0000
0100
0000
0000
0010
0000
,
0000
0200
0000
0000
0010
0000
0310
0000
,
0010
0000
0000
1000
0000
0000
0100
0000
,
0000
0020
0000
0000
0100
0000
0130
0000
,
0100
0000
0000
0010
0000
0000
0100
0000
,
0000
2000
0000
0000
0001
0000
3001
0000
,
0001
0000
0000
0100
0000
0000
0010
0000
,
0000
0200
0000
0000
0010
0000
0310
0000
,
1000
0000
0000
0100
0000
0000
1000
0000
,
0000
0010
0000
0000
0100
0000
0100
0000
,
0001
0000
0000
0010
0000
0000
0100
0000
,
0000
0010
0000
0000
0001
0000
0001
0000
,
0100
0000
0000
0010
0000
0000
0100
0000
,
0000
0001
0000
0000
1000
0000
1000
0000
,
0100
0000
0000
0100
0000
0000
0100
0000
0000
0000
0000
0000
0010
0000
0000
0010
,
0000
0010
0000
0000
0001
0000
1000
0000
,
0010
0000
0000
0010
0000
0000
0010
0000
0000
0000
0000
0000
0100
0000
0000
0100
,
0000
0100
0010
0000
0100
0001
0100
0000
,
0001
0000
0010
0100
0010
0000
0001
0000
,
1000
0100
1000
0000
0001
0000
0100
0010
,
0100
0000
0001
0000
0010
0100
0010
0000
,
0100
2000
0000
0000
,
0000
3001
0001
0000
0100
0000
0010
0000
,
0200
0000
0000
0000
,
0000
0310
0010
0000
0100
0000
0001
1000
,
0001
0000
1000
0100
1000
0000
0010
0000
,
1000
0100
1000
0000
0010
0000
1000
0100
,
1000
0000
0001
0000
1000
0100
1000
0000
,
0001
0000
1000
0100
1000
0000
0010
0000
,
2000
0000
0000
0000
,
0000
3001
0001
0000
0100
0000
0010
0000
,
0200
0000
0000
0000
,
0000
0310
0010
0000
0100
0000
0001
0000
,
0010
0000
0110
0000
0000
1001
0000
0000
,
0011
0000
0000
2200
0000
0000
0000
0000
,
0000
0000
0000
0000
,
3300
0000
1010
0000
0000
0101
0000
0000
,
0011
0000
0000
2002
0000
0000
0000
0000
,
0000
0000
0000
0000
,
3003
0000
0110
0000
0000
0101
0000
0000
,
1001
0000
0000
2200
0000
0000
0000
0000
,
0000
0000
0000
0000
,
3300
0000
0110
0000
0000
1001
0000
0000
,
0110
0000
0000
0202
0000
0000
0000
0000
,
0303
2020
0000
0000
,
3030
2200
0000
0000
,
0000
0000
0000
0000
,
0000
3300
0000
0000
;

//---------------dance-single - ----------------
#NOTES:
     dance-single:
     :
     Hard:
     7:
     0.570,0.572,0.721,0.420,0.103:
0110
0000
0001
1001
0000
0010
0110
0000
,
0100
2200
0000
0000
0000
0000
0000
0000
,
0000
0000
0000
3300
,
0110
0000
0100
1100
0000
0001
0101
0000
,
0010
0220
0000
0000
0000
0000
0000
0000
,
0000
0000
0000
0330
,
1001
0000
0100
1100
0000
0010
0011
0000
,
0001
0202
0000
0000
0000
0000
0000
0000
,
0000
0000
0000
0303
,
0110
0000
0001
1001
1000
0000
1100
0000
,
0010
0220
0000
0000
0000
0000
0330
0000
,
2002
0000
0000
0000
0000
0000
0000
0000
3003
0000
0000
0000
0000
0000
0001
0010
,
0200
0000
0000
0000
,
0000
0000
0000
0000
,
0000
0000
0000
0300
,
0110
0000
0010
0001
0000
0001
0100
0010
,
0110
0000
0001
1000
0000
1000
0100
0010
,
0110
0000
0100
1000
0000
1010
0000
0101
,
0000
0000
0011
0000
0000
0000
1100
0000
0000
0000
1001
0000
0000
0000
0001
0100
,
0010
0000
0110
0000
0001
0010
1000
0010
,
0001
0000
0011
0000
0001
0100
1000
0100
,
0001
0000
1001
0000
1000
1100
0000
0110
,
0000
0000
0110
0000
0000
0000
1100
0000
0000
0000
1010
0000
0000
0000
0100
0010
,
1000
0000
0001
0010
0100
0010
0001
0000
,
0110
0000
0010
0100
1000
0001
0100
0000
,
0110
0000
1000
0010
0001
0010
1000
1010
,
0000
1100
0000
0110
0000
0101
0000
0010
,
0100
0000
1000
0010
0100
0010
1000
0000
,
1001
0000
0010
1000
0010
0001
0100
0000
,
0110
0000
0001
0100
1000
0100
0001
0011
,
0000
1100
0000
1010
0000
0101
0000
0020
,
0000
0000
0000
0000
1000
0000
0000
0000
0001
0000
0000
0000
0031
0000
0010
0100
,
2000
0000
0000
0000
0010
0000
0000
0000
0001
0000
0000
0000
3001
0000
0010
0100
,
0020
0000
1000
0000
0031
0100
0000
0110
,
0000
0000
0010
0000
0000
0000
0011
0000
0000
0000
0001
0000
0000
0000
1000
0010
,
0200
0000
0000
0000
0302
0000
0000
0000
0010
0000
0000
0000
0103
0000
0100
0001
,
0020
0000
0000
0000
0100
0000
0000
0000
0001
0000
0000
0000
0031
0000
0010
0100
,
2000
0000
0010
0000
3100
1100
0000
0011
,
0000
0101
0000
0110
0000
1001
0000
2200
,
0000
0000
0000
0000
,
0000
0000
0000
3300
,
1001
0000
0000
0110
0000
0000
1001
0000
0000
0000
0000
0000
0101
0000
0000
1010
,
0000
2200
0000
0000
3300
0000
0000
0000
,
0010
0000
0000
0010
0000
0000
0020
0000
0000
0000
0000
0000
0100
0000
0000
0100
,
0000
0200
0000
0000
0000
0000
0030
0000
,
0001
0000
0000
0001
0000
0000
0002
0000
0300
0000
0000
0000
0010
0000
0000
0010
,
0000
0020
0000
0000
0000
0000
0003
0000
,
0100
0000
0000
0100
0000
0000
0200
0000
0030
0000
0000
0000
0010
0000
0000
0010
,
0000
0020
0000
0000
0000
0000
0300
0000
,
1000
0000
0000
1000
0000
0000
2000
0000
0030
0000
0000
0000
0100
0000
0000
0100
,
0000
3200
0000
1300
0100
0010
0001
0000
,
0100
0000
0000
0010
0000
0000
0200
0000
0000
0000
0000
0000
0010
0000
0000
1000
,
0000
0020
0000
0000
0300
0000
0030
0000
,
2000
0000
0000
0100
0000
0000
0001
0000
0000
0000
0000
0000
0010
0000
0000
0100
,
0000
0020
0000
0000
0000
0000
3000
0030
,
1000
0000
1001
0000
,
0010
0000
0210
0310
,
0011
0000
0000
1100
0000
0000
0011
0000
0000
0000
0000
0000
1001
0000
0000
0110
,
0000
1001
0000
0000
1000
0100
0010
0001
,
0011
0000
0000
1100
0000
0000
1010
0000
0000
0000
0000
0000
0110
0000
0000
1001
,
0000
0110
1000
0010
0010
0100
0010
0000
,
1000
0001
0001
0010
0001
0000
0100
1000
,
1000
0100
0010
0000
1000
0100
0100
0001
,
0100
0000
0010
0001
0100
0010
1000
0100
,
0010
0100
0020
0000
1000
0000
0001
0000
,
0130
0010
0001
0100
1000
0100
0001
1000
,
0020
0100
1000
0001
,
0001
0000
0130
0000
0100
0010
2000
0000
,
3002
0000
0013
1000
0010
0001
0010
0000
,
0001
0100
1000
0100
0001
0000
1000
0100
,
0010
0100
1000
1000
0010
0010
0100
0100
,
0001
0001
0010
0100
0010
0000
0001
1000
,
0002
0100
0010
0100
,
0103
0010
1000
0100
0010
0100
1000
0001
,
0200
1000
0010
0001
,
0301
0000
0010
0100
0010
0000
1000
0010
,
1000
0000
1001
0000
0100
0110
0000
0010
,
0011
0000
0001
0202
0000
0000
0000
0000
,
0000
0000
0000
0000
,
0303
0000
1001
0000
1000
1100
0000
0100
,
0110
0000
0100
2200
0000
0000
0000
0000
,
0000
0000
0000
0000
,
3300
0000
1001
0000
0010
0110
0000
0001
,
0101
0000
1000
2200
0000
0000
0000
0000
,
0000
0000
0000
0000
,
3300
0000
0110
0000
0001
0011
0000
0001
,
0101
0000
0100
0220
0000
0000
0000
0000
,
0330
2002
0000
0000
,
3003
2200
0000
0000
,
0000
0000
0000
0000
,
0000
3300
0000
0000
;

//---------------dance-single - ----------------
#NOTES:
     dance-single:
     :
     Challenge:
     9:
     0.754,0.822,0.261,0.444,0.448:
1000
0000
0100
0010
0100
0000
1000
0000
0010
0100
0010
0000
0100
0000
0001
0010
,
0001
0020
0000
0000
0100
0000
0100
0000
,
0100
0000
0100
0000
0100
0000
0130
0010
,
0001
0000
0100
0010
0100
0000
0001
0000
0010
0100
0010
0000
0100
0000
1000
0010
,
1000
0020
0000
0000
0100
0000
0100
0000
,
0100
0100
0100
0130
,
1000
0000
0100
1000
0100
0000
1000
0000
0001
0100
0001
0000
0010
0000
0100
0010
,
0100
2000
0000
0001
0000
0001
0000
0001
,
0000
0001
0000
0001
0000
0001
0000
3001
,
0010
0000
0100
0010
0100
0000
0010
0000
0001
0100
0001
0000
1000
0000
0100
1000
,
0100
2000
0000
0001
0000
0001
0000
3001
,
0200
0000
0010
0000
0000
0000
0010
0000
0000
0000
0010
0000
0000
0000
0310
1000
,
0200
0010
0010
0010
,
0020
0000
0000
0330
,
0100
0000
0000
0000
0100
0000
0000
0100
1000
0000
1000
0000
0010
0000
0100
0001
,
0010
0000
0110
0000
0010
0010
0011
0001
,
0100
0000
0110
0000
1000
1000
1100
0001
,
0100
0000
0110
0000
0010
0011
0000
0101
,
0000
0000
0101
0000
0000
0000
0110
0000
0000
0000
0110
0000
0000
0000
1000
0010
,
0100
0010
0001
0001
0010
0100
0001
0000
,
0011
0100
0010
0001
0001
1000
0100
0000
,
1010
0100
0010
1000
0100
0110
0000
0011
,
0000
0000
0011
0000
0000
0000
1100
0000
0000
0000
1100
0000
0000
0000
1000
0010
,
0200
0000
0000
0000
0310
0000
0100
0000
0001
0010
0100
0000
0020
0000
0000
0000
,
0032
0000
0000
0000
1003
0000
0100
0000
0010
0100
1000
0000
0020
0000
0000
0000
,
0230
0000
0301
0010
1000
0010
0001
0100
,
0000
0000
0010
0100
0010
1000
0100
0000
0000
0000
0110
0000
0000
0000
2001
0000
,
0000
0000
0000
0000
3001
0000
0100
0000
0010
0100
0001
0000
0020
0000
0000
0000
,
0230
0000
0000
0000
0310
0000
0100
0000
1000
0010
0100
0000
0020
0000
0000
0000
,
0030
0000
0100
0000
0100
0000
0001
0010
0100
0000
0010
0000
0001
0000
1000
0000
,
0000
0000
0100
1000
0100
0000
0010
0000
0000
0000
1100
0000
0000
0000
0021
0000
,
0000
0000
0000
0000
1000
0000
0000
0000
0001
0000
0000
0000
0031
0000
0100
0010
,
2000
0000
0000
0000
0100
0000
0000
0000
0001
0000
0000
0000
3001
0000
0010
0001
,
0200
0000
1000
0000
0310
0110
0000
1001
,
0000
0000
1100
0000
0000
0000
0011
0000
0000
0000
0101
0000
0010
0100
0002
0000
,
0020
0000
0003
0000
0230
0000
0000
0000
0001
0000
0000
0000
1300
0000
0010
0100
,
0002
0000
0000
0000
0010
0000
0000
0000
0100
0000
0100
0000
0013
0000
0100
1000
,
0020
0000
0100
0000
1030
1010
0000
0101
,
0000
0011
0000
1100
0000
1001
0000
0220
,
0000
0000
0000
0000
,
0000
0000
0000
0000
0000
0000
0000
0000
0000
0000
0000
0000
0330
0000
0000
0100
,
1000
0000
0100
0010
0000
0100
0001
0000
0000
0000
0000
0010
1000
0000
0010
0001
,
0000
0010
0200
0000
0000
0000
0000
0000
0310
0000
0000
0000
1000
0001
1000
0001
,
0020
0000
0000
0100
0000
0000
0001
0000
0000
0000
0000
0000
1000
0000
0000
0100
,
0000
0032
0000
0000
0100
0000
0100
0000
,
0203
0000
0000
1000
0000
0000
0010
0000
0000
0000
0000
0000
0001
0000
0000
1000
,
0000
0320
0000
0000
0100
0000
0100
0000
,
0230
0000
0000
0010
0000
0000
0001
0000
0000
0000
0000
0000
1000
0000
0000
0010
,
0000
0302
0000
0000
0010
0000
0010
0000
,
0023
0000
0000
1000
0000
0000
0001
0000
0000
0000
0000
0000
1000
0000
0000
0100
,
0000
0031
0000
0010
0001
0010
0100
1000
,
0200
0000
0000
0010
0000
0000
0010
0000
0000
0000
0000
0000
1000
0000
0000
1000
,
0000
1000
0000
0000
0320
0000
0230
0000
,
2300
0000
0000
0010
0000
0000
0010
0000
0000
0000
0000
0000
0001
0000
0000
0001
,
0000
0001
0000
0000
0000
0000
3100
0010
,
0002
0000
0000
0100
0000
0000
0203
0000
0000
0000
0000
0000
0320
0000
0000
0100
,
0000
0000
0100
0000
0000
0000
0000
0000
2030
0000
0000
0000
3100
0000
0000
0010
,
0001
0000
0001
0100
0000
0100
0010
0000
0000
0100
0010
0100
0001
0000
0001
0010
,
0000
0010
0100
0000
0000
0000
1000
0000
0010
0000
0001
0000
0010
0000
1000
0100
,
0010
0000
0010
0100
0000
0100
1000
0000
0000
0010
0100
0010
1000
0000
1000
0100
,
0000
0100
0010
0000
0100
0000
1000
0010
0100
0000
0010
0000
1000
0000
1000
0000
,
0001
0000
0010
0100
0010
0000
0001
0000
0100
0000
0100
0000
0010
0000
0100
0001
,
0010
0000
1000
0000
0010
0000
0010
0000
0001
0000
0100
1000
0100
0000
0010
0000
,
1000
1000
0100
1000
0010
0100
0001
0010
,
0100
0010
0002
0000
0100
0000
0010
0000
,
0103
0000
0001
0010
0100
0000
0100
0000
0010
0000
0010
0000
0001
0000
0001
0000
,
0200
0000
1000
0000
0010
0000
0001
0001
,
0001
0000
1000
0000
0310
1000
0200
0000
,
0320
0000
0000
0000
0031
0000
0100
0010
0100
0000
0001
0000
1000
0000
0100
0000
,
0001
0000
0100
0010
0100
0000
0010
0000
0001
0000
0100
0000
1000
0000
0100
0010
,
0100
0000
0010
0000
1000
0000
1000
0000
0100
0000
0100
0000
0001
0000
0001
0100
,
1000
0000
1000
0000
0010
0000
0100
0000
0001
0000
0010
0001
0100
0000
0010
0000
,
0200
1000
0010
0001
,
0310
0000
0100
0001
0010
0000
0010
0000
0100
0000
0100
0000
0010
0000
0001
0000
,
0200
0000
1000
1000
1000
0000
0001
0001
,
0301
0000
1000
0100
0010
0000
0000
0000
0100
0000
0010
0100
1000
0000
0000
0000
,
0010
0100
0010
0100
0010
0000
1000
0010
1000
0010
0100
0000
0001
0010
0001
0010
,
0100
0000
0010
0001
1000
0010
0200
0000
0010
0000
0000
0000
0010
0000
0000
0000
,
0010
0010
0010
0010
,
0310
0000
1000
0100
0010
0000
0001
0010
0100
0010
0001
0000
1000
0010
0100
0010
,
1000
0000
0001
0100
1000
0100
0002
0000
0000
0000
0013
0100
0020
0000
0000
0000
,
0100
0000
0100
0000
0100
0100
0100
0100
,
0130
0000
0010
0001
0100
0000
0010
1000
0100
1000
0010
0000
0100
0001
0010
0001
,
0100
0000
0010
1000
0100
0001
0200
0000
0010
0000
0000
0000
0010
0000
0000
0000
,
0010
0000
0000
0000
0010
0000
0000
0000
0310
0000
0000
0000
0010
0100
0010
0100
,
0010
0100
0010
0100
0010
0000
1000
0100
1000
0001
0100
0000
0001
0100
0001
1000
,
0100
0000
0010
0100
0010
0001
2000
0000
0000
0000
0000
0000
0000
0000
0000
0000
,
3000
0202
0000
0000
,
0303
0000
1000
0100
0020
0000
0000
0000
0000
0000
0000
0000
0000
0000
0000
0000
,
0000
0000
0000
0000
,
0000
0030
0000
0000
;
