#TITLE:London Affairs Beckoned With Money Loved By Yellow Papers.;
#SUBTITLE:;
#ARTIST:Paddington Private Detective;
#TITLETRANSLIT:;
#SUBTITLETRANSLIT:;
#ARTISTTRANSLIT:;
#CREDIT:Grithokskulk;
#BANNER:London Affairs Beckoned With Money Loved By Yellow Papers.png;
#BACKGROUND:London Affairs Beckoned With Money Loved By Yellow Papers-bg.png;
#LYRICSPATH:;
#CDTITLE:beatmania IIDX.png;
#MUSIC:London Affairs Beckoned With Money Loved By Yellow Papers..mp3;
#OFFSET:-6.518;
#SAMPLESTART:60.835;
#SAMPLELENGTH:15.000;
#SELECTABLE:YES;
#BPMS:0.000=150.000;
#STOPS:;
#BGCHANGES:;

//---------------dance-single - ----------------
#NOTES:
     dance-single:
     :
     Easy:
     4:
     0.309,0.525,0.186,0.672,0.000: // measure 1
1000
0000
0000
0000
,  // measure 2
0010
0000
0000
0000
,  // measure 3
0100
0000
0000
0000
,  // measure 4
0001
0000
0000
0000
,  // measure 5
1000
0000
0100
0000
,  // measure 6
0010
0000
0100
0000
,  // measure 7
0001
0000
0100
0000
,  // measure 8
1000
0000
0100
0000
,  // measure 9
1000
0010
1000
0000
,  // measure 10
0001
0010
0001
0000
,  // measure 11
0200
0300
0020
0030
,  // measure 12
0100
0001
0010
0001
,  // measure 13
0100
0010
0100
0000
,  // measure 14
0001
1000
0001
0000
,  // measure 15
2000
3000
0200
0300
,  // measure 16
0010
0100
0010
0100
,  // measure 17
1000
1000
0001
0001
,  // measure 18
0200
0300
0020
0030
,  // measure 19
0100
0001
0100
0000
,  // measure 20
0001
1000
0001
0000
,  // measure 21
1000
0100
1000
0000
,  // measure 22
0200
0300
0020
0030
,  // measure 23
0110
0000
1001
0000
,  // measure 24
0100
0100
0010
0010
,  // measure 25
1000
1000
1000
1000
,  // measure 26
0001
0001
0001
0001
,  // measure 27
0020
0030
0002
0003
,  // measure 28
0200
0300
0020
0030
,  // measure 29
1000
0100
1000
0000
,  // measure 30
0001
0100
0001
0000
,  // measure 31
1000
1000
0010
0010
,  // measure 32
0100
0100
0001
0001
,  // measure 33
0000
0000
0000
0000
,  // measure 34
0000
0000
0000
0000
,  // measure 35
0020
0030
0200
0300
,  // measure 36
0020
0030
0002
0003
,  // measure 37
2000
3000
0200
0300
,  // measure 38
2000
3000
0020
0030
,  // measure 39
0200
0300
0002
0003
,  // measure 40
0020
0030
0002
0003
,  // measure 41
2000
3000
0020
0030
,  // measure 42
0200
0300
0020
0030
,  // measure 43
2002
3003
2200
3300
,  // measure 44
0022
0033
2002
3003
,  // measure 45
0220
0330
0202
0303
,  // measure 46
2002
3003
2200
3300
,  // measure 47
0220
0330
0022
0033
,  // measure 48
2002
3003
0110
0110
,  // measure 49
2002
3003
2200
3300
,  // measure 50
0022
0033
2002
0000
,  // measure 51
3003
0220
0000
0000
,  // measure 52
0000
0000
0000
0000
,  // measure 53
0000
0000
0000
0000
,  // measure 54
0000
0330
0001
1000
,  // measure 55
2002
0000
0000
0000
,  // measure 56
0000
0000
0000
0000
,  // measure 57
0000
0000
0000
0000
,  // measure 58
3003
0000
0020
0030
,  // measure 59
0100
0010
0100
0000
,  // measure 60
1000
0001
1000
0000
,  // measure 61
0002
0203
0320
2030
,  // measure 62
3200
0000
0000
0300
,  // measure 63
0010
0001
0010
0000
,  // measure 64
0001
1000
0001
0000
,  // measure 65
2000
3020
0230
0320
,  // measure 66
2030
3200
0320
0230
,  // measure 67
0300
0000
0000
0000
;

//---------------dance-single - ----------------
#NOTES:
     dance-single:
     :
     Hard:
     6:
     0.475,0.524,0.513,0.539,0.000:
1000
0100
0000
0100
,
0001
0100
0000
0100
,
1000
0100
0000
0100
,
0010
0100
0000
0100
,
1000
0010
0000
0010
,
0001
0010
0000
0010
,
0100
0010
0000
0010
,
1000
0010
0100
0001
,
0010
0000
0100
0000
0010
0001
0010
0000
,
0001
0010
0100
1000
0100
0000
1000
0000
,
0010
0000
0100
0000
0010
0010
0010
0000
,
0100
0001
1000
1001
,
0100
1000
0100
0000
0011
0000
0000
0000
,
0001
1000
0001
0000
1000
0000
0100
0010
,
0200
1000
0001
0310
,
0001
0010
0001
0000
0100
0010
0100
0000
,
0002
0010
0100
1003
,
0200
0010
1000
0301
,
0110
0110
0110
0001
,
1001
1001
1001
0100
,
0020
1000
0001
0130
,
0002
0010
0100
1003
,
1001
0000
1100
0000
,
0010
0100
0010
0000
1000
0001
1000
0000
,
0010
0010
0010
0010
,
0010
0000
0010
0000
0010
0100
0010
0000
,
1010
0101
0011
1100
,
0001
1000
0001
0000
0110
0000
0110
0000
,
0001
0010
0100
1000
0100
0000
0010
0000
,
0100
1000
0010
0000
0100
0000
0010
0000
,
1000
0010
1000
0000
0001
0010
0001
0000
,
1000
0100
1000
0000
0001
0100
0001
0000
,
0020
0100
0000
0100
,
0000
0100
0000
0030
,
0220
0330
0022
0033
,
2200
3300
2020
3030
,
0202
0303
0022
0033
,
2002
3003
0220
0330
,
0202
0303
2020
3030
,
2200
3300
0022
0033
,
2002
3003
2020
3030
,
0202
0303
0022
0033
,
0201
0310
0102
1003
,
1200
0310
0012
1003
,
0210
0301
2001
3100
,
0012
0103
0210
1300
,
0102
0013
0210
1300
,
0120
0031
1001
1001
,
0120
1030
0102
0013
,
2100
3001
0201
0310
,
2001
0100
0010
0001
,
0010
0010
0100
0100
,
0001
0010
0100
0001
,
0100
0100
3020
0230
,
0302
0010
0100
0010
,
1000
1000
0100
0100
,
0010
0100
0010
0100
,
1000
1000
0203
0310
,
0002
0010
0100
0010
,
1000
1000
0100
0103
,
0101
0101
1100
1100
,
0020
0100
1000
0031
,
0200
1000
0001
0010
,
0001
0001
0010
0310
,
0101
0101
1010
1010
,
1000
0100
1000
0000
0001
0100
0001
0010
;

//---------------dance-single - ----------------
#NOTES:
     dance-single:
     :
     Challenge:
     7:
     0.570,0.524,0.318,0.327,0.022:
1000
0000
0100
0000
0010
0000
0000
0100
0000
0000
0010
0000
0010
0000
0000
0000
,
0001
0000
0100
0000
0010
0000
0000
0000
0100
0000
0001
0000
1000
0100
0000
0000
,
0010
0100
1000
0000
0010
0010
0000
0100
,
0010
0100
0001
0000
0010
0100
0010
0000
,
0001
0000
0010
0000
0100
0000
0000
0010
0000
0010
0000
0000
0100
0000
0000
0000
,
1000
0000
0010
0000
0001
0000
0000
0000
0010
0000
0100
0000
0001
0100
0000
0000
,
0001
0010
0100
0000
0001
0100
0000
0100
,
0010
0100
1000
0000
0010
0100
0010
0000
,
1000
0001
0010
0000
0100
0010
0100
0000
,
0100
1000
0010
0100
0001
0010
0100
0000
,
0010
0001
0100
0000
0010
0001
0010
0000
,
0100
0001
1000
0100
0001
0100
1000
0000
,
0010
0100
0001
0010
0100
1000
1100
0000
,
1000
0010
0001
0010
0100
0000
0001
0010
,
0110
0000
0001
0010
0100
0010
0010
0001
,
0100
0010
0010
0001
0010
1000
0100
0000
,
0020
0000
1000
0000
0031
0000
0010
0100
,
2000
0000
0010
0000
3001
0100
0010
0100
,
0101
0000
1001
0000
1100
0000
0010
0100
,
1100
0000
0110
0000
0011
0000
0001
0100
,
0020
0000
0001
0000
1030
0100
0001
0100
,
0020
0000
1000
0000
0031
0010
0100
0010
,
0002
0100
0103
0000
0020
0100
0130
0000
,
0001
1000
0100
0001
0100
1000
0010
0001
,
0110
0110
1001
1001
,
1000
0100
0010
0000
1000
0100
0010
0000
,
0001
0100
0010
0100
0001
1000
1000
0000
,
0100
0001
0100
0010
0100
1000
0100
0000
,
1000
0010
0100
0010
1000
0000
1001
0000
,
0010
0001
0100
1000
0100
0001
0010
0000
,
1000
1000
0010
0010
0001
0100
0010
0000
,
0100
0100
0001
0001
0010
0100
0010
0001
,
0200
0010
0000
0010
,
0000
0010
0000
0300
,
0012
0000
1003
0000
2010
0000
0001
3000
,
0012
0000
0103
0000
0001
0100
0010
0000
,
2100
3001
0102
1003
,
2100
0000
3001
0000
0010
0100
0010
0001
,
0102
1003
2100
3010
,
0210
0000
0301
0000
0010
0100
0010
0000
,
0012
1003
2010
3001
,
0102
0000
0013
0000
0100
0010
0001
0100
,
0020
0000
0130
0001
2000
0000
3100
0001
,
0200
0000
0310
0001
0100
1000
0100
0010
,
2000
0000
3100
0001
0200
0000
0310
0001
,
0200
0000
1300
0100
0001
0010
1000
0010
,
0002
0000
0103
0010
0002
0000
0013
0100
,
0002
0000
0013
0100
0001
0100
1000
0010
,
0200
0000
1300
0100
0002
0000
0013
0100
,
0002
0000
0103
1000
0020
0000
0130
0001
,
0020
1000
0001
0100
,
0001
0001
0100
0100
,
1000
0001
0100
0001
,
0100
0000
0130
0000
0010
0000
0001
0200
,
1000
0010
0001
0010
,
0001
0001
0010
0010
,
1000
0010
0001
0010
,
0001
0001
0320
1030
,
0100
0001
0100
1000
0020
0000
0130
0001
,
0010
1000
0010
0001
2000
0000
3100
0010
,
0110
1100
1010
0110
,
0001
0010
0100
0010
0001
0100
0010
0000
,
0100
0001
1000
0100
0010
0000
1100
0000
,
1000
0010
0001
0010
0100
0000
0101
0000
,
1001
1100
0110
0011
,
0001
0010
0100
0100
1000
0010
0110
0100
;

//---------------dance-single - ----------------
#NOTES:
     dance-single:
     :
     Medium:
     5:
     0.359,0.524,0.309,0.557,0.000:
1000
0000
0100
0000
,
0010
0000
0100
0000
,
1000
0000
0001
0000
,
0100
0000
0010
0000
,
0100
0001
0010
0100
,
0010
0001
0100
0010
,
1000
0100
0010
0100
,
1000
0010
0100
0000
,
0001
0001
1000
1000
,
0100
0010
0100
0010
0100
0010
0100
0000
,
0010
0000
0000
0000
0001
1000
0001
0000
,
0100
0000
0010
0000
1000
0100
1000
0000
,
0001
0100
0110
0000
,
1000
0001
0010
0000
,
0110
0000
0000
0000
0010
0001
0010
0000
,
0001
0100
0010
0000
,
0200
0310
0002
0013
,
2000
3000
0002
0003
,
1001
1001
1001
0010
,
0110
0110
0110
0100
,
2000
3010
0002
0013
,
0200
0300
0020
0030
,
0110
0000
1001
0000
,
0001
0010
0100
1000
,
1100
1100
1100
1100
,
1100
1100
1100
0000
,
0001
0010
0100
0010
,
0001
0100
0010
1000
,
0001
1000
0001
0000
1000
0000
0000
0000
,
0100
0010
0100
0000
0010
0000
0000
0000
,
0001
0010
0001
0000
1000
0010
1000
0000
,
0001
0100
0010
1000
,
0200
0010
0000
0010
,
0000
0010
0000
0300
,
0020
0030
0200
0300
,
2000
3000
0020
0030
,
2000
3000
0200
0300
,
0020
0030
0002
0003
,
2000
3000
0200
0300
,
2000
3000
0020
0030
,
0200
0300
0020
0030
,
2000
3000
2002
3003
,
0022
0033
2200
3300
,
2002
3003
0202
0303
,
0220
0330
0202
0303
,
2002
3003
2200
3300
,
0220
0330
0022
0033
,
2020
3030
0010
0010
,
0220
0330
0202
0303
,
2002
3003
0220
0330
,
2002
0000
0000
0000
,
0000
0000
0000
0000
,
0000
0000
0000
0000
,
3003
0000
0100
0010
,
0220
0000
0000
0000
,
0000
0000
0000
0000
,
0000
0000
0000
0000
,
0330
0000
0002
0003
,
2000
0100
0010
0100
,
0001
0000
0001
0000
,
3001
0001
0010
0010
,
0100
0010
0100
1000
,
0002
0100
0010
0100
,
1000
0000
1000
0000
,
1003
0100
0010
0001
,
1000
0000
0010
0000
0100
0000
0001
0010
;
