#TITLE:Lionhearted;
#SUBTITLE:;
#ARTIST:Porter Robinson feat. Urban Cone;
#TITLETRANSLIT:;
#SUBTITLETRANSLIT:;
#ARTISTTRANSLIT:;
#CREDIT:Grithokskulk;
#BANNER:Lionhearted.png;
#BACKGROUND:Lionhearted-bg.png;
#LYRICSPATH:;
#CDTITLE:grithokskulk.png;
#MUSIC:Lionhearted.mp3;
#OFFSET:-8.295;
#SAMPLESTART:72.195;
#SAMPLELENGTH:14.980;
#SELECTABLE:YES;
#BPMS:0.000=120.000;
#STOPS:;
#BGCHANGES:;

//---------------dance-single - ----------------
#NOTES:
     dance-single:
     :
     Easy:
     2:
     0.159,0.228,0.016,0.236,0.000: // measure 1
0000
0100
0100
0000
,  // measure 2
2000
3000
2000
3000
,  // measure 3
0020
0000
0000
0000
,  // measure 4
0000
0000
0000
0030
,  // measure 5
0000
0100
0100
0000
,  // measure 6
0002
0003
0002
0003
,  // measure 7
0020
0000
0000
0000
,  // measure 8
0000
0000
0000
0030
,  // measure 9
0000
0100
0100
0000
,  // measure 10
2000
3000
2000
3000
,  // measure 11
0002
0000
0000
0000
,  // measure 12
0000
0000
0000
0003
,  // measure 13
0000
0100
0100
0000
,  // measure 14
0020
0030
0020
0030
,  // measure 15
0000
1000
1000
0000
,  // measure 16
0200
0300
0200
0300
,  // measure 17
2000
3000
0002
0000
,  // measure 18
0003
0100
0100
0000
,  // measure 19
0020
0030
0200
0000
,  // measure 20
0300
0001
0001
0000
,  // measure 21
0020
0030
0200
0000
,  // measure 22
0300
1000
1000
0000
,  // measure 23
0002
0003
2000
3000
,  // measure 24
0100
0100
0100
0100
,  // measure 25
0200
0300
0020
0000
,  // measure 26
0030
0001
0001
0000
,  // measure 27
0200
0300
0002
0000
,  // measure 28
0003
0010
0010
0000
,  // measure 29
0200
0300
2000
0000
,  // measure 30
3000
0010
0010
0000
,  // measure 31
0200
0300
0020
0030
,  // measure 32
1000
1000
1000
1000
,  // measure 33
1001
0000
0000
0001
,  // measure 34
0001
0000
0000
0000
,  // measure 35
0010
0000
0100
0100
,  // measure 36
0100
0000
1000
0000
,  // measure 37
0001
0000
0000
1000
,  // measure 38
1000
0000
0000
0000
,  // measure 39
0010
0000
0100
0000
,  // measure 40
0001
0001
0001
0000
,  // measure 41
1000
0000
0000
0100
,  // measure 42
0100
0000
0000
0000
,  // measure 43
0010
0000
0100
0000
,  // measure 44
1000
0000
0010
0000
,  // measure 45
0100
0000
0000
0010
,  // measure 46
0010
0000
0000
0000
,  // measure 47
1000
0000
0001
0000
,  // measure 48
0010
0000
0100
0000
,  // measure 49
0010
0000
0000
0001
,  // measure 50
0001
0000
0000
0000
,  // measure 51
1000
0000
0010
0000
,  // measure 52
0100
0000
0010
0000
,  // measure 53
1000
0000
0000
0100
,  // measure 54
0100
0000
0000
0000
,  // measure 55
0010
0000
0100
0000
,  // measure 56
1000
1000
1000
1000
,  // measure 57
1001
0000
0000
0000
;

//---------------dance-single - ----------------
#NOTES:
     dance-single:
     :
     Medium:
     5:
     0.297,0.342,0.024,0.562,0.000:
0000
1000
1000
0000
0010
0000
0100
0000
,
0001
0010
0001
0000
1000
0010
1000
0000
,
0200
0000
0000
0000
,
0000
0000
0000
0300
,
0000
1000
1000
0000
0001
0000
0100
0000
,
0010
0100
0010
0000
1000
0001
1000
0000
,
0020
0000
0000
0000
,
0000
0000
0000
0030
,
0100
0001
0100
0000
0001
0000
0010
0000
,
0100
1000
0100
0000
1000
0010
1000
0000
,
0002
0000
0000
0000
,
0000
0000
0000
0003
,
0100
0001
0100
0000
0010
0000
1000
0000
,
0100
0010
0100
0000
1000
0001
1000
0000
,
0020
0000
0100
0000
,
0100
0100
0100
0130
,
0002
0000
0000
2000
0000
0000
0000
0000
,
3003
0000
0000
0000
,
0200
0000
0000
0020
0000
0000
0000
0000
,
0330
0000
0000
0000
,
0002
0000
0000
0020
0000
0000
0000
0000
,
0033
0000
0000
0000
,
2000
0000
0000
0020
0000
0000
3030
0000
,
2000
3200
0320
0032
,
0203
0000
0000
0020
0000
0000
0000
0000
,
0330
1000
0100
1000
,
0002
0000
0000
0200
0000
0000
0000
0000
,
0303
1000
0100
0010
,
0002
0000
0000
2000
0000
0000
0000
0000
,
3003
0010
0100
0001
,
2000
0000
0000
0200
0000
0000
3300
0000
,
2000
3200
0320
0032
,
0203
0010
0010
0302
,
0023
0100
0001
0031
,
0002
1003
0020
0130
,
2000
3100
0002
0013
,
0200
0010
0010
0320
,
2030
0100
0100
3100
,
0020
0031
0200
0310
,
2000
3001
0200
0301
,
0020
0100
0100
0032
,
0203
0010
0010
0310
,
2000
3100
0002
0103
,
0020
0130
0002
1003
,
0200
0010
0010
0320
,
2030
0100
0100
3100
,
0020
0031
0002
0103
,
0200
0310
0020
1030
,
2000
0100
0010
3002
,
0023
0000
0130
1000
0100
0000
0110
0000
,
2000
0010
0001
3100
,
0020
1000
0001
0130
,
0002
0100
1000
0203
,
0320
0000
1030
0100
1000
0000
1001
0000
,
0200
0310
0002
1003
,
0020
0230
2300
3001
,
1001
0000
0000
0000
;

//---------------dance-single - ----------------
#NOTES:
     dance-single:
     :
     Challenge:
     10:
     0.731,0.730,0.367,0.000,0.644:
0100
0000
1000
0100
1000
0000
0100
0000
0010
0000
0000
0000
0001
0000
0100
0000
,
0010
0000
0010
0100
0000
0000
0001
0000
1000
0000
1000
0000
0100
0000
0000
0000
,
0010
0010
0010
0010
0010
0011
0010
0011
,
0010
0010
0010
0010
0010
0011
0010
0011
,
0010
0000
0100
1000
0100
0000
1000
0000
0010
0000
0000
0000
0100
0000
0001
0000
,
1000
0000
1000
0100
0000
0000
1000
0000
0010
0000
0010
0100
0000
0000
0000
0000
,
0010
0010
0010
0010
0010
1010
0010
1010
,
0010
0010
0010
0010
0010
1010
0010
1010
,
0010
0000
0100
0001
0010
0000
0001
0000
0100
0000
0010
1000
0100
0000
0010
0000
,
0001
0000
0001
0100
0000
0100
0010
0000
1000
0000
0100
0010
0000
0010
0100
0000
,
1000
1000
1000
1000
1000
1010
1000
1010
,
1000
1000
1000
1000
1000
1001
1000
1001
,
0001
0000
0010
0001
0100
0000
0010
0000
0100
0000
0001
0000
0001
0000
1000
0000
,
0100
0000
0010
0100
0000
1000
0100
0000
0010
0000
0100
0000
0100
0000
1000
0000
,
0010
0010
0100
0100
0001
0001
0010
0010
,
0001
0000
1000
0001
0000
1000
0001
0000
0100
0000
0010
1000
0000
0001
0010
0000
,
0100
0100
0100
1000
1000
1000
1000
1000
,
1000
0010
0010
0100
0100
0001
0001
0010
,
0100
0100
0100
0010
0010
0010
0010
0010
,
0010
0001
0001
0100
0100
0010
0010
1000
,
0100
0100
0100
1000
1000
1000
1000
1000
,
1000
0010
0010
0100
0100
0001
0001
1000
,
0100
0100
0100
0010
0010
0010
0010
0100
,
1000
1000
0010
0010
0100
0100
0001
0001
,
1000
1000
1000
0100
0100
0100
0100
0100
,
0100
0010
0010
0100
0100
1000
1000
0010
,
0100
0100
0000
0001
0001
0001
0001
0001
,
0001
1000
1000
0100
0100
1000
1000
0010
,
0100
0100
0100
1000
1000
1000
1000
1000
,
1000
0100
0100
0010
0010
1000
1000
0100
,
0010
0010
0010
0100
0100
0100
0100
1000
,
1100
0000
0011
0000
0101
0001
1001
0000
,
1000
0100
1000
0100
1000
0100
1000
0100
1000
0100
1000
0100
1000
0010
1000
0010
,
0100
0010
0100
0010
0100
0010
0100
0010
0100
0010
0100
0010
0100
0000
0000
0000
,
0001
0010
0001
0010
0001
0100
0010
1000
0010
1000
0100
1000
0100
1000
0100
1000
,
0001
1000
0001
1000
0010
1000
0010
0100
0010
0100
0010
0100
0010
0000
0000
0000
,
1000
0001
1000
0001
1000
0001
1000
0001
1000
0001
1000
0001
0010
0001
0010
0001
,
0100
0001
0100
0001
0100
0001
0100
0001
0100
0001
0100
0001
0100
0000
0000
0000
,
0010
0100
0010
0100
0001
0010
0100
0010
0100
0010
1000
0001
1000
0001
1000
0001
,
0100
0010
0100
0010
1000
0001
0010
0100
0010
0100
0010
0100
0010
0000
0000
0000
,
0100
1000
0100
1000
0100
1000
0100
1000
0100
1000
0100
1000
0010
1000
0010
1000
,
0010
0100
0010
0100
0010
0100
0010
0100
0010
0100
0010
0100
0010
0000
0000
0000
,
0010
1000
0010
1000
0100
1000
0010
0100
0010
0100
0001
0100
0001
0100
0001
0100
,
0010
0100
0010
0100
0010
1000
0100
0010
0100
0010
0100
0010
0100
0000
0000
0000
,
1000
0100
1000
0100
1000
0100
1000
0100
1000
0100
1000
0100
1000
0010
1000
0010
,
0100
0010
0100
0010
0100
0010
0100
0010
0100
0010
0100
0010
0100
0000
0000
0000
,
0100
0001
0100
0001
0010
0100
1000
0010
1000
0010
0100
0010
0100
0010
0100
0010
,
1000
0010
1000
0010
0100
0001
0010
0100
0010
0100
0010
0100
0010
0000
0000
0000
,
1000
0001
1000
0001
1000
0001
1000
0001
1000
0001
1000
0001
0010
0001
0010
0000
,
0011
0011
0101
0101
0110
0110
1010
1010
,
1000
0100
1000
0100
0010
0001
0100
0010
0100
0010
1000
0001
1000
0001
1000
0000
,
1100
1100
0110
0110
0011
0011
0101
0101
,
0100
0010
0100
0010
0100
0010
0100
0010
0100
0010
0100
0010
1000
0010
1000
0000
,
1010
1010
0110
0110
0101
0101
0011
0011
,
0001
1000
0001
1000
0010
0100
0001
0010
0001
0010
0100
0010
0100
0010
0100
0000
,
1100
1000
1010
1000
1001
1000
1010
1000
,
1100
0000
0000
0000
;

//---------------dance-single - ----------------
#NOTES:
     dance-single:
     :
     Hard:
     8:
     0.454,0.411,0.147,0.163,0.220:
1000
0000
0100
1000
0010
0000
0110
0000
,
0010
0100
0001
0000
0010
0010
0100
0000
,
0010
0010
0001
0001
0100
0100
0010
0010
,
1000
1000
0100
0100
0010
0010
0001
0001
,
1000
0000
0100
1000
0010
0000
0110
0000
,
0010
1000
0100
0000
0010
1000
0100
0000
,
0010
0010
0001
0001
0100
0100
0010
0010
,
1000
1000
0100
0100
0010
0100
1000
0000
,
1001
0000
0001
0100
0010
0000
1010
0000
,
1000
0010
0100
0000
1000
0010
0100
0000
,
0001
0001
1000
1000
0100
0100
0010
0010
,
0100
0100
1000
1000
0001
0001
0100
0100
,
0010
0000
0100
0001
0010
0000
0011
0000
,
0100
0010
0001
0000
0100
0010
1000
0000
,
0100
0100
1000
1000
0010
0010
0100
0100
,
0001
0010
0100
0100
0010
0001
0100
0100
,
0020
0000
0000
2000
0000
0000
0000
0000
,
3030
1000
1000
0100
0100
0010
0010
0001
,
0200
0000
0000
0020
0000
0000
0000
0000
,
0330
1000
1000
0100
0100
1000
0010
0100
,
0002
0000
0000
2000
0000
0000
0000
0000
,
3003
1000
1000
0100
0100
0001
0001
0100
,
2000
0000
0000
0002
0000
0000
3003
0000
,
0200
0320
2030
3200
,
0320
0000
0000
0002
0000
0000
0000
0000
,
0033
1000
1000
0100
0010
0100
1000
0010
,
0200
0000
0000
0020
0000
0000
0000
0000
,
0330
0100
0100
0001
0010
0001
1000
0010
,
2000
0000
0000
0002
0000
0000
0000
0000
,
3003
0010
0010
0001
0100
0100
0010
0010
,
0200
0000
0000
0002
0000
0000
0303
1000
,
1100
0000
0011
0000
0101
0100
0110
0000
,
1000
0010
0000
0000
1000
0010
0000
0000
1000
0010
0000
0000
1000
0100
0000
0000
,
0010
0001
0000
0000
0010
0001
0000
0000
0010
0001
0000
0000
0011
0000
0000
0000
,
0100
0010
0000
0000
1000
0000
0100
0000
0010
0000
0100
0000
1000
0000
0000
0000
,
0001
0100
0000
0000
0001
0000
0010
0000
0100
0000
0010
0000
0001
0000
0000
0000
,
1000
0010
0000
0000
1000
0010
0000
0000
1000
0010
0000
0000
0100
0010
0000
0000
,
1000
0001
0000
0000
1000
0001
0000
0000
1000
0001
0000
0000
0011
0000
0000
0000
,
0001
0100
0000
0000
0001
0000
0100
0000
1000
0000
0100
0000
0001
0000
0000
0000
,
1000
0100
0000
0000
1000
0000
0100
0000
0001
0000
0100
0000
1000
0000
0000
0000
,
1000
0100
0000
0000
0100
0010
0000
0000
0010
0001
0000
0000
0001
0100
0000
0000
,
0100
0010
0000
0000
0010
1000
0000
0000
1000
0100
0000
0000
0110
0000
0000
0000
,
0001
1000
0000
0000
0001
0000
0100
0000
0010
0000
1000
0000
0100
0000
0000
0000
,
1000
0001
0000
0000
1000
0000
0100
0000
0010
0000
0001
0000
0100
0000
0000
0000
,
0001
0100
0000
0000
0100
0010
0000
0000
0010
1000
0000
0000
1000
0100
0000
0000
,
0100
0010
0000
0000
0010
0001
0000
0000
0001
0100
0000
0000
0110
0000
0000
0000
,
1000
0010
0000
0000
1000
0000
0010
0000
0001
0000
0010
0000
1000
0000
0000
0000
,
1000
0001
0000
0000
0001
0000
0010
0000
1000
0000
0010
0000
0001
0000
0000
0000
,
1000
0010
0000
0000
0100
0001
0000
0000
0010
0001
0000
0000
1000
0100
0000
0000
,
0010
0000
0100
0000
1000
0000
0010
0100
0000
0000
0100
0000
0010
0000
1000
0000
,
0001
0010
0000
0000
0100
1000
0000
0000
0010
0100
0000
0000
0001
1000
0000
0000
,
0100
0000
1000
0000
0010
0000
0100
0000
0001
0000
1000
0100
0000
0000
0010
0000
,
0100
1000
0000
0000
0010
0100
0000
0000
0001
0010
0000
0000
0001
1000
0000
0000
,
0010
0100
0001
0010
1000
0010
0001
0100
,
0010
1000
0000
0000
0100
1000
0000
0000
0001
0100
0000
0000
0010
0100
0000
0000
,
0101
1010
1100
0011
,
1001
0000
0000
0000
;
