#TITLE:Lion Izm*;
#SUBTITLE:;
#ARTIST:DJ Mass MAD Izm* feat. MC LEO;
#TITLETRANSLIT:;
#SUBTITLETRANSLIT:;
#ARTISTTRANSLIT:;
#CREDIT:Grithokskulk;
#BANNER:Lion Izm.png;
#BACKGROUND:Lion Izm-bg.png;
#LYRICSPATH:;
#CDTITLE:grithokskulk.png;
#MUSIC:Lion Izm.mp3;
#OFFSET:-6.582;
#SAMPLESTART:94.720;
#SAMPLELENGTH:15.000;
#SELECTABLE:YES;
#BPMS:0.000=147.000;
#STOPS:208.000=2.440
;
#BGCHANGES:;

//---------------dance-single - ----------------
#NOTES:
     dance-single:
     :
     Easy:
     3:
     0.217,0.223,0.000,0.212,0.000: // measure 1
0000
1000
1000
1000
,  // measure 2
0000
0001
0001
0001
,  // measure 3
0000
0100
0100
0100
,  // measure 4
0010
0010
0010
0010
,  // measure 5
0020
0000
0030
0000
,  // measure 6
0000
1000
1000
1000
,  // measure 7
0000
0100
0100
0100
,  // measure 8
0010
0010
0010
0010
,  // measure 9
0020
0000
0000
0030
,  // measure 10
0000
0001
0001
0001
,  // measure 11
0000
0100
0100
0100
,  // measure 12
0010
0010
0010
0010
,  // measure 13
0020
0000
0030
0000
,  // measure 14
2000
0000
3000
0000
,  // measure 15
0200
0000
0300
0000
,  // measure 16
0020
0000
0030
0000
,  // measure 17
0200
0000
0300
0000
,  // measure 18
2000
0000
3000
0000
,  // measure 19
0002
0000
0003
0000
,  // measure 20
0200
0000
0300
0000
,  // measure 21
0020
0030
0010
0000
,  // measure 22
2000
3000
1000
0000
,  // measure 23
0200
0300
0100
0000
,  // measure 24
0020
0030
0010
0000
,  // measure 25
0002
0003
0001
0000
,  // measure 26
0200
0300
0100
0000
,  // measure 27
0002
0003
0001
0000
,  // measure 28
2000
3000
1000
0000
,  // measure 29
0200
0300
0100
0000
,  // measure 30
2000
3000
1000
0000
,  // measure 31
0020
0030
0010
0000
,  // measure 32
0002
0003
0001
0000
,  // measure 33
0200
0300
0100
0000
,  // measure 34
0002
0003
0001
0000
,  // measure 35
0020
0030
0010
0000
,  // measure 36
0100
0100
0100
0100
,  // measure 37
0100
0000
0000
0000
,  // measure 38
0000
0010
0010
0010
,  // measure 39
0000
0001
0001
0001
,  // measure 40
0000
0100
0100
0100
,  // measure 41
0000
0010
0010
0010
,  // measure 42
0000
0001
0001
0001
,  // measure 43
0000
1000
1000
1000
,  // measure 44
0000
0100
0100
0100
,  // measure 45
0000
1000
0000
1000
,  // measure 46
0000
0010
0000
0010
,  // measure 47
0000
0100
0000
0100
,  // measure 48
0000
0001
0000
0001
,  // measure 49
0000
0010
0000
0010
,  // measure 50
0000
0100
0000
0100
,  // measure 51
0000
0010
0000
0010
,  // measure 52
0000
0001
0000
0001
,  // measure 53
2000
3000
0000
0100
,  // measure 54
0100
0100
0000
0010
,  // measure 55
0010
0010
0000
0100
,  // measure 56
0100
0100
0000
1000
,  // measure 57
1000
1000
0000
0001
,  // measure 58
0001
0001
0000
0100
,  // measure 59
0100
0100
0000
0010
,  // measure 60
0010
0010
0100
0100
,  // measure 61
0100
0100
0200
0000
,  // measure 62
0000
0300
0000
0001
,  // measure 63
0001
0001
0000
0010
,  // measure 64
0010
0010
0100
0100
,  // measure 65
0100
0100
0200
0000
,  // measure 66
0000
0300
0000
0010
,  // measure 67
0010
0010
0000
0001
,  // measure 68
0001
0001
1000
1000
,  // measure 69
1000
1000
2000
0000
,  // measure 70
0000
3000
0000
0100
,  // measure 71
0000
1000
0000
0010
,  // measure 72
0000
0100
0000
0001
,  // measure 73
0000
0010
0000
0001
,  // measure 74
0000
0010
0000
0100
,  // measure 75
0000
1000
0000
0010
,  // measure 76
0000
0100
0000
0001
,  // measure 77
0000
1000
0000
0000
;

//---------------dance-single - ----------------
#NOTES:
     dance-single:
     :
     Medium:
     5:
     0.332,0.364,0.212,0.051,0.000:
0000
0100
0100
0000
0100
0000
0100
0000
,
0000
0010
0010
0000
0010
0000
0010
0000
,
0000
0001
0001
0000
0001
0000
0001
0000
,
1001
1001
1001
1001
,
0200
0000
0000
0300
,
0000
0010
0010
0000
0010
0000
0010
0000
,
0000
0001
0001
0000
0001
0000
0001
0000
,
0110
0110
0110
0110
,
2000
0000
0000
3000
,
0000
0100
0100
0000
0100
0000
0100
0000
,
0000
1000
1000
0000
1000
0000
1000
0000
,
1010
1010
1010
1010
,
0100
0000
0000
0100
0010
0000
0000
0000
,
0010
0000
0000
0010
1000
0000
0000
0000
,
1000
0000
0000
1000
0001
0000
0000
0000
,
0001
0000
0000
0001
0010
0000
0000
0000
,
0010
0000
0000
0010
0100
0000
0000
0000
,
0100
0000
0000
0100
1000
0000
0000
0000
,
1000
0000
0000
1000
0001
0000
0000
0000
,
0001
0010
0100
0000
,
0010
0000
0000
0010
0001
0000
0000
0000
,
0001
0000
0000
0001
0100
0000
0000
0000
,
0100
0000
0000
0100
0010
0000
0000
0000
,
0010
0000
0000
0010
1000
0000
0000
0000
,
1000
0000
0000
1000
0100
0000
0000
0000
,
0100
0000
0000
0100
0010
0000
0000
0000
,
0010
0000
0000
0010
0100
0000
0000
0000
,
0100
0000
0000
0100
1000
0000
0000
0000
,
1000
0000
0000
1000
0010
0000
0000
0000
,
0010
0000
0000
0010
0100
0000
0000
0000
,
0100
0000
0000
0100
0001
0000
0000
0000
,
0001
0000
0000
0001
0010
0000
0000
0000
,
0010
0000
0000
0010
0100
0000
0000
0000
,
0100
0000
0000
0100
1000
0000
0000
0000
,
1000
0000
0000
1000
0010
0000
0000
0000
,
0110
0110
0110
0110
,
2000
0000
0000
3000
,
0000
0001
0000
0001
0001
0000
1000
1000
,
0000
1000
0000
1000
1000
0000
0100
0100
,
0000
0100
0000
0100
0100
0000
0010
0010
,
0000
0010
0000
0010
0010
0000
0001
0001
,
0000
0100
0000
0100
0100
0000
0010
0010
,
0000
1000
0000
0100
0100
0000
0010
0010
,
0000
0100
0000
0010
0010
0000
0001
0001
,
1000
0100
1000
0100
,
0010
0001
0010
0001
,
0100
0010
1000
0100
,
0010
0100
1000
0010
,
0100
0001
0100
0001
,
1000
0100
1000
0100
,
0010
0001
0010
0100
,
1000
0010
0100
0001
,
2000
3000
0000
0000
0000
0010
0010
0000
,
0100
0000
0010
0000
0000
0001
0001
0000
,
1000
0000
0001
0000
0000
0100
0100
0000
,
0010
0000
0100
0000
0001
0001
0000
1000
,
1000
0000
1001
0000
0000
1000
1000
0000
,
0100
0000
1000
0000
0000
0001
0001
0000
,
0100
0000
0001
0000
0000
0010
0010
0000
,
0100
0010
1001
0110
,
1001
0110
0002
0000
,
0000
0000
0003
0000
0000
1000
1000
0000
,
0100
0000
0010
0000
0000
0100
0100
0000
,
1000
0001
0110
1001
,
0110
1001
0200
0000
,
0000
0000
0300
0000
0000
1000
1000
0000
,
1000
0000
0010
0000
0000
0100
0100
0000
,
0001
0010
0110
1001
,
0110
1001
0200
0000
,
0000
0000
0300
0000
0010
0010
0010
0000
,
0001
0000
0100
0000
0010
0010
0010
0000
,
1000
0000
0001
0000
0100
0100
0100
0000
,
0001
0000
1000
0000
0100
0100
0100
0000
,
0010
0000
0100
0000
1000
1000
1000
0000
,
0001
0000
0100
0000
0010
0010
0010
0000
,
0100
0000
0001
0000
0010
0010
0010
0000
,
0100
0100
1000
0010
0000
0000
0000
0000
;

//---------------dance-single - ----------------
#NOTES:
     dance-single:
     :
     Hard:
     9:
     0.628,0.615,0.256,0.198,0.527:
0100
0000
0000
0100
1000
0000
0000
0000
0010
0000
0000
0000
0100
0000
0100
0000
,
0000
0000
0001
0000
0010
0000
0000
0000
0010
0000
0000
0001
0010
0000
0001
0000
,
0000
0000
0100
0000
0010
0000
0000
0000
1000
0000
0000
1000
0001
0000
1000
0000
,
1100
0011
0101
1010
,
0220
0000
0330
0000
,
0000
0000
1000
0000
1000
0000
0000
0000
0100
0000
0000
0100
0010
0000
0100
0000
,
0000
0000
0100
0000
1000
0000
0000
0000
0010
0000
0000
0100
0010
0000
0100
0000
,
0101
1010
1100
0011
,
2002
0000
3003
0000
,
0000
0000
1000
0000
0100
0000
0000
0000
0010
0000
0000
0010
0100
0000
1000
0000
,
0000
0000
0010
0000
0010
0000
0000
0000
0100
0000
0000
0001
0100
0000
0001
0000
,
1001
1100
0011
1001
,
0102
0000
0000
0100
0000
0000
0103
0010
2000
0000
0100
0000
3100
0000
0000
0000
,
0010
0000
0000
0010
0000
0000
0010
0001
0200
0000
0001
0000
0301
0000
0000
0000
,
1000
0000
0000
1000
2100
0000
3001
0000
,
0101
0000
0000
1000
2001
0000
3100
0000
,
0010
0100
0010
0100
0000
0000
1000
0001
1000
0001
0000
0000
,
0010
0100
1000
0010
0100
0001
0010
0100
1000
0010
0000
0000
,
0100
0000
0001
0100
0000
0000
0010
0000
1000
0000
0100
0000
0010
0000
0001
0000
,
0100
0000
0000
0100
0000
0000
0010
0100
0010
0000
1000
0000
0100
0000
0000
0000
,
1000
0000
0000
1000
0000
0000
0100
1000
0200
0000
0010
0000
0310
0000
0000
0000
,
0001
0000
0000
0001
0000
0000
0100
0001
0200
0000
0010
0000
0310
0000
0000
0000
,
1000
0000
0000
1000
0000
0000
0100
1000
0200
0000
0010
0000
0310
0000
0000
0000
,
0010
0000
0000
0010
0000
0000
0001
0010
0002
0000
0100
0000
0103
0000
0000
0000
,
0010
0000
0000
0010
0000
0000
1000
0100
2000
0000
0010
0000
3010
0000
0000
0000
,
0100
0000
0000
0100
0000
0000
0010
1000
0020
0000
1000
0000
1030
0000
0000
0000
,
0100
0000
0000
0100
0000
0000
0010
0001
0020
0000
0100
0000
0130
0000
0000
0000
,
1000
0000
0000
1000
0000
0000
0010
0100
0020
0000
0100
0000
0130
0000
0000
0000
,
0001
0000
0000
0001
0000
0000
1000
0001
2000
0000
0100
0000
3100
0000
0000
0000
,
0010
0000
0000
0010
0000
0000
0100
1000
0200
0000
1000
0000
1300
0000
0000
0000
,
0010
0000
0000
0010
0000
0000
0100
0001
0200
0000
0001
0000
0301
0000
0000
0000
,
0010
0000
0000
0010
0000
0000
0100
0010
0200
0000
1000
0000
1300
0000
0000
0000
,
0001
0000
0000
0001
0000
0000
1000
0001
2000
0000
0100
0000
3100
0000
0000
0000
,
0010
0000
0000
0010
0000
0000
0100
1000
0200
0000
1000
0000
1300
0000
0000
0000
,
0010
0000
0000
0010
0000
0000
0100
0001
0200
0000
0010
0000
0310
0000
0000
0000
,
1010
1100
0011
1001
,
0110
0000
0010
0000
0000
0000
0010
0000
1000
0000
0000
1000
0100
0000
0001
0000
,
0000
0000
0100
0000
0000
0000
1000
0000
1000
0000
0000
0010
0100
0000
0001
0000
,
0000
0000
0010
0000
0100
0000
1000
0000
0010
0000
0000
0010
0100
0000
0010
0000
,
1000
0100
0110
0000
1001
0000
1100
0000
,
1000
0000
1000
0000
0010
0100
0000
0000
0010
0000
0000
1000
0100
0000
0010
0000
,
0000
0000
0100
0000
1000
0010
0000
0000
0100
0000
0000
0100
0010
0000
0100
0000
,
0000
0000
0001
0000
0001
0000
0010
0000
0100
0000
0000
0100
0010
0000
0001
0000
,
0000
1000
1010
0000
0101
0000
0011
0000
,
0100
0000
1000
0000
0010
0100
0000
0010
1000
0000
0100
0000
0010
0001
0000
0100
,
0001
0000
1000
0000
0010
0100
0000
0010
1000
0000
0100
0000
0010
0000
0100
0000
,
1000
0000
0010
0100
0000
0010
1000
0000
0010
0100
0000
0010
1000
0000
0100
0010
,
0000
0100
1000
0000
0100
0010
0000
0100
0001
0000
0100
0000
1000
0000
0010
0000
,
0100
0001
0100
0000
0010
1000
0000
0010
0001
0000
0010
0100
0000
0010
1000
0000
,
0100
0001
0000
0100
1000
0000
0100
0010
0000
0100
1000
0000
0010
0000
0100
0000
,
0001
1000
0000
0001
0010
0000
0001
1000
0000
0001
0100
0000
0001
0010
0000
0001
,
0100
0010
1000
0100
0010
0001
1000
0010
,
0220
0000
0330
0000
0000
0000
0000
0000
1000
0000
0100
0000
0010
0100
0000
0000
,
0010
0100
0000
0000
0010
0100
0000
0000
1000
0000
0010
0000
0100
0001
0000
0000
,
0100
0001
0000
0000
0100
0001
0000
0000
0010
0000
0100
0000
1000
0001
0000
0000
,
1000
0001
0000
0000
1000
0001
0000
0000
0100
0000
0010
0000
1000
0100
0000
1000
,
0010
0000
0100
0000
0100
0000
0010
0000
1000
0000
0100
0000
0010
0001
0000
0000
,
0010
0001
0000
0000
0010
0001
0000
0000
1000
0000
0100
0000
0010
0100
0000
0000
,
0010
0100
0000
0000
0010
0100
0000
0000
1000
0000
0010
0000
0100
0010
0000
0000
,
0100
0010
0000
0000
0100
0010
0000
0000
1010
0000
0000
0000
0101
0000
0000
0000
,
1001
0000
0000
0000
1100
0000
0000
0000
0110
0000
0100
0000
1000
0010
0000
0100
,
0010
0100
0010
0000
1000
0000
0100
0000
0010
0100
0000
1000
0010
0000
0100
0000
,
0000
0001
0100
0000
0010
0000
0000
0000
1000
0000
0100
0000
0010
0100
0000
1000
,
0100
0000
0010
0000
0010
0000
0000
0001
0000
0100
0000
0000
0010
0000
1000
0000
,
0100
0000
0010
0000
0100
0000
1000
0000
0001
0000
0100
0000
0010
0100
0000
0010
,
0000
1000
0100
0000
0010
0000
0000
0100
0000
1000
0000
0001
0100
0000
0010
0000
,
1000
1000
0001
0001
0010
0100
0010
0001
,
0100
0000
0010
1000
0000
0010
0100
0000
0001
0010
0000
0100
0010
0000
0001
0010
,
0000
0100
1000
0000
0010
0000
0100
0000
0002
0000
0000
0000
1003
0000
0000
0000
,
0100
0000
0000
0100
1000
0000
0000
0000
0010
0000
0000
0010
0100
0000
0000
0000
,
0001
0000
0000
0001
0010
0000
0100
0000
1000
0010
0000
0000
0100
0000
0010
0000
,
1000
0000
0000
1000
0100
0000
0000
0000
1000
0000
0000
1000
0010
0000
0000
0000
,
0100
0000
0001
0000
0010
0000
0100
0000
0010
0001
0000
0000
0010
0001
0000
0000
,
0100
0000
0010
0000
1000
0000
0100
0000
0010
0100
0000
0000
1000
0000
0010
0000
,
0100
0000
0000
0100
0001
0000
0010
0000
0100
0000
0000
0000
1000
0000
0000
0000
,
0010
0000
0000
0010
0100
0000
0010
0000
0100
0000
0001
0000
1000
0000
0100
0000
,
0010
0100
1000
0010
0000
0000
0000
0000
;
