#TITLE:Link of Chain;
#SUBTITLE:;
#ARTIST:Hommarju feat. ayu;
#TITLETRANSLIT:;
#SUBTITLETRANSLIT:;
#ARTISTTRANSLIT:;
#CREDIT:Grithokskulk;
#BANNER:Link of Chain.png;
#BACKGROUND:Link of Chain-bg.png;
#LYRICSPATH:;
#CDTITLE:pop'n music.png;
#MUSIC:Link of Chain.mp3;
#OFFSET:-7.055;
#SAMPLESTART:63.415;
#SAMPLELENGTH:15.000;
#SELECTABLE:YES;
#BPMS:0.000=160.000;
#STOPS:;
#BGCHANGES:;

//---------------dance-single - ----------------
#NOTES:
     dance-single:
     :
     Easy:
     4:
     0.300,0.328,0.164,0.245,0.000: // measure 1
1000
0000
0100
1000
,  // measure 2
0010
0000
0100
0010
,  // measure 3
0100
0000
0001
0010
,  // measure 4
0002
0000
0003
0000
,  // measure 5
0100
0010
0100
0010
,  // measure 6
1000
0100
1000
0100
,  // measure 7
0010
0001
0100
0010
,  // measure 8
2000
3000
1001
0000
,  // measure 9
0001
0010
0001
0010
,  // measure 10
0001
0100
0001
0100
,  // measure 11
0010
1000
0100
0010
,  // measure 12
0220
0000
0330
0000
,  // measure 13
0001
0000
1000
1001
,  // measure 14
0000
0000
0010
0010
,  // measure 15
0100
0000
0001
0010
,  // measure 16
0001
0001
1000
1000
,  // measure 17
0010
0100
0110
0110
,  // measure 18
0000
0000
1000
1000
,  // measure 19
0001
0010
0001
0100
,  // measure 20
0010
0000
0100
0000
,  // measure 21
0001
1000
1001
1001
,  // measure 22
0000
0000
0001
0010
,  // measure 23
0001
0100
0010
1000
,  // measure 24
0100
0000
0010
0000
,  // measure 25
0100
0100
0110
0110
,  // measure 26
0000
0000
0010
0001
,  // measure 27
0100
0010
1000
0100
,  // measure 28
1000
0000
0001
0000
,  // measure 29
1000
0001
1001
0000
,  // measure 30
0210
0000
0301
0000
,  // measure 31
0010
0100
0010
0001
,  // measure 32
2000
0000
3001
0000
,  // measure 33
0100
0010
0010
0000
,  // measure 34
0020
0000
0130
0001
,  // measure 35
0010
0100
0100
0000
,  // measure 36
1000
0000
0001
0000
,  // measure 37
0100
0100
0010
0010
,  // measure 38
2002
0000
3003
0000
,  // measure 39
1000
0100
0001
0100
,  // measure 40
1000
0100
0010
0000
,  // measure 41
0001
0010
0100
0000
,  // measure 42
1000
0010
0100
0000
,  // measure 43
0001
0010
1000
0010
,  // measure 44
0001
0010
1000
0000
,  // measure 45
0010
0100
0010
0000
,  // measure 46
1000
0001
1000
0000
,  // measure 47
2002
0000
3003
0000
,  // measure 48
0200
0000
0300
0010
,  // measure 49
0020
0030
1000
0100
,  // measure 50
0020
0030
0200
0300
,  // measure 51
2002
0000
0000
3003
,  // measure 52
0200
0300
0010
0010
,  // measure 53
2000
3000
0002
0003
,  // measure 54
0010
0001
0100
0010
,  // measure 55
0200
0000
0000
0300
,  // measure 56
0110
0000
1001
0000
,  // measure 57
1000
0100
0001
0100
,  // measure 58
1000
0100
0010
0000
,  // measure 59
0001
0010
0100
0000
,  // measure 60
1000
0010
0100
0000
,  // measure 61
0001
0010
1000
0010
,  // measure 62
0001
0010
1000
0000
,  // measure 63
0010
0100
0001
0001
,  // measure 64
0010
0000
0100
0000
,  // measure 65
0110
0000
2002
3003
,  // measure 66
0001
1000
0010
1000
,  // measure 67
0001
0010
0001
1000
,  // measure 68
0010
0010
0100
0100
,  // measure 69
0210
0000
0010
0310
,  // measure 70
0200
0000
0000
0300
,  // measure 71
0002
0000
0000
0003
,  // measure 72
0020
0030
0200
0300
,  // measure 73
2002
0000
0000
0000
,  // measure 74
3003
0000
0000
0000
;

//---------------dance-single - ----------------
#NOTES:
     dance-single:
     :
     Medium:
     7:
     0.477,0.448,0.204,0.262,0.008:
0200
0000
0000
0010
0000
0000
0010
0000
,
0320
0000
0000
1000
0000
0000
1000
0000
,
2030
0100
3002
0100
,
0023
0000
0000
0000
0000
0000
0130
0010
,
0100
0000
0001
0010
0001
0000
1001
0000
,
1000
0000
0100
1000
0010
0000
0110
0000
,
0010
1000
0001
0000
0010
0001
1000
0000
,
0100
0010
0100
1000
0010
0000
0110
0000
,
0100
0000
0001
0010
0001
0100
0010
0000
,
0100
0000
0001
1000
0100
1000
0010
0000
,
0100
0010
0100
0000
0001
1000
0001
0020
,
0000
0100
0130
0000
0010
0100
0110
0000
,
1000
0100
0010
0001
0010
0100
1000
0000
,
0010
0100
0010
1000
0010
0000
0100
0000
,
0001
0000
0010
0010
0000
0001
0001
0000
,
0100
0000
0010
0010
0000
1000
1000
0000
,
0100
1000
0100
0000
0011
0000
0101
0000
,
0010
0000
0000
0000
0100
0001
0100
0010
,
0100
0000
0001
1000
0000
0100
0100
0000
,
0010
0100
1000
0000
1000
0100
0010
0000
,
1000
0100
0010
0001
0100
0000
0110
0000
,
0001
0000
0010
0000
0001
0010
0001
0100
,
0010
0000
0100
0000
0001
1000
0100
0000
,
0210
1000
0001
0310
,
0020
0000
0001
0000
1000
0000
0130
0010
,
0001
0000
0100
0000
0010
0010
0100
0000
,
0001
0000
0010
0000
0001
0100
0010
0000
,
1100
0000
0100
0010
0001
0000
0001
0100
,
0010
1000
0100
0010
0100
0000
1100
0000
,
0012
0000
1003
0000
0010
0100
0010
0000
,
2000
0100
0010
3001
,
0200
0000
0310
0000
1000
0100
0010
0000
,
0001
0010
0100
1000
0000
0001
0001
0000
,
0100
0010
0100
0000
1001
0000
1001
0000
,
0100
0010
0100
0001
0010
0000
0001
0000
,
1000
0100
1000
0000
0001
0100
0001
0000
,
1000
0010
1000
0010
0100
0001
0100
0001
,
0010
0000
0000
0100
0000
0000
0110
0000
0000
0000
0000
0000
0000
0000
0000
0000
,
1000
0000
1000
0100
0010
0000
0010
0100
,
1000
0010
0100
0000
0110
0000
0000
0000
,
0001
0010
0100
1000
0001
0000
0000
0000
,
0001
0010
0100
1000
0000
0001
0001
0000
,
0100
0110
0010
0110
,
0100
0001
1000
0100
0010
0000
0000
0000
,
0100
1000
0010
0100
0010
0000
1000
0000
,
0001
0010
0100
0010
0001
0000
0100
0000
,
0110
0220
0000
0000
0000
0000
0330
0000
,
2000
0000
0000
0100
0000
0000
0010
0000
,
3002
0000
0000
0100
0000
0000
0010
0000
,
0203
1000
0320
1000
,
0230
0000
0000
0000
0000
0000
0301
0010
,
0200
0000
0000
0010
0000
0000
1000
0000
,
0320
0000
0000
0001
0000
0000
1000
0000
,
0230
0000
0320
0000
0032
0000
0000
2000
,
0000
0000
0000
3003
,
1000
0000
0000
0001
0000
0000
1001
0000
0000
0000
0000
0000
0000
0000
0000
0000
,
1000
0100
0010
0000
1000
0100
0010
0000
,
1000
0010
0100
0000
0101
0000
0000
0000
,
0010
0001
0100
0010
2000
0000
3100
0000
,
1000
0010
0100
0001
0000
0010
0010
0000
,
0001
0101
0010
1010
,
0100
1000
0010
0100
0001
0000
0010
0000
,
0001
0010
0100
0000
0010
0100
1000
0000
,
0001
0000
1000
0001
0100
0000
0010
0100
,
1001
2002
0000
0000
0000
0000
3003
0000
,
1000
0000
0100
0010
0100
1000
0010
0000
,
0100
0000
0001
0010
0100
0010
0001
0000
,
0100
0001
1000
0000
0100
1000
0010
0000
,
0100
0001
0010
0100
0010
0001
0100
0000
,
0020
0000
0000
0100
0000
0000
1000
0000
,
0230
0000
0000
1000
0000
0000
0001
0000
,
0320
1000
0230
0001
,
0020
0000
0000
0000
,
0330
0000
0000
0000
;

//---------------dance-single - ----------------
#NOTES:
     dance-single:
     :
     Hard:
     8:
     0.583,0.537,0.294,0.368,0.086:
0200
0000
0000
0010
0000
0000
0001
0000
,
0320
0000
0000
0001
0000
0000
1000
0000
,
0230
0000
0000
0000
1000
0000
0000
0000
0302
0000
0000
0010
0000
0000
2000
0000
,
0000
0000
0000
3003
,
1000
0100
0010
0100
1000
1000
0010
0000
,
0100
0010
1000
0001
0010
0010
0100
0000
,
0010
0001
0011
0000
1000
0010
1010
0000
,
0100
0010
1000
0001
0010
0000
0110
0000
,
0010
0001
0100
0010
1000
1000
1100
0000
,
0100
1000
0010
0100
0010
0010
0110
0000
,
0100
0001
0010
0000
0010
0001
1000
0200
,
0010
0000
1000
0000
0310
0010
0110
0000
,
0100
0000
1000
0010
1000
0000
0001
0000
0100
0010
0100
0000
0001
0000
0000
0000
,
1000
0100
1100
0000
1000
0010
0100
0010
,
2000
0000
3100
0000
0010
0100
0010
1000
,
0002
0000
0013
0000
0100
0001
0010
0100
,
0010
0001
0010
0001
0010
0100
1000
0010
,
0100
0010
0110
0000
1000
0010
0100
0001
,
0020
0000
0130
0000
0010
0001
0100
0110
,
0000
0010
1000
1001
0000
0001
0010
0011
,
0000
1100
0000
1000
0001
0100
0010
1000
,
0100
1000
1100
0000
0001
0100
0010
1000
,
0200
0000
0310
0000
0100
1000
0010
0100
,
0002
0000
1003
0000
0100
1000
0010
0100
,
0010
1000
0010
1000
0010
0100
0001
0010
,
0100
0010
0110
0000
0001
0100
0100
0010
,
0200
0000
1300
0000
0001
0010
0100
0110
,
0000
0001
1000
1001
0000
0100
0010
1000
,
0100
0010
0100
0010
0001
1000
0001
1000
,
0020
0000
0001
0000
0100
0100
0100
0000
,
2030
0100
0010
0100
,
3002
0000
0010
0000
0100
0100
0100
0000
,
1003
0100
0010
0002
0000
1003
1001
0000
,
0100
0000
0010
0000
0100
0000
0000
0100
0000
0000
0100
0000
0010
0000
0000
0000
,
1000
0010
0100
0000
0010
0100
0001
0000
,
0010
0100
0010
0100
1000
0001
1000
0001
,
0020
0100
0100
0000
0001
0001
0031
0000
,
1001
0000
0000
0110
0000
0000
1001
0000
0000
0000
0000
0000
0000
0000
0000
0000
,
1000
0000
0000
1000
0100
0000
0000
0000
1000
0000
0000
1000
0010
0000
0000
0000
,
1000
0010
0100
0001
2002
0000
3003
0000
,
0001
0010
0100
1000
2002
0000
3003
0000
,
1000
1000
0010
0200
0000
0010
0310
0000
,
0100
0000
0000
0100
0001
0000
0000
0000
0100
0000
0000
0100
1000
0000
0000
0000
,
0100
0001
1000
0100
0220
0000
0330
0000
,
0100
0010
0010
0100
0100
1000
1000
0010
,
0210
1000
0001
0310
,
1001
0000
1001
0000
0000
0000
0100
0010
0100
0000
0000
0000
0001
0000
0010
0000
,
0200
0000
0000
0010
0000
0000
1000
0000
,
0320
0000
0000
1000
0000
0000
0001
0000
,
0230
0000
0000
0000
0001
0000
0000
0000
2300
0000
0000
0010
0000
0000
0002
0000
,
0000
0000
0000
0000
3003
0000
1000
0010
,
0200
0000
1000
0000
0301
0100
0010
1000
,
0200
0000
0001
0000
1300
0010
0100
0001
,
0020
0000
0000
0000
0100
0000
0000
0000
0032
0000
0000
0100
0000
0000
2003
0000
,
0000
0001
0001
0000
0001
0001
3001
0000
,
1001
0000
0000
0110
0000
0000
1001
0000
0000
0000
0000
0000
0000
0000
0000
0000
,
0100
0000
0000
0100
1000
0000
0100
0000
0010
0000
0000
0010
1000
0000
0100
0000
,
0010
0000
0000
0010
0100
0000
1000
0000
0010
0000
0100
0000
0110
0000
0000
0000
,
0001
0010
0100
1000
0020
0000
0130
0000
,
0001
0010
1000
0020
0000
0100
0130
0010
,
0001
0000
0000
0001
0100
0000
0001
0000
0010
0000
0000
0010
0100
0000
0010
0000
,
0001
0000
0000
0001
1000
0000
0010
0000
0100
0000
0100
0000
0110
0000
0000
0000
,
1000
0100
0100
0010
0010
0100
0100
1000
,
0020
0000
0130
0000
0001
0010
1000
0010
,
1001
0000
0110
0000
0000
0000
0010
0100
0010
0000
0000
0000
0100
0000
0001
0000
,
0020
0000
0130
0010
0001
0100
0100
0010
,
0200
0000
1300
0100
0001
0010
0100
0100
,
0010
0001
0011
0000
1000
0010
1010
0000
,
0010
0100
0100
0010
0100
0000
1001
0000
,
0020
0000
0000
1000
0000
0000
0001
0000
,
0230
0000
0000
1000
0000
0000
0010
0000
,
2300
0000
0000
0000
0001
0000
0000
0000
3200
0000
0000
0010
0000
0000
2000
0000
,
0000
0000
0000
0000
,
3300
0000
0000
0000
;
