#TITLE:Like+it!;
#SUBTITLE:;
#ARTIST:Ryu☆;
#TITLETRANSLIT:;
#SUBTITLETRANSLIT:;
#ARTISTTRANSLIT:;
#CREDIT:Grithokskulk;
#BANNER:Like+it!.png;
#BACKGROUND:Like+it!-bg.png;
#LYRICSPATH:;
#CDTITLE:REFLEC BEAT.png;
#MUSIC:Like+it!.mp3;
#OFFSET:-7.358;
#SAMPLESTART:7.240;
#SAMPLELENGTH:15.000;
#SELECTABLE:YES;
#BPMS:0.000=165.000;
#STOPS:;
#BGCHANGES:;

//---------------dance-single - ----------------
#NOTES:
     dance-single:
     :
     Easy:
     3:
     0.299,0.273,0.152,0.232,0.000: // measure 1
1000
0100
1000
0100
,  // measure 2
0020
0030
0020
0030
,  // measure 3
0001
0100
0001
0100
,  // measure 4
0020
0030
0020
0030
,  // measure 5
1000
0000
1001
0000
,  // measure 6
0001
0000
0011
0000
,  // measure 7
0010
0000
0110
0000
,  // measure 8
0001
0000
0000
1000
,  // measure 9
2000
0000
0000
3000
,  // measure 10
0002
0000
0000
0003
,  // measure 11
0200
0000
0000
0300
,  // measure 12
0020
0000
0100
0130
,  // measure 13
0002
0003
0010
0100
,  // measure 14
0020
0030
0100
1000
,  // measure 15
0200
0300
1000
0001
,  // measure 16
2000
0000
3000
1001
,  // measure 17
0001
0010
0001
0100
,  // measure 18
0010
0100
0001
0000
,  // measure 19
1000
0100
0010
0100
,  // measure 20
1000
0010
1000
0000
,  // measure 21
0010
0010
0100
0100
,  // measure 22
0001
0001
1001
0000
,  // measure 23
1000
1000
0100
0100
,  // measure 24
0010
0010
0110
0000
,  // measure 25
0100
0100
0100
0100
,  // measure 26
0010
0010
0110
0000
,  // measure 27
0001
0001
0001
0001
,  // measure 28
1000
1000
0000
1001
,  // measure 29
0100
0100
0100
0100
,  // measure 30
0010
0010
0010
0010
,  // measure 31
1000
1000
0001
0001
,  // measure 32
0010
0100
0000
1001
,  // measure 33
0002
0000
0000
0003
,  // measure 34
0200
0000
0000
0300
,  // measure 35
0002
0000
0000
0003
,  // measure 36
0020
0000
0000
0030
,  // measure 37
0200
0300
0010
0010
,  // measure 38
0200
0300
1000
1000
,  // measure 39
0200
0300
0001
0001
,  // measure 40
0200
0300
0010
0010
,  // measure 41
0200
0300
1000
1000
,  // measure 42
0020
0000
0000
0000
,  // measure 43
0030
0000
0000
0110
,  // measure 44
0001
0010
0100
1000
,  // measure 45
0001
0100
0010
0100
,  // measure 46
0001
1000
0100
0010
,  // measure 47
0100
1000
0010
0000
,  // measure 48
1000
0001
0010
0001
,  // measure 49
0100
0010
1000
0100
,  // measure 50
0010
0100
1000
0010
,  // measure 51
0100
0000
0000
0110
,  // measure 52
0001
0001
1000
1000
,  // measure 53
0100
0000
0110
0000
,  // measure 54
0001
0001
0100
0100
,  // measure 55
0010
0000
0101
0000
,  // measure 56
0010
0010
0100
0100
,  // measure 57
1000
0000
1010
0000
,  // measure 58
0010
0010
0100
0100
,  // measure 59
0001
0000
0000
1001
,  // measure 60
2000
0000
0000
0000
,  // measure 61
3000
0000
0000
0000
;

//---------------dance-single - ----------------
#NOTES:
     dance-single:
     :
     Medium:
     6:
     0.466,0.515,0.192,0.434,0.000:
0100
0010
0100
0010
,
1000
0100
0010
0001
,
0100
0010
0100
0010
,
1000
0100
0010
0001
,
0100
0000
0010
0000
0100
0010
0100
0000
,
0001
0000
0010
0000
0100
1000
0100
0000
,
1000
0000
0010
0000
1000
0010
1000
0000
,
0010
0000
0100
0000
0000
0010
0010
0000
,
0220
0000
0000
0030
,
0002
0000
0000
0300
,
0020
0000
0000
0003
,
0230
0000
0000
0000
0010
0010
0310
0000
,
0002
0013
2000
3010
,
0002
0103
2000
3100
,
0002
0013
2000
3100
,
0002
0000
0023
0000
0000
0100
0130
0000
,
0010
0000
0001
0000
0100
0010
0100
0000
,
0001
0000
1000
0000
0100
1000
0100
0000
,
1000
0000
0010
0000
0100
0001
0100
0000
,
0010
0000
0100
0000
0001
0010
0001
0000
,
1001
1001
1100
1100
,
1001
0000
1001
0000
0100
0100
0100
0000
,
1001
1001
0011
0011
,
1001
0000
1001
0000
0000
0010
0010
0000
,
0001
0100
0010
0100
,
0001
0000
0010
0000
0100
0100
0100
0000
,
0010
0001
0100
0010
,
0100
0000
0001
0000
0000
0010
0010
0000
,
0100
1000
0010
1000
,
0100
0000
0010
0000
0100
0100
0100
0000
,
1000
1000
1000
0000
0010
0010
0010
0000
,
0100
0100
0100
0000
0000
0010
0010
0000
,
2000
0100
0010
0100
,
3002
0010
0100
0010
,
0203
1000
0001
1000
,
0320
1000
0001
1000
,
0230
0000
0000
0010
0320
0000
0000
1000
,
2030
0000
0000
0100
3200
0000
0000
0010
,
0320
0000
0000
0100
0230
0000
0000
1000
,
2300
0000
0000
0001
3002
0000
0000
0100
,
0203
0000
0000
0010
0320
0000
0000
0100
,
0230
0302
0023
0230
,
0000
0000
0000
0000
0000
0010
0310
0000
,
0001
0010
0001
0010
0001
0000
1001
0000
,
1000
0010
1000
0010
1000
0000
1001
0000
,
0001
0100
0001
0000
1000
0100
1000
0000
,
0010
0100
0010
0100
0010
0000
0110
0000
,
1000
0010
1000
0010
1000
0000
1001
0000
,
0001
0010
0001
0010
0001
0000
1001
0000
,
1000
0100
1000
0000
0001
0100
0001
0000
,
1000
0100
1000
0000
0001
0000
1001
0000
,
2000
3100
0002
0103
,
2000
0000
3100
0000
0010
0010
0010
0000
,
0002
0013
2000
3010
,
0002
0000
0013
0000
0100
0100
0100
0000
,
2000
3010
0002
0013
,
2000
0000
3100
0000
0001
0001
0001
0000
,
0200
0310
2000
3010
,
0200
0000
0310
0000
0000
1000
1000
0000
,
0001
0001
0001
0001
,
0001
0000
0000
0000
;

//---------------dance-single - ----------------
#NOTES:
     dance-single:
     :
     Hard:
     8:
     0.589,0.515,0.313,0.202,0.121:
1000
0100
0100
0010
0100
1000
0010
0001
,
0020
1000
0001
0130
,
0001
0010
0010
1000
0010
0001
0100
0010
,
2000
0100
0010
3100
,
0010
0000
0001
0000
0100
0000
0010
0000
2000
0000
0000
0100
0000
0000
3100
0000
,
0010
0000
0100
0000
1000
0000
0010
0000
0200
0000
0000
1000
0000
0000
1300
0000
,
0100
0000
0001
0000
0010
0000
0100
0000
0020
0000
0000
0100
0000
0000
0130
0000
,
0010
0001
1000
0020
0000
0100
0130
0000
,
0001
0000
0000
0010
0000
0000
0100
0000
0010
0000
0001
0000
0100
0000
0000
0000
,
0010
0010
0100
0000
0001
0001
1000
0000
,
0100
0000
0000
0010
0000
0000
0100
0000
1000
0000
1000
0000
0010
0000
0000
0000
,
0100
0010
1000
0000
0100
0100
0010
0000
,
0100
0000
0000
0100
1000
0000
0000
0000
0010
0000
0000
0010
0000
0000
0010
0000
,
0100
0000
0001
0000
0010
0000
0000
0000
0100
0000
0000
0100
0000
0000
0100
0000
,
0010
0000
0000
0010
0001
0000
0100
0000
0010
0000
0000
0010
0000
0000
0010
0000
,
0100
0001
1000
0200
0000
0010
0310
0000
,
0001
0010
0100
0010
0001
0100
1000
0100
,
0010
1000
0010
0001
0010
0100
0001
0000
,
0010
0100
0010
0001
0100
1000
0100
0010
,
0001
0010
1000
0100
0001
0100
0010
0000
,
0001
0010
0100
0000
0010
0001
0100
0000
,
0010
0100
0001
0000
1001
1001
1001
0000
,
1000
0100
0001
0000
0100
0010
0001
0000
,
1000
0100
0010
0200
0000
1000
1300
0000
,
0020
0100
1000
0001
,
0230
0000
0001
0000
0010
0010
0310
0000
,
0200
1000
0001
0010
,
0302
0000
0010
0000
0000
0100
0103
0000
,
0020
1000
0001
0100
,
2030
0000
0100
0000
0010
0010
0010
0000
,
3200
0001
0320
0001
,
0130
1000
0010
0200
0000
0010
0310
0000
,
1010
0000
1010
0000
1000
0010
1000
0000
,
0101
0000
0101
0000
0001
0100
0001
0000
,
0011
0000
0011
0000
0010
0001
0010
0000
,
1100
0000
1100
0000
1000
0100
1000
0000
,
0110
0000
0000
0000
0110
0000
0000
0000
0010
0000
0000
0010
0000
0000
0010
0000
,
0101
0000
0000
0000
0101
0000
0000
0000
0100
0000
0000
0100
0000
0000
0000
0000
,
1001
0000
0000
0000
1001
0000
0000
0000
0001
0000
0000
0001
0000
0000
0001
0000
,
0110
0000
0000
0000
0110
0000
0000
0000
0010
0000
0000
0010
0000
0000
0010
0000
,
0001
0000
0000
0001
0000
0000
0001
0000
0010
0000
0000
0010
0000
0000
0010
0000
,
0100
0010
0001
1000
0010
0100
0001
0020
,
0000
0000
0000
0000
0000
0100
0130
0000
,
0010
0001
0100
1000
0100
0010
1000
0010
,
0001
0010
0100
0001
0010
0100
0010
0000
,
0001
0010
1000
0010
0001
0100
0010
1000
,
0100
0001
0100
1000
0001
0001
0100
0000
,
0001
0010
0100
0010
0001
0100
1000
0100
,
0010
1000
0010
0001
0010
0100
0001
0000
,
0010
0100
0001
0100
1000
0010
0100
0001
,
0010
0100
0010
0020
0000
0100
0130
0000
,
0010
0000
0001
0000
1000
0000
0000
0010
0000
0100
0000
0000
0001
0000
0000
0000
,
1000
0100
0010
0000
0110
0110
0110
0000
,
0001
0000
0010
0000
0100
0000
0000
0010
0000
0001
0000
0000
0100
0000
0000
0000
,
1000
0100
0010
0000
0101
0101
0101
0000
,
0001
0000
1000
0000
0100
0000
0000
0010
0000
0100
0000
0000
1000
0000
0000
0000
,
0010
0100
0010
0000
1001
1001
1001
0000
,
0010
0000
0100
0000
0010
0000
0000
0001
0000
0100
0000
0000
0001
0000
0000
0000
,
1000
0100
0010
0100
0000
1100
0011
0000
,
2001
0001
0001
0001
,
3001
0000
0000
0000
;
