#TITLE:Les filles balancent;
#SUBTITLE:;
#ARTIST:Orange Lounge;
#TITLETRANSLIT:;
#SUBTITLETRANSLIT:;
#ARTISTTRANSLIT:;
#CREDIT:Grithokskulk;
#BANNER:Les filles balancent.png;
#BACKGROUND:Les filles balancent-bg.png;
#LYRICSPATH:;
#CDTITLE:beatmania IIDX.png;
#MUSIC:Les filles balancent.mp3;
#OFFSET:-1.520;
#SAMPLESTART:38.815;
#SAMPLELENGTH:14.960;
#SELECTABLE:YES;
#BPMS:0.000=180.000;
#STOPS:;
#BGCHANGES:;

//---------------dance-single - ----------------
#NOTES:
     dance-single:
     :
     Easy:
     3:
     0.230,0.311,0.150,0.105,0.000: // measure 1
1000
0000
0000
0000
,  // measure 2
0100
1000
0000
1000
,  // measure 3
0010
0000
0000
0000
,  // measure 4
0010
0100
0000
0100
,  // measure 5
0001
0000
0000
0000
,  // measure 6
0001
0010
0000
0010
,  // measure 7
0100
0000
0000
0000
,  // measure 8
0100
1000
0100
1000
,  // measure 9
0100
0000
0000
0000
,  // measure 10
0100
1000
0000
1000
,  // measure 11
0010
0000
0000
0000
,  // measure 12
0010
0100
0000
0100
,  // measure 13
0010
0000
0000
0000
,  // measure 14
0010
1000
0000
1000
,  // measure 15
0100
0000
0000
0000
,  // measure 16
0010
0000
0000
0100
,  // measure 17
0100
0000
0000
1000
,  // measure 18
1000
0000
0001
0000
,  // measure 19
0100
0000
0000
0000
,  // measure 20
0001
0010
0100
0010
,  // measure 21
0001
0000
0100
0000
,  // measure 22
0001
0001
0001
0000
,  // measure 23
1000
0100
1000
0000
,  // measure 24
0200
0000
0300
0000
,  // measure 25
0010
0010
0100
0000
,  // measure 26
0010
0001
0010
0000
,  // measure 27
0002
0003
2000
3000
,  // measure 28
2002
0000
3003
0000
,  // measure 29
0001
0000
1000
1000
,  // measure 30
2000
0000
3000
0000
,  // measure 31
0010
0000
0100
0100
,  // measure 32
0200
0000
0300
0000
,  // measure 33
0001
0000
0010
0010
,  // measure 34
0020
0000
0030
0000
,  // measure 35
0001
0000
0100
0001
,  // measure 36
0200
0000
0300
0000
,  // measure 37
0010
0000
0100
0001
,  // measure 38
0200
0000
0300
0000
,  // measure 39
0001
0000
1000
0100
,  // measure 40
2000
0000
3000
0000
,  // measure 41
0001
0000
0010
0100
,  // measure 42
0020
0000
0000
0030
,  // measure 43
0001
0000
0100
0001
,  // measure 44
0200
0000
0000
0300
,  // measure 45
0001
0000
1000
0000
,  // measure 46
0000
0000
0000
0000
,  // measure 47
0100
0000
1000
0000
,  // measure 48
0010
1000
0010
0000
,  // measure 49
1000
0000
0001
0000
,  // measure 50
0010
0000
0000
0000
,  // measure 51
0001
0000
0100
0000
,  // measure 52
0010
0010
0010
0000
,  // measure 53
0100
0000
0110
0000
,  // measure 54
0001
1000
0001
0000
,  // measure 55
1000
0000
0110
0000
,  // measure 56
1000
0100
1000
0000
,  // measure 57
0001
0000
0110
0000
,  // measure 58
0001
0010
0001
0000
,  // measure 59
1000
0000
0110
0000
,  // measure 60
1000
0001
1000
0000
,  // measure 61
1001
0000
0000
0000
,  // measure 62
0110
0000
0000
0000
,  // measure 63
0101
0000
0000
0000
,  // measure 64
1001
0000
0000
0000
,  // measure 65
1100
0000
0000
0000
,  // measure 66
0110
0000
0000
0000
,  // measure 67
0011
0000
0000
0000
,  // measure 68
0110
0000
0000
0000
,  // measure 69
1010
0000
0000
0000
,  // measure 70
1001
0000
0000
0000
,  // measure 71
0110
0000
0000
0000
,  // measure 72
0011
0000
0000
0000
,  // measure 73
1001
0000
0000
0000
,  // measure 74
1010
0000
0000
0000
,  // measure 75
0110
0000
0000
0000
,  // measure 76
0002
0000
0000
0003
,  // measure 77
1000
0000
0000
0000
,  // measure 78
0100
1000
0100
0010
,  // measure 79
0100
0000
0000
0000
,  // measure 80
0010
0100
0010
0001
,  // measure 81
0100
0000
0000
0000
,  // measure 82
0010
0100
0001
0010
,  // measure 83
0100
0000
0000
0000
,  // measure 84
0001
0001
1000
1000
,  // measure 85
0010
0000
0000
0000
,  // measure 86
0010
1000
0100
0010
,  // measure 87
0100
0000
0000
0000
,  // measure 88
0001
0100
0001
0010
,  // measure 89
0100
0000
0000
0000
,  // measure 90
0001
1000
0001
0100
,  // measure 91
0010
0000
0000
0000
,  // measure 92
0001
0000
0000
0000
,  // measure 93
1000
0000
0000
0000
;

//---------------dance-single - ----------------
#NOTES:
     dance-single:
     :
     Medium:
     6:
     0.367,0.553,0.180,0.308,0.000:
1001
0000
0000
0100
0000
0000
0100
0000
,
0020
0000
0000
0001
0000
0001
0000
0031
,
0000
0100
0010
0100
,
0002
0000
0000
1000
0000
1000
0000
1003
,
0000
0100
0010
0100
,
2000
0000
0000
0010
0000
0001
0000
3010
,
0000
0100
0001
0010
,
0001
0000
0100
0100
0000
0010
0000
0200
,
0000
0010
0010
0310
,
1000
0000
0000
0001
0000
0010
0000
0002
,
0000
0010
0010
0013
,
0001
0000
0000
0100
0000
0010
0000
0200
,
0000
0010
0010
0310
,
1000
0000
0000
0100
0000
1000
0000
0020
,
0000
0100
0100
0130
,
2002
0000
0003
0001
,
3002
0000
0000
0103
,
0200
0300
0020
0030
,
0200
0000
0000
0300
,
0001
0010
0100
0010
,
0002
0003
2000
3000
,
0010
0100
0010
1000
,
0100
1000
0010
1000
,
0002
0000
0003
0000
,
0010
0001
0001
0100
,
0010
0100
0100
0001
,
2200
3300
0022
0033
,
0202
0000
0303
0000
1000
2000
3000
0000
,
0010
0000
0000
0100
0000
0100
0000
0200
,
0000
0000
0300
0000
0001
0010
0001
0000
,
1000
0000
0000
0100
0000
0010
0000
0200
,
0000
0000
0300
0000
0010
0001
0010
0000
,
0001
0000
0000
1000
0000
0010
0000
2000
,
0000
0000
3000
0000
0010
0100
0010
0000
,
1000
0000
0000
0100
0000
0010
0000
0002
,
0000
0000
0003
0000
,
0100
0000
0000
0001
0000
0010
0000
0002
,
0000
0000
0003
0000
1000
0010
1000
0000
,
0100
0000
0000
1000
0000
0010
0000
0200
,
0000
0000
0300
0000
0010
1000
0010
0000
,
1000
0000
0000
0001
0000
0010
0000
0002
,
0000
0000
0003
0000
1000
0001
1000
0000
,
0010
0000
0000
0100
0000
0010
0000
0200
,
0000
0000
0000
0300
,
0001
0000
0000
0001
0000
0000
0001
0000
,
1000
0000
0000
1000
0000
0000
1000
0000
,
0100
0000
0000
0100
0000
0000
0100
0000
,
0010
0000
0000
0010
0000
0000
0010
0000
,
0100
0000
0000
0100
0000
0000
0100
0000
,
1000
0000
0000
1000
0000
0000
1000
0000
,
0001
0000
0000
0001
0000
0000
0001
0000
,
0100
1000
0100
0010
,
1000
0000
0000
0010
0000
0000
1000
0000
,
0001
0000
0000
0010
0000
0000
0001
0000
,
0100
0000
0000
0010
0000
0000
0100
0000
,
0001
0010
0100
1000
,
0100
0000
0000
0010
0000
0000
0100
0000
,
1000
0000
0000
0001
0000
0000
1000
0000
,
0010
0000
0000
1000
0000
0000
0010
0000
,
0100
0001
0010
0001
,
0011
0000
0000
0000
,
0101
0000
0000
0000
,
0110
0000
0000
0000
,
1001
0000
0000
0000
,
1100
0000
0000
0000
,
0011
0000
0000
0000
,
0101
0000
0000
0000
,
1010
0000
0000
0000
,
1001
0000
0000
0000
,
0011
0000
1100
0000
,
1001
0000
0000
0000
,
0110
0000
0000
0000
,
0101
0000
0000
0000
,
1001
0000
1100
0000
,
0110
0000
0001
0000
0010
0000
0100
2000
,
0000
0000
3000
0000
,
0002
0010
0100
0103
,
0010
0000
0001
0100
0000
0100
0010
0000
,
2000
0100
0010
3010
,
0100
0000
0010
0001
0000
0001
1000
0000
,
0020
0001
1000
1030
,
0100
0000
0001
0010
0000
0010
0100
0000
,
0020
1000
0001
0031
,
0100
0000
0001
0001
0000
1000
0000
0201
,
0000
0010
0010
0310
,
0001
0000
0010
0001
0000
0100
0000
0020
,
0000
0100
0100
0130
,
0001
0000
1000
0100
0000
1000
0000
0020
,
0000
0100
0100
0130
,
1000
0000
0001
0010
0000
0001
0000
2000
,
0000
0100
0010
3010
,
0002
0000
1000
1003
,
1001
0000
0000
0000
;

//---------------dance-single - ----------------
#NOTES:
     dance-single:
     :
     Hard:
     8:
     0.628,0.622,0.376,0.203,0.060:
1000
0000
0100
1000
0000
0001
0100
0000
,
0010
0000
0001
0100
0000
1000
0100
0000
,
0010
0000
1000
0010
0000
0001
0010
0000
,
0100
0000
0001
0010
0000
0001
0100
0000
,
0010
0000
1000
0100
0000
0010
0100
0000
,
1000
0000
0010
0100
0000
1000
0100
0000
,
0001
0000
1000
0100
0000
0001
0100
0000
,
0010
0001
0100
0100
0010
1000
0100
0010
,
0100
0000
1000
0010
0000
0001
0010
0000
,
0100
0000
0001
0010
0000
0001
0100
0000
,
0001
0000
1000
0100
0000
1000
0010
0000
,
0100
0000
0010
1000
0000
0010
0001
0000
,
0010
0000
0100
0001
0000
0010
0001
0000
,
1000
0000
0100
0001
0000
0100
1000
0000
,
0010
1000
0100
0000
0100
1000
0010
0100
,
0020
0000
0100
1000
,
0230
0000
1000
0001
,
0320
0000
0001
0100
,
2030
0000
3200
0000
,
0310
0000
0100
1000
0000
0010
0000
0000
,
2000
0000
0100
0010
,
3200
0001
0010
0010
,
2300
0010
0001
0100
,
3020
0000
0200
0330
,
0200
0000
0001
1000
,
0320
0000
0001
0100
,
2030
0000
0200
3000
,
0020
0000
0330
0000
0110
0220
0000
0330
,
0101
0000
0001
1000
0000
1100
0000
0120
,
0000
0100
0130
0000
1000
0010
0100
0001
,
1001
0000
1000
1100
0000
0011
0000
0201
,
0000
0010
0310
0000
0100
0001
0010
0100
,
1100
0000
1000
1010
0000
0110
0000
0102
,
0000
1000
1003
0000
0001
0010
1000
0010
,
0011
0000
0001
1001
0000
1010
0000
0110
,
0000
0010
0100
0001
1000
0100
0010
0000
,
0110
0000
0100
1100
0000
1010
0000
0210
,
0000
0010
0310
0000
1000
0010
0001
0010
,
0110
0000
0100
0101
0000
0011
0000
0210
,
0000
0010
0310
0000
0100
1000
0010
0100
,
0110
0000
0001
1001
0000
1100
0000
0120
,
0000
0100
0130
0000
1000
0010
0100
0001
,
0011
0000
0001
1001
0000
1010
0000
0110
,
0000
0001
0100
0010
1000
0100
0010
0000
,
0011
0000
0001
0101
0000
0010
0100
0000
,
0001
0010
0010
0100
0010
0100
0100
0000
,
1000
0010
0100
0010
0000
1000
0100
0001
,
0100
1000
0010
0001
0010
0100
0001
0010
,
0110
0000
0100
2100
0000
0001
3200
0000
,
0010
0000
0310
0000
0100
0010
0001
0000
,
0100
1000
0100
0001
0000
0010
1000
0010
,
0100
0000
0000
0100
0010
0000
0000
0000
0100
0000
0000
0100
1000
0000
0000
0000
,
1010
0000
0010
0110
0000
0100
0100
0000
,
0010
1000
0100
0010
0100
1000
0010
0010
,
0110
0000
0100
0101
0000
0010
0001
0000
,
0010
0001
0001
0100
1000
1000
0100
0010
,
1010
0000
1000
1100
0000
0010
0100
0100
,
0000
0001
0100
0010
0001
0100
0100
0010
,
0110
0000
1000
1001
0000
0100
0010
0000
,
0100
0001
0100
0010
0001
0100
1000
0100
,
0110
0000
0000
0010
0000
0000
1000
0000
0000
0100
1000
0010
,
0100
0000
0000
0001
0000
0000
0010
0000
0000
0001
0100
0010
,
0100
0000
0001
0000
0010
0000
1000
0010
,
0000
0010
0001
0000
0100
0010
0100
0001
,
0010
0000
0100
0010
0000
0100
1000
0000
,
0020
0001
0100
1000
,
0130
0000
0100
1000
0000
1000
0100
0000
0100
0001
0000
0001
,
0010
0100
0010
0000
0001
0010
0100
1000
,
0010
0000
0000
0100
0000
0000
0010
0000
0000
0000
0000
0000
1000
0000
0000
0000
1000
0000
0100
0000
0000
0000
0100
0000
,
1000
0000
1000
0010
0000
0010
0001
0000
0001
0010
0000
0010
,
0100
0001
0010
0100
0010
0001
0100
0010
,
0100
0001
1000
0001
0010
0100
1000
0010
,
0000
0100
0000
0010
1000
0100
0010
0100
,
1000
0010
0001
0010
1000
0100
0001
0100
,
1000
0100
0010
0001
1000
0100
0010
0002
,
0000
0000
1003
0000
,
1001
0000
1000
0100
0000
0100
0010
0100
,
1000
0000
0010
0100
0000
0010
1000
0001
,
0010
0000
0001
0100
0000
0010
0100
0001
,
0010
0000
0100
0010
0000
0001
0100
1000
,
0100
0000
0010
1000
0000
0100
0001
0100
,
1000
0000
0010
1000
0000
0100
0010
0100
,
1000
0000
0010
1000
0000
0001
0100
0000
,
0101
0001
1000
1100
0100
0010
0100
1000
,
1010
0000
0010
0100
0000
0100
1000
0100
,
0001
0000
0010
0001
0000
1000
0100
0001
,
0100
0000
1000
0010
0000
0100
0010
1000
,
0100
0000
0001
0100
0000
0010
0001
1000
,
0010
0000
0100
0010
0000
1000
0010
0001
,
0010
0000
1000
0100
0000
0010
0100
1000
,
0010
0000
0100
0010
0000
0100
0001
0000
,
0100
1000
0000
0100
0001
0001
0010
0100
,
1000
0000
0000
0000
;
