#TITLE:La brise d'ete;
#SUBTITLE:;
#ARTIST:Orange Lounge;
#TITLETRANSLIT:;
#SUBTITLETRANSLIT:;
#ARTISTTRANSLIT:;
#CREDIT:Grithokskulk;
#BANNER:La brise d'ete.png;
#BACKGROUND:La brise d'ete-bg.png;
#LYRICSPATH:;
#CDTITLE:MAMBO A GO GO.png;
#MUSIC:La brise d'ete.mp3;
#OFFSET:-5.055;
#SAMPLESTART:33.115;
#SAMPLELENGTH:15.000;
#SELECTABLE:YES;
#BPMS:0.000=200.000;
#STOPS:28.000=0.880
,89.000=0.880
,214.000=0.880
;
#BGCHANGES:;

//---------------dance-single - ----------------
#NOTES:
     dance-single:
     :
     Easy:
     2:
     0.195,0.248,0.042,0.000,0.000: // measure 1
1000
0000
0100
0000
,  // measure 2
1000
0000
0100
0000
,  // measure 3
1000
0000
0010
0000
,  // measure 4
1000
0000
0010
0000
,  // measure 5
0100
0000
0001
0000
,  // measure 6
0100
0000
0001
0000
,  // measure 7
0100
0000
0010
0000
,  // measure 8
0100
0001
0000
0010
,  // measure 9
0000
0100
0000
1000
,  // measure 10
0000
0001
0000
0010
,  // measure 11
0000
0100
0000
1000
,  // measure 12
0000
0001
0000
0100
,  // measure 13
0000
0010
0000
1000
,  // measure 14
0000
0001
0000
0100
,  // measure 15
0000
0010
0000
1000
,  // measure 16
0000
0100
0000
1000
,  // measure 17
0000
0010
0000
0100
,  // measure 18
0000
0001
0000
0010
,  // measure 19
0000
0100
0000
1000
,  // measure 20
0000
0010
0000
1000
,  // measure 21
0000
0100
0000
0010
,  // measure 22
0000
0100
0000
1000
,  // measure 23
0000
0001
0100
0000
,  // measure 24
0010
0000
0100
0000
,  // measure 25
0001
0000
0010
0000
,  // measure 26
0001
0100
0100
0000
,  // measure 27
0010
0000
1000
0000
,  // measure 28
0100
0000
1000
0000
,  // measure 29
0010
0000
0100
0000
,  // measure 30
0001
0010
0010
0000
,  // measure 31
0001
0010
0001
0000
,  // measure 32
0100
0000
0010
0000
,  // measure 33
1000
0000
0100
0000
,  // measure 34
1000
0010
0010
0000
,  // measure 35
1000
0001
1000
0000
,  // measure 36
0001
0000
0010
0000
,  // measure 37
0100
0000
0010
0000
,  // measure 38
0001
0100
0100
0000
,  // measure 39
0010
0000
0100
0000
,  // measure 40
0000
0010
0000
0000
,  // measure 41
0100
0000
0000
0000
,  // measure 42
0000
0000
0000
0000
,  // measure 43
0000
0000
0001
0000
,  // measure 44
0000
1000
0000
0000
,  // measure 45
0001
0000
0000
0000
,  // measure 46
0000
0000
0000
0000
,  // measure 47
0000
0000
1000
0000
,  // measure 48
0000
0100
0000
0000
,  // measure 49
1000
0000
0000
0000
,  // measure 50
0000
0000
0000
0000
,  // measure 51
0000
0000
0001
0000
,  // measure 52
0000
0100
0000
0000
,  // measure 53
0001
0000
0000
0000
,  // measure 54
0000
0000
0000
1000
,  // measure 55
1000
1000
0000
0001
,  // measure 56
0001
0001
0000
0100
,  // measure 57
0000
0010
0000
0110
,  // measure 58
0000
0000
0000
1000
,  // measure 59
1000
1000
0000
0010
,  // measure 60
0010
0010
0000
0110
,  // measure 61
0000
0000
0000
0000
,  // measure 62
0000
0000
0000
0001
,  // measure 63
0001
0001
0000
0010
,  // measure 64
0010
0010
0000
1001
,  // measure 65
0000
0000
0000
0000
,  // measure 66
0000
0000
0000
0100
,  // measure 67
0100
0100
0000
0010
,  // measure 68
0010
0010
0000
1001
;

//---------------dance-single - ----------------
#NOTES:
     dance-single:
     :
     Medium:
     5:
     0.356,0.512,0.052,0.084,0.000:
1000
0000
0100
0000
,
1000
0000
0100
0000
,
0010
0000
0001
0000
,
0010
0000
0001
0000
,
0100
0000
0001
0000
,
0100
0000
0001
0000
,
1000
0000
0000
0000
0000
0010
0000
0100
,
0000
0001
0000
0010
,
0000
0000
0001
0000
0000
0000
0100
0001
,
0100
0010
0000
1000
,
0000
0100
0000
1000
,
1000
0100
0000
0010
,
0000
0000
0100
0000
0000
0000
1000
0010
,
1000
0010
0000
0100
,
0000
0001
0010
0100
,
1000
0010
0000
0100
,
0000
0000
0001
0000
0000
0000
0010
0001
,
0010
0001
0000
0100
,
0000
0001
1000
0100
,
1000
0010
0000
0100
,
0000
0000
0010
0000
0000
0000
1000
0001
,
1000
0000
0001
0000
0000
0000
0010
0100
,
0000
0100
0000
0000
0020
0000
0000
0000
,
0001
0000
0130
0000
,
0001
0010
0200
0000
,
0000
0010
0000
0310
0000
0000
0000
0000
,
0100
1000
0020
0000
,
1000
0000
0130
0000
,
0001
1000
0200
0000
,
0000
0010
0000
0310
0000
0000
0000
0000
,
0001
0100
0020
0000
,
0001
0000
1030
0000
,
0100
1000
0020
0000
,
0000
0100
0000
0130
0000
0000
0000
0000
,
0001
0010
0002
0000
,
1000
0000
0103
0000
,
0010
0100
0002
0000
,
0000
1000
0000
1003
0000
0000
0010
0000
,
0100
0000
0110
0000
1000
0100
1000
0100
,
1000
0000
0001
0100
0001
0100
0001
0000
,
1000
0010
1000
0010
1000
0000
0000
0000
,
0001
0000
0010
0000
,
0100
0000
0000
0000
0010
0001
0010
0001
,
0010
0000
0001
0100
0001
0100
0001
0000
,
1000
0010
1000
0010
1000
0000
0000
0000
,
0100
0000
1000
0000
,
0010
0000
0000
0000
0100
0010
0100
0010
,
0100
0000
0001
1000
0001
1000
0001
0000
,
0010
0100
0010
0100
0010
0000
0000
0000
,
0001
0000
0100
0000
,
0010
0000
0000
0000
0100
0001
0100
0001
,
0100
0000
0001
1000
0001
1000
0001
0000
,
1000
0100
1000
0100
1000
0000
0000
0000
,
0010
0000
0100
0010
,
0010
0010
1000
1000
,
1000
0001
0001
0001
,
0000
0010
0000
0110
,
0000
1001
0000
1000
,
1000
1000
0100
0100
,
0100
1000
1000
1000
,
0000
0010
0000
0101
,
0000
0010
0000
1000
,
1000
1000
0001
0001
,
0001
0010
0010
0010
,
0000
0000
0001
0000
0000
0000
1000
0010
,
1000
0010
0000
1000
,
1000
1000
0100
0100
,
0100
0010
0010
0010
,
0000
0000
0100
0000
0000
0000
1000
0001
,
1000
0001
0000
0101
;

//---------------dance-single - ----------------
#NOTES:
     dance-single:
     :
     Hard:
     7:
     0.488,0.548,0.147,0.283,0.000:
1000
0000
0100
0000
,
1000
0000
0100
0000
,
1000
0000
0010
0000
,
1000
0000
0010
0000
,
0100
0000
0001
0000
,
0100
0000
0001
0000
,
0010
0000
0010
0000
0000
0100
0000
0110
,
0000
0000
0010
0000
0001
0000
0100
0100
,
0000
0010
0000
0100
0000
0001
1000
0001
,
1000
0000
0100
0000
0010
0000
0100
1000
,
0000
0010
0000
0100
0000
0020
0000
0000
,
0000
0030
0000
0000
0100
0000
0001
0010
,
0000
0001
0000
1000
0000
0010
0100
0010
,
0100
0000
0001
0000
0010
0000
0100
0100
,
0000
0010
0000
0001
0000
2002
0000
0000
,
3003
0000
0000
0000
0100
0000
0010
1000
,
0000
0100
0000
0010
0000
0100
1000
0100
,
1000
0000
0100
0000
0010
0000
0100
1000
,
0000
0010
0000
0100
0000
0110
0000
0000
,
0000
0000
0000
0000
1000
0000
0001
0010
,
0000
0001
0000
0100
0000
0010
0100
0010
,
0100
0000
0001
0000
1000
0000
0100
0010
,
0000
1001
0000
0000
1020
0000
0000
0000
,
0001
0000
0100
0000
,
1030
0100
0010
0000
,
0100
1000
0000
0010
0000
0100
0010
0000
,
1000
0001
0021
0000
,
1000
0000
0001
0000
,
0130
1000
0110
0000
,
0000
1001
0000
1100
0000
0000
0000
0000
,
1000
0010
0210
0000
,
1000
0000
0001
0000
,
0310
0100
0001
0000
,
0010
0001
0000
0100
0000
0010
0100
0000
,
0001
0010
0210
0000
,
0001
0000
1000
0000
,
0310
0100
1000
0000
,
0000
1010
0000
0101
0000
0000
0000
0000
,
1000
0000
1001
0000
0100
0010
0100
0001
,
0100
0000
0001
0010
0100
0010
0001
0000
,
1000
0010
0001
0010
2000
0000
0000
0000
,
0100
0000
0010
0010
,
3200
0000
0320
0000
0031
0100
0001
0010
,
0001
0000
1000
0010
1000
0100
1000
0000
,
0010
0100
1000
0100
0002
0000
0000
0000
,
0010
0000
0100
0100
,
0023
0000
0230
0000
1300
0010
0100
0001
,
0010
0000
0001
0010
0100
1000
0010
0000
,
1000
0010
0100
0001
0020
0000
0000
0000
,
0100
0000
0001
0001
,
0230
0000
2300
0000
3001
0100
1000
0100
,
0001
0000
1000
0100
0001
0100
1000
0000
,
0001
0100
1000
0100
0002
0000
0000
0000
,
0100
0000
0000
0000
1003
0000
1000
0100
,
1000
0010
1000
0000
0001
0100
0001
0010
,
0001
0000
1000
0010
0001
0010
2000
0000
,
0000
0100
0000
0010
,
0010
0000
3200
0000
0320
0000
0031
0010
,
0100
1000
0010
0000
1000
0100
0010
0001
,
0100
0000
0001
0010
0100
1000
0020
0000
,
0000
0001
0000
0100
,
0100
0000
2030
0000
3200
0000
0310
0001
,
0100
0010
1000
0000
1000
0010
0100
0001
,
0010
0000
0010
0001
0100
0010
2000
0000
,
0000
0100
0000
0010
,
0010
0000
3200
0000
0320
0000
0031
0100
,
1000
0100
0001
0000
1000
0100
0001
0100
,
1000
0000
0001
0100
1000
0100
0002
0000
,
0000
1000
0000
0100
,
0103
0000
0001
0100
0010
1000
0100
0000
;
