#TITLE:Knights of queen;
#SUBTITLE:;
#ARTIST:Nekomata Master;
#TITLETRANSLIT:;
#SUBTITLETRANSLIT:;
#ARTISTTRANSLIT:;
#CREDIT:Grithokskulk;
#BANNER:Knights of queen.png;
#BACKGROUND:Knights of queen-bg.png;
#LYRICSPATH:;
#CDTITLE:pop'n music.png;
#MUSIC:Knights of queen.mp3;
#OFFSET:-5.655;
#SAMPLESTART:55.855;
#SAMPLELENGTH:15.000;
#SELECTABLE:YES;
#BPMS:0.000=95.000,128.000=47.500,130.000=95.000;
#STOPS:;
#BGCHANGES:;

//---------------dance-single - ----------------
#NOTES:
     dance-single:
     :
     Easy:
     2:
     0.155,0.169,0.000,0.177,0.000: // measure 1
1000
0000
0100
0000
,  // measure 2
1000
0000
0010
0000
,  // measure 3
0100
0100
0200
0300
,  // measure 4
0001
0001
0002
0003
,  // measure 5
0010
0000
0100
0000
,  // measure 6
1000
1000
2000
3000
,  // measure 7
0010
0010
0020
0030
,  // measure 8
1000
1000
2000
3000
,  // measure 9
0100
0000
0010
0000
,  // measure 10
0001
0010
0200
0300
,  // measure 11
0100
0010
0002
0003
,  // measure 12
2000
3000
0002
0003
,  // measure 13
0200
0000
0000
0300
,  // measure 14
1000
0010
0200
0300
,  // measure 15
0100
0010
2000
3000
,  // measure 16
0200
0300
0020
0030
,  // measure 17
0002
0000
0000
0003
,  // measure 18
1000
1000
1000
0000
,  // measure 19
0001
0001
0001
0000
,  // measure 20
0200
0000
0000
0300
,  // measure 21
0010
0000
0001
0000
,  // measure 22
1000
1000
1000
0000
,  // measure 23
0100
0000
1000
0000
,  // measure 24
0010
0010
0010
0000
,  // measure 25
0100
0000
0010
0000
,  // measure 26
1000
1000
1000
0000
,  // measure 27
0002
0000
0000
0000
,  // measure 28
0003
0000
0000
0000
,  // measure 29
1000
1000
1000
1000
,  // measure 30
1000
0000
0000
0000
,  // measure 31
0001
0001
0001
0001
,  // measure 32
0001
0000
1000
0000
,  // measure 33
0010
0100
0010
0010
,  // measure 34
0010
0000
1000
1000
,  // measure 35
1000
0000
0001
0000
,  // measure 36
1000
0000
0100
0100
,  // measure 37
0100
0000
0010
0010
,  // measure 38
0010
0000
0001
0001
,  // measure 39
0001
0000
1000
0000
,  // measure 40
0010
0000
0200
0000
,  // measure 41
0000
0300
1000
1000
,  // measure 42
1000
0000
0001
0001
,  // measure 43
0001
0000
0020
0030
,  // measure 44
0200
0300
1000
1000
,  // measure 45
1000
0000
0001
0001
,  // measure 46
0001
0000
0100
0100
,  // measure 47
0100
0000
0010
0000
,  // measure 48
0100
0000
0001
0001
,  // measure 49
0001
0000
1000
1000
,  // measure 50
1000
0000
0200
0300
,  // measure 51
2000
3000
0020
0000
,  // measure 52
0030
0000
0100
0100
,  // measure 53
0100
0000
0001
0001
,  // measure 54
0001
0000
2000
3000
,  // measure 55
0200
0300
0020
0000
,  // measure 56
0000
0030
0000
0000
;

//---------------dance-single - ----------------
#NOTES:
     dance-single:
     :
     Medium:
     4:
     0.235,0.225,0.007,0.211,0.000:
2000
3000
0002
0003
,
2000
0000
3000
0000
0020
0000
0030
0100
,
0001
0000
0010
0000
0200
0000
0300
0010
,
0001
0000
1000
0000
0010
0000
0010
0100
,
0001
1000
0100
0100
,
0010
0010
0200
0300
,
1000
0000
0010
0000
0200
0000
0300
0010
,
0100
0001
0020
0030
,
0001
0010
0100
1000
,
0010
0000
0100
0001
2000
0000
3000
0000
,
0100
0000
1000
0010
0100
0000
0020
0000
,
0030
0000
0100
0000
0100
0000
0001
0010
,
0002
0000
0000
0003
,
1000
0000
0100
1000
0200
0000
0300
0000
,
0010
0000
0001
0100
0002
0000
0003
0000
,
1000
0000
0100
1000
0100
0000
0010
0001
,
0020
0000
0000
0030
,
1000
0100
0010
0001
,
1000
0100
0010
0001
,
0200
0000
0000
0300
,
0001
0000
0000
0001
0100
0000
0000
0100
,
0010
1000
0100
1001
,
1000
0000
0000
1000
0010
0000
0000
0010
,
0100
0001
0010
0010
,
0200
0300
0020
0030
,
0001
1000
0001
0000
1000
0000
0010
0000
,
0200
0000
0310
1000
,
0200
0000
0000
0300
,
0010
0001
0100
0010
,
0200
0000
0000
0300
,
0010
1000
0100
0010
,
0200
0000
0000
0000
0320
0000
0000
0030
,
0002
0000
2000
3003
0010
0000
1000
0000
,
0100
0000
0000
0100
1000
0000
0010
0000
,
0100
0000
0100
0010
0100
0000
0001
0000
,
0010
0000
0100
0000
0010
0000
0010
0001
,
0010
0000
0000
0100
1000
0000
0010
0000
,
0100
0000
0000
0001
1000
0000
0010
0000
,
0100
0000
0100
0010
0100
0000
0100
0000
,
0001
0010
0200
0000
,
0300
0000
0000
1000
0001
0000
1000
0000
,
0020
0000
0030
1000
0010
0000
0100
0000
,
0001
0000
1000
0001
1000
0000
1000
0000
,
0001
0000
0001
0000
0010
0000
0010
0100
,
2000
3000
1000
0010
,
0200
0000
0300
0001
0100
0000
0010
0000
,
1000
0000
1000
0100
1000
0000
0010
0000
,
0100
0000
0010
0000
1000
0000
0100
0010
,
0200
0000
0300
0000
1000
0000
0001
0100
,
0001
0000
0010
0000
0000
0100
1000
0000
,
0010
0100
0010
0000
0200
0000
0300
0000
,
0010
1000
0010
0000
1000
0000
0100
0010
,
0100
0000
0010
0000
0001
0000
0100
0001
,
0100
0000
0010
0000
0000
0010
1000
0000
,
0100
0010
0100
0000
2000
0000
3000
0000
,
0001
0001
0001
0000
0000
0000
0000
0000
;

//---------------dance-single - ----------------
#NOTES:
     dance-single:
     :
     Challenge:
     8:
     0.593,0.545,0.727,0.184,0.282:
1000
0000
0100
1000
0100
0000
1000
0000
0010
0000
0100
0000
0001
0000
0001
0000
,
0010
0000
0001
1000
0001
0000
1000
0000
0100
0000
0100
0000
0010
0000
0100
0000
,
1000
0000
0000
0000
0010
0000
0100
0010
0100
0000
0001
0000
0100
0000
0000
0000
,
0020
0000
0000
0000
1030
0000
0100
1000
0100
0000
0010
0000
0001
0000
0100
0000
,
0002
0000
0000
0000
1003
0000
0100
1000
0100
0000
1000
0000
0010
0000
0100
0000
,
0010
0000
0010
0100
0001
0000
0101
1010
,
2000
0000
0000
0000
3100
0000
1000
0100
1000
0000
0010
0000
0100
0000
0100
0000
,
0002
0000
0000
0000
0013
0000
0001
0010
0001
0000
0100
0000
0010
0000
0010
0000
,
2000
0000
3200
0000
0310
0010
0010
0010
,
0011
0000
0000
0000
0001
0000
0100
0010
1000
0000
0100
0000
1100
0000
0011
0000
,
1001
0000
0000
0000
1000
0000
0010
0100
0010
0000
1000
0100
0010
0000
0001
0000
,
1000
1000
0100
0100
0010
0100
0010
0001
,
0100
0000
0000
0000
0001
0000
1000
0100
0010
0000
0100
0000
1000
0000
0010
0100
,
0001
0000
0000
0000
1001
0000
1000
0100
0010
0100
1000
0000
1010
0000
0101
0000
,
1000
0000
0000
0000
0100
0000
1000
0010
0100
0010
1000
0000
1010
0000
0101
0000
,
0001
0010
0100
1000
1000
0100
0010
0001
,
0100
0000
0000
0100
0010
0000
0000
0000
1010
0000
0101
0000
1001
0000
0000
0000
,
2000
0000
0200
3000
0020
0300
0002
0030
,
0200
0003
0020
0300
2000
0030
0200
3000
,
0020
0000
0330
0000
0010
0000
0011
1100
,
1000
0000
0000
0000
1010
0000
1000
0010
0100
0001
0010
0000
0011
0000
1001
0000
,
0101
0000
0000
0000
0010
0000
1000
0100
0010
0100
1000
0000
1010
0000
1001
0000
,
0011
0000
0000
0000
0001
0000
0100
0010
0100
0001
0010
0000
0011
0000
1100
0000
,
1001
0000
0000
0000
0001
0000
0100
0010
1000
0100
0010
0000
0011
0000
1100
0000
,
1001
0000
0000
0000
0100
0000
0010
1000
0010
0001
0010
0000
0110
0000
1001
0000
,
1100
0000
0000
0000
1000
0000
0100
0001
0100
1000
0010
0000
0110
0000
0101
0000
,
0011
0000
0001
0000
0101
0000
0001
0100
0010
0100
0010
0000
1010
0000
1100
0000
,
0011
0000
0001
0000
0101
0000
0001
1000
0010
0100
0010
1000
0100
0000
0010
0100
,
2000
0100
3200
0010
0320
0001
0032
0100
,
0203
1000
0001
0010
0001
0001
1000
1000
,
0320
1000
2030
0100
3200
0010
0320
0001
,
0032
0100
1000
0010
0203
0010
1000
0010
,
0302
0000
0000
0000
1003
0000
1001
1001
1100
0000
0000
0000
0011
0000
0001
0100
,
0010
1000
0100
0000
1100
0000
0011
0000
0101
0000
0000
0000
0110
0000
0010
1000
,
0100
0010
0001
0000
1001
0000
0110
0000
0101
0000
0000
0000
1001
0000
1000
0100
,
0001
0100
1000
0000
1100
0000
0011
0000
0101
0000
0000
0000
0110
0000
0010
1000
,
0100
0010
0100
0000
1100
0000
0011
0000
0101
0000
0000
0000
0110
0000
0010
1000
,
0100
0010
0100
0000
1100
0000
1010
0000
0110
0000
0000
0000
1010
0000
0001
0010
,
1000
0010
0001
0000
0011
0000
1100
0000
1010
0000
0100
0000
0110
0000
0010
1000
,
0010
0001
0010
0000
0110
0000
1000
0000
1100
0000
0100
0000
1100
0000
0100
0000
,
1100
0000
0100
0000
1100
0000
0101
0000
1100
0000
1000
0000
1010
0000
0010
0100
,
0001
0010
0001
0000
0101
0000
0110
0000
1010
0000
1000
0000
1001
0000
0001
0010
,
1000
0010
0001
0000
0101
0000
0110
0000
1010
0000
1000
0000
1100
0000
1000
0100
,
0001
0100
1000
0000
1010
0000
0101
0000
0011
0000
0010
0000
0110
0000
0100
1000
,
0010
0100
0010
0000
1010
0000
1100
0000
0110
0000
0010
0000
0011
0000
0001
0100
,
1000
0100
0010
0000
0110
0000
1010
0000
1100
0000
1000
0000
1010
0000
0010
0100
,
0010
0100
0001
0000
0101
0000
0011
0000
0110
0000
0100
0000
1100
0000
1000
0010
,
0100
0010
1000
0000
1000
0100
0010
0100
1000
0000
0000
1000
0010
0000
0100
0000
,
0010
1000
0100
0010
0100
0000
1000
0010
0100
0000
0000
0100
0001
0000
0010
0001
,
0100
0010
1000
0000
0100
0000
1000
0100
0010
0000
0100
0000
1000
0000
0010
0000
,
0100
0000
0001
0000
0010
0000
0100
0000
1000
0000
0000
1000
0001
0000
0100
0000
,
0101
0000
0110
0000
1010
0000
1100
0000
1000
0000
0000
1000
0100
0000
0100
0001
,
0100
1000
0010
0000
0100
0000
0010
0000
1000
0000
0000
1000
0010
0000
0010
0100
,
0001
0010
0001
0000
0100
0000
0010
1000
0100
0000
0001
0000
0100
0000
1000
0000
,
0010
0000
0001
0000
0010
0000
1000
0000
0100
0000
0000
0100
1000
0000
0010
0000
,
1010
0110
1001
0000
0000
0000
0000
0000
;

//---------------dance-single - ----------------
#NOTES:
     dance-single:
     :
     Hard:
     6:
     0.410,0.357,0.034,0.551,0.068:
2000
0000
0000
0000
3002
0000
0100
0100
,
0203
0000
0000
0000
0320
0000
1000
1000
,
0230
0000
0320
0000
0032
0000
0100
0100
,
0203
0000
0320
0000
2030
0000
3100
0010
,
0002
0000
0203
0000
0320
0000
1000
1000
,
2030
0000
0000
0001
3002
0000
0100
0100
,
0203
0000
0320
0000
2030
0000
0100
0100
,
3200
0000
0320
0000
0032
0000
0100
0100
,
0203
0000
0320
0000
2030
0000
3001
0010
,
0200
0000
1300
0010
0200
0000
0302
0000
,
2003
0000
3100
1000
0010
0100
0001
0010
,
0000
0010
0001
0100
0010
1000
0100
0010
,
0200
0000
1000
0000
0310
0001
0100
0010
,
1000
0000
0001
0100
0002
0000
2003
0000
,
3200
0000
1300
0010
0100
0010
1000
0001
,
0000
0010
0001
0100
0010
1000
0100
1000
,
0020
0000
0100
0000
1030
0001
1001
0000
,
2000
3200
0320
0032
,
2003
3200
0320
0032
,
0203
0000
0000
0000
0000
0000
0010
0010
,
0320
0000
1030
0100
2000
0000
3001
0100
,
0001
0010
0100
1000
0020
0000
0100
0100
,
0230
0000
0301
0010
0002
0000
1003
0001
,
1000
0010
0100
0010
2000
0000
3002
0000
,
0023
0000
0130
1000
0200
0000
1300
0010
,
0100
0001
0010
1000
0020
0000
0032
0000
,
0203
0000
1000
0000
0301
0100
0010
1000
,
0200
0000
0001
0000
1300
0010
0110
0000
,
0020
2030
3200
0320
,
0230
1000
0001
0310
,
0200
0320
0032
0203
,
2300
3100
0200
0310
,
0020
0000
0000
0000
0130
0000
0010
0010
2000
0000
0000
0000
3200
0000
0000
0000
,
1300
0010
0100
0100
0002
0000
0023
0000
,
0130
0010
0001
0001
0200
0000
0320
0000
,
1030
0000
0100
0000
0001
0000
0100
0000
0010
0000
0000
0010
0001
0000
0100
0000
,
0010
0000
0000
0010
1000
0000
0100
0000
2000
0000
0000
0000
3020
0000
0000
0000
,
0130
0001
0010
0010
0002
0000
0203
0000
,
0310
0000
1000
0000
0100
0000
0100
0000
1000
0000
0000
1000
0010
0000
0000
0010
,
0100
0000
0000
0100
0001
0000
0000
0001
0010
0000
0001
0000
0010
0000
0001
0000
,
0010
0000
0001
0000
0011
0000
1100
0000
1000
0000
0000
1000
0010
0000
0100
0000
,
0010
0000
1000
0000
0100
0000
0100
0000
0010
0000
0000
0010
0001
0000
0100
0000
,
0010
0000
1000
0000
0100
0000
0100
0000
0010
0000
0000
0010
0001
0000
0100
0000
,
0010
0000
0000
0010
0100
0000
0001
0000
0010
0000
0001
0000
0010
0000
0001
0000
,
1000
0000
0010
0000
1000
0000
0010
0000
1000
0000
0000
1000
0100
0000
1000
0000
,
0001
0000
0100
0000
0010
0000
0010
0000
0100
0000
0000
0100
0001
0000
0010
0000
,
0001
0000
1000
0000
0100
0000
0100
0000
0010
0000
0000
0010
0001
0000
0000
0001
,
0100
0000
0000
0100
0010
0000
0010
0000
1000
0000
0000
1000
0100
0000
0010
0000
,
0200
0000
0000
0000
2300
0000
0000
0000
3010
0000
0000
0010
0100
0000
0010
0000
,
0100
0001
1000
0100
0000
0100
1000
0010
,
0100
0100
0001
0001
0020
0000
1000
0000
,
0031
0000
0010
0000
0100
0000
1000
0000
0010
0000
0000
0010
0100
0000
0010
0000
,
1000
0000
0100
0000
0010
0000
0010
0000
0100
0000
0000
0100
1000
0000
0010
0000
,
0100
0001
1000
0100
0000
0100
1000
0010
,
0100
0100
0001
0001
2000
0000
3100
0000
,
0001
1000
1001
0000
0000
0000
0000
0000
;
