#TITLE:Knell;
#SUBTITLE:;
#ARTIST:Project B-;
#TITLETRANSLIT:;
#SUBTITLETRANSLIT:;
#ARTISTTRANSLIT:;
#CREDIT:Grithokskulk;
#BANNER:Knell.png;
#BACKGROUND:Knell-bg.png;
#LYRICSPATH:;
#CDTITLE:REFLEC BEAT.png;
#MUSIC:Knell.mp3;
#OFFSET:-2.257;
#SAMPLESTART:76.775;
#SAMPLELENGTH:15.000;
#SELECTABLE:YES;
#BPMS:0.000=205.000,205.000=102.500,229.000=205.000;
#STOPS:205.000=0.600
;
#BGCHANGES:;

//---------------dance-single - ----------------
#NOTES:
     dance-single:
     :
     Easy:
     4:
     0.203,0.259,0.057,0.086,0.000: // measure 1
1000
0000
0000
1000
0000
0000
0000
0000
,  // measure 2
0000
0000
0000
0000
,  // measure 3
0000
0000
0002
0000
0000
0003
0000
0100
,  // measure 4
0000
0100
0000
0010
,  // measure 5
0000
0000
0100
0000
,  // measure 6
0000
0000
0001
0000
,  // measure 7
0001
0000
0000
0010
,  // measure 8
0000
0000
0100
0000
,  // measure 9
0000
0010
0000
0000
,  // measure 10
0001
0000
0000
0001
0000
0000
0001
0000
,  // measure 11
0000
0000
0000
0000
0100
0000
0000
0100
,  // measure 12
0000
0100
0000
0000
,  // measure 13
0010
0000
0000
0010
0000
0000
0010
0000
,  // measure 14
0000
0000
0000
0000
0100
0000
0000
0100
,  // measure 15
0000
0100
0000
0000
,  // measure 16
0001
0000
0000
0001
0000
0000
0001
0000
,  // measure 17
0000
0000
0000
0000
0010
0000
0000
0010
,  // measure 18
0000
0100
0000
0000
,  // measure 19
0010
0000
0000
0010
0000
0000
0010
0000
,  // measure 20
0000
0000
0000
0000
0001
0000
0000
0001
,  // measure 21
0000
0000
1000
0000
0000
1000
0000
0000
,  // measure 22
0010
0000
0000
0100
,  // measure 23
0000
0000
0010
0000
,  // measure 24
0000
1000
0000
0000
,  // measure 25
0100
0000
0000
0100
0000
0000
0000
0000
,  // measure 26
0000
0000
0000
0000
0010
0000
0000
0010
,  // measure 27
0000
0001
0000
0000
,  // measure 28
0001
0000
0000
0001
0000
0000
0000
0000
,  // measure 29
0000
0000
0000
0000
1000
0000
0000
1000
,  // measure 30
0000
0000
0010
0000
0000
0010
0000
0000
,  // measure 31
0100
0000
0000
0100
0000
0000
0100
0000
,  // measure 32
0000
0000
0010
0000
0000
0010
0000
0000
,  // measure 33
0010
0000
0001
0000
,  // measure 34
0000
0100
0000
0000
,  // measure 35
0010
0000
0000
0100
,  // measure 36
0000
0000
0000
0000
0001
0000
0000
0001
,  // measure 37
0000
0000
0000
0000
,  // measure 38
0000
0000
0000
0000
,  // measure 39
0000
0000
0000
0000
1000
0000
0000
1000
,  // measure 40
0000
0000
0000
0000
,  // measure 41
0000
0000
0000
0000
,  // measure 42
0000
0000
0000
0000
0010
0000
0000
0010
,  // measure 43
0000
0000
0000
0000
,  // measure 44
0000
0000
0000
0000
,  // measure 45
0000
0000
0000
0000
1000
0000
0000
1000
,  // measure 46
0000
0000
0000
0000
,  // measure 47
0100
0000
0000
0100
0000
0000
0100
0000
,  // measure 48
0000
0000
0000
0000
1000
0000
0000
1000
,  // measure 49
0000
1000
0000
0000
,  // measure 50
2002
0000
0000
3003
0000
0000
0220
0000
,  // measure 51
0000
0330
0000
0000
2002
0000
0000
3003
,  // measure 52
0000
0000
0010
0100
0000
0000
0100
0000
,  // measure 53
0000
0010
0000
0000
0010
0000
0000
0001
,  // measure 54
0000
0000
0001
0000
0000
0100
0000
0000
,  // measure 55
0100
0000
0000
0010
0000
0000
0010
0000
,  // measure 56
0000
0100
0000
0000
0100
0000
0000
0001
,  // measure 57
0000
0000
0001
0000
0000
1000
0000
0000
,  // measure 58
1001
0000
0001
0000
,  // measure 59
0000
0100
0000
0000
,  // measure 60
0010
0000
0000
0100
,  // measure 61
0000
0000
0001
0000
,  // measure 62
0000
0010
0000
0000
,  // measure 63
0001
0000
0000
0100
,  // measure 64
0000
0000
0001
0000
,  // measure 65
0000
1000
0000
1000
,  // measure 66
0100
0000
0000
0100
,  // measure 67
0000
0100
0010
0000
,  // measure 68
0010
0001
0000
0001
,  // measure 69
0100
0000
0100
0010
,  // measure 70
0000
0010
1000
0000
,  // measure 71
0000
2002
0000
3003
,  // measure 72
1000
0000
0000
1000
0000
0000
1000
0000
,  // measure 73
0000
0000
0000
0000
0001
0000
0000
0001
,  // measure 74
0000
0001
0000
0000
,  // measure 75
0010
0000
0000
0010
0000
0000
0010
0000
,  // measure 76
0000
0000
0000
0000
0100
0000
0000
0100
,  // measure 77
0000
0100
0000
0000
,  // measure 78
1000
0000
0000
1001
0000
0000
0000
0000
;

//---------------dance-single - ----------------
#NOTES:
     dance-single:
     :
     Medium:
     6:
     0.482,0.517,0.353,0.382,0.000:
0210
0000
0000
0010
0000
0000
0000
0000
,
0000
0000
0300
0000
,
0001
0000
1000
0000
,
0210
0000
0000
0310
0000
0000
0200
0000
,
0000
0000
0020
0000
,
0000
0330
1000
2100
,
0000
0000
0000
3001
,
0000
0000
0102
0000
,
0000
1003
0000
0000
,
0100
0000
0000
1000
0000
0000
0010
0000
,
0000
0100
0010
0100
0001
0000
0000
0010
,
0000
0000
0001
0000
0000
0100
0010
0100
,
0010
0000
0000
1000
0000
0000
0001
0000
,
0000
0010
0100
0010
0100
0000
0000
0010
,
0000
0000
0001
0000
0000
0100
0001
0100
,
0002
0000
0000
1003
0000
0000
0100
0000
,
1000
0000
0100
0000
0020
0000
0000
0130
,
0000
1000
1000
1000
,
0020
0000
0000
0130
0000
0000
0001
0000
,
0010
0000
0001
0000
0200
0000
0000
0302
,
0000
0000
2003
0000
0000
3200
0000
0000
,
0320
0000
0000
0031
0000
0000
0100
0000
,
0010
0000
0010
0000
0002
0000
0000
0103
,
0000
0010
1000
1000
,
0200
0000
0000
0310
0000
0000
0100
0000
,
1000
0000
0010
0000
0200
0000
0000
0310
,
0000
0100
0100
0100
,
0002
0000
0000
1003
0000
0000
0100
0000
,
0010
0000
0100
0000
1100
0000
0000
0011
,
0000
0000
0101
0000
0000
1010
0000
0000
,
1001
0000
0000
0110
0000
0000
0022
0000
,
0033
0000
1001
0000
0000
1010
0000
0000
,
0220
0330
2001
0001
,
0001
3002
1000
1000
,
0203
0010
0010
0320
,
0100
0130
1000
0100
,
0010
0100
1000
0010
,
0100
0100
0010
0010
,
1000
0000
0001
0000
0011
0000
0000
1100
,
0000
1000
0010
0100
,
0001
0001
0010
0100
,
0010
0000
0100
0000
1100
0000
0000
0011
,
0000
0001
1000
0010
,
0100
0100
0010
0010
,
1000
0000
0100
0000
0110
0000
0000
1100
,
0000
1000
0001
0001
,
1001
0000
0000
0110
0000
0000
0101
0000
,
0000
0011
0000
0000
1100
0000
0000
1010
,
0000
0000
0101
0000
0000
1001
0000
0000
,
0220
0000
0000
0330
0000
0000
2002
0000
,
0000
3003
0000
0000
0220
0000
0000
0330
,
0000
0000
1001
0100
0010
0010
0100
0000
,
0000
1000
0001
0001
1000
0000
0000
0010
,
0100
0100
0010
0000
0000
1000
0100
0010
,
0001
1000
0100
0010
0100
0100
0010
0000
,
0000
0001
1000
1000
0001
0000
0000
0100
,
0001
0001
1000
0100
0100
0010
0100
0100
,
0110
0000
1000
0100
,
0100
2000
3020
0130
,
0001
0010
0010
0002
,
0203
0310
0100
0001
,
0001
0200
0320
0130
,
0001
1000
0001
0000
1000
0000
0100
0010
,
0100
1000
0010
0100
,
0100
0000
0010
0100
0010
0000
1000
0000
,
0100
0000
0010
0000
0010
0000
0100
0010
,
0100
1000
0010
0100
,
0100
0001
0010
0010
,
0001
1000
0100
0010
,
0100
1000
1010
0010
,
0020
0200
0300
0030
,
0100
0000
0100
0010
0000
0010
1000
0000
,
1000
0100
0000
0000
0010
0000
0010
0100
,
0000
0100
1000
0000
1000
0010
0000
0000
,
0010
0000
0010
0100
0000
0100
0001
0000
,
0001
0010
0000
0000
0001
0000
0001
1000
,
0000
1000
0100
0000
0100
0010
0000
0000
,
0110
0000
0000
1001
0000
0000
0000
0000
;

//---------------dance-single - ----------------
#NOTES:
     dance-single:
     :
     Hard:
     9:
     0.682,0.776,0.363,0.382,0.086:
2100
0000
0000
0002
0000
0000
0000
0000
,
0000
0000
0000
0000
0000
3003
0000
0000
,
0200
0000
0000
0000
0000
0310
0000
0000
,
0110
0000
0000
1001
0000
0000
0200
0000
,
0000
0000
0020
0000
,
0000
0000
0330
0000
0000
1000
0000
0000
,
2002
0000
0000
0003
0000
0000
0200
0000
,
0000
3000
0000
0000
0020
0000
0000
0300
,
0000
0000
0200
0000
0000
0330
0000
0000
,
0100
0000
0100
1000
0000
1000
0010
0000
,
0010
0100
0010
0100
0001
0000
0001
0010
,
0000
0010
0001
0000
0001
0100
0010
0100
,
0001
0000
0001
1000
0000
1000
0100
0000
,
0100
0010
0100
0010
0100
0000
0100
1000
,
0000
1000
0010
0000
0010
0100
0001
0100
,
0001
0010
0100
0010
0000
0010
0001
0000
,
0100
0000
0010
0000
0100
0001
0100
0010
,
0000
0010
2000
0000
0100
0000
3010
0000
,
0001
0100
1000
0100
0000
0100
0020
0000
,
1000
0000
0130
0000
0101
0000
0000
1100
,
0000
0000
0011
0000
0000
1010
0000
0000
,
0001
0010
0001
0000
0101
0000
0010
0100
,
0010
0000
0110
0000
1000
0001
1000
0000
,
1001
0000
0001
0010
0001
0000
1100
0000
,
1000
0010
0100
0010
0000
0010
1000
0000
,
0100
0000
0010
0100
1000
0010
0100
0001
,
0000
0010
0002
0000
1000
0000
0100
0000
,
0013
0100
1000
0010
0000
0100
0010
1000
,
0100
0001
0100
0000
1100
0000
0000
0011
,
0000
0000
0101
0000
0000
1010
0000
0000
,
2100
0000
0000
3002
0000
0000
0023
0000
,
0000
0030
0200
0000
0000
0320
0000
0000
,
0002
0000
0033
0000
1000
0010
1000
0010
,
1000
0000
0001
0010
0001
0010
0001
0000
,
0010
0100
0010
0100
0010
0000
0001
1000
,
0001
1000
0001
0000
0100
0010
0010
0100
,
0000
0001
0010
0000
0100
0000
0010
0000
,
0001
0100
0001
1000
0100
1000
0001
0010
,
0001
1000
0010
1000
0010
0100
0100
0010
,
0000
0100
0002
0000
0010
0000
0103
0000
,
1000
0000
0000
0000
0100
0000
0000
0000
1000
0000
0000
0000
0001
0000
0000
0000
0100
0000
0000
0000
0001
0000
0000
0000
1000
0000
0000
0100
0000
0000
0010
0000
,
0000
0001
0000
0000
0100
0000
0000
0010
0000
0000
1000
0000
0000
0100
0000
0000
0010
0000
0000
0000
0100
0000
0000
0000
0100
0000
0000
0000
0010
0000
0000
0000
,
0000
0001
0100
1000
0100
0010
0000
1000
,
0100
0000
0010
0100
0000
1000
0010
1000
,
0001
0010
0001
0100
0001
1000
1000
0001
,
0000
0100
0010
0100
0001
0010
0100
1000
,
1001
0000
0000
0101
0000
0000
1001
0000
,
0000
1100
0000
0000
0110
0000
0000
0011
,
0000
0000
1001
0000
0000
1010
0000
0000
,
0210
0000
0000
0300
0010
0100
0002
0000
,
0000
0003
1000
0100
0020
0000
0000
0030
,
0100
0010
0001
0200
0010
0310
0200
0001
,
0301
0200
1000
1300
0200
0010
0310
0200
,
0001
0301
0200
0010
0310
0100
0001
0010
,
0100
1000
0100
0020
0001
0031
0020
0100
,
0130
0020
1000
1030
0020
0001
0031
0020
,
1000
1030
0020
0001
0031
0010
0100
0010
,
0001
1001
1000
0010
1000
0000
0010
0100
,
0010
1000
1010
0000
0101
0000
0010
0001
,
0010
0000
0001
0010
0100
1000
1100
0000
,
1010
0000
1000
0010
1000
0000
0010
0100
,
0001
0010
0011
0000
0101
0000
0001
0100
,
0010
0010
0100
0100
0001
0001
0010
0010
,
0100
0000
1000
0100
0020
0000
0130
1000
,
0010
0100
0001
0010
1000
0000
0010
0001
,
0200
0000
0310
0100
1000
0100
0001
0010
,
0100
0000
1000
0010
0100
0000
0001
0010
,
0100
0000
0110
0000
0010
0001
0100
0000
,
0100
0010
0100
1000
0100
0000
0110
0000
,
1001
0000
1001
0000
1000
0100
0010
0001
,
0100
0010
1000
0000
0202
0000
0000
0303
,
1000
0000
0000
1000
0100
0000
0100
0000
0000
0100
1000
0000
1000
0000
0000
1000
,
0010
0000
0100
0000
0010
0000
0100
0000
0001
0000
0000
0001
0010
0000
0010
0000
,
0000
0010
0100
0000
0100
0000
0000
0100
0010
0000
0001
0000
0100
0000
0010
0000
,
1000
0000
0000
1000
0001
0000
0001
0000
0000
0001
1000
0000
1000
0000
0000
1000
,
0010
0000
0001
0000
0010
0000
1000
0000
0100
0000
0000
0100
0010
0000
0010
0000
,
0000
0010
0100
0000
0100
0000
0000
0100
1000
0000
0100
0000
0001
0000
0100
0000
,
2000
0000
0000
3001
0000
0000
0000
0000
;
