#TITLE:Kishinjou set 14;
#SUBTITLE:Primordial Beat;
#ARTIST:Kuroneko Lounge;
#TITLETRANSLIT:;
#SUBTITLETRANSLIT:;
#ARTISTTRANSLIT:;
#CREDIT:Grithokskulk;
#BANNER:Kishinjou set 14 Primordial Beat.png;
#BACKGROUND:Kishinjou set 14 Primordial Beat-bg.png;
#LYRICSPATH:;
#CDTITLE:grithokskulk.png;
#MUSIC:Kishinjou set 14 Primordial Beat.mp3;
#OFFSET:-8.144;
#SAMPLESTART:38.075;
#SAMPLELENGTH:15.000;
#SELECTABLE:YES;
#BPMS:0.000=128.000;
#STOPS:;
#BGCHANGES:;

//---------------dance-single - ----------------
#NOTES:
     dance-single:
     :
     Easy:
     2:
     0.140,0.182,0.000,0.104,0.000: // measure 1
0000
0001
1000
0000
,  // measure 2
0000
0010
0100
0000
,  // measure 3
0000
1000
0100
0000
,  // measure 4
0000
0001
0010
0000
,  // measure 5
0000
1000
0001
0000
,  // measure 6
0000
0100
0010
0000
,  // measure 7
0000
1000
0010
0000
,  // measure 8
0000
0001
0010
0000
,  // measure 9
0000
0100
0010
0000
,  // measure 10
0000
0001
1000
0000
,  // measure 11
0000
0010
1000
0000
,  // measure 12
0000
0100
0010
0000
,  // measure 13
0100
0000
0010
0000
,  // measure 14
0001
0000
0100
0000
,  // measure 15
0010
0000
0100
0000
,  // measure 16
0001
0000
1000
0000
,  // measure 17
0001
0000
0010
0000
,  // measure 18
0001
0000
0100
0000
,  // measure 19
0010
0000
0100
0000
,  // measure 20
0001
0000
1000
0000
,  // measure 21
0100
0100
0000
0000
,  // measure 22
0010
0010
0000
0000
,  // measure 23
0001
0001
0000
0000
,  // measure 24
0100
0100
0000
0000
,  // measure 25
0010
0010
0000
0010
,  // measure 26
1000
1000
0000
1000
,  // measure 27
0001
0001
0000
0001
,  // measure 28
0020
0030
0200
0300
,  // measure 29
2000
0000
0000
3000
,  // measure 30
0002
0000
0000
0003
,  // measure 31
0200
0000
0000
0300
,  // measure 32
0020
0000
0000
0030
,  // measure 33
2000
0000
0000
3000
,  // measure 34
0200
0000
0000
0300
,  // measure 35
2000
0000
0000
3000
,  // measure 36
0020
0000
0000
0030
,  // measure 37
0100
0010
0000
0000
,  // measure 38
1000
0001
0000
0000
,  // measure 39
0010
0001
0000
0000
,  // measure 40
0100
0010
0000
0000
,  // measure 41
1000
0100
0000
0000
,  // measure 42
0010
0001
0000
0000
,  // measure 43
0100
0001
0000
0000
,  // measure 44
1000
0100
0000
0010
;

//---------------dance-single - ----------------
#NOTES:
     dance-single:
     :
     Medium:
     4:
     0.276,0.251,0.010,0.209,0.000:
1000
0000
0000
1000
0010
0000
0000
0010
,
0100
0000
0000
0100
0001
0000
0000
0001
,
0010
0000
0000
0010
0100
0000
0000
0100
,
0010
0000
0000
0010
0001
0000
0000
0001
,
0100
0000
0000
0100
0001
0000
0000
0001
,
1000
0000
0000
1000
0100
0000
0000
0100
,
1000
0000
0000
1000
0010
0000
0000
0010
,
0100
0000
0000
0100
0001
0000
0000
0001
,
1000
0000
0000
1000
0100
0000
0000
0100
,
1000
0000
0000
1000
0010
0000
0000
0010
,
0100
0000
0000
0100
0001
0000
0000
0001
,
0010
0100
1000
1001
,
2000
0000
3020
0000
,
0230
0000
0302
0000
,
2003
0000
3200
0000
,
2300
0000
3002
0000
,
0203
0000
0320
0000
,
2030
0000
3200
0000
,
2300
0000
3200
0000
,
2300
0000
3002
0000
,
0103
0010
1000
0100
,
0010
0100
0010
0001
,
0100
0010
0100
0001
,
1000
0000
0100
0000
0010
0000
0100
1000
,
0100
1000
0010
0100
,
0001
0010
0001
0100
,
0010
1000
0100
1000
,
0001
0000
0100
0000
0010
0000
1000
0010
,
1000
0000
1000
0000
0100
0100
0100
0000
,
0010
0000
0001
0000
0100
0100
0100
0000
,
0010
0000
0100
0000
0001
0001
0001
0000
,
2000
3000
0002
0003
,
0100
0000
0010
0000
1000
1000
1000
0000
,
0100
0000
1000
0000
0001
0001
0001
0000
,
0100
0000
0010
0000
0100
0100
0100
0000
,
0002
0003
2000
3000
,
0100
0000
0000
0100
1000
0000
0000
1000
,
0010
0000
0000
0010
0100
0000
0000
0100
,
0001
0000
0000
0001
1000
0000
0000
1000
,
0100
0000
0000
0100
1000
0000
0000
1000
,
0010
0000
0000
0010
0100
0000
0000
0100
,
0001
0000
0000
0001
0010
0000
0000
0010
,
0100
0000
0000
0100
0010
0000
0000
0010
,
0001
1000
0010
0100
;

//---------------dance-single - ----------------
#NOTES:
     dance-single:
     :
     Hard:
     8:
     0.507,0.435,0.396,0.250,0.167:
1000
0000
0000
0000
1100
0000
0000
0100
0010
0000
0001
0000
0100
0000
0000
0000
,
0010
0000
0000
0000
0110
0000
0000
0010
0100
0000
0010
0000
1000
0000
0000
0000
,
0100
0000
0000
0000
1100
0000
0000
1000
0100
0000
0010
0000
0100
0000
0000
0000
,
0010
0000
0000
0000
0011
0000
0000
0001
0100
0000
1000
0000
0100
0000
0000
0000
,
0010
0000
0000
0000
1010
0000
0000
0010
1000
0000
0100
0000
0010
0000
0100
0000
,
1000
0000
0000
0000
1001
0000
0000
1000
0001
0000
0010
0000
0001
0000
0100
0000
,
0010
0000
0000
0000
0110
0000
0000
0010
1000
0000
0100
0000
0010
0000
0100
0000
,
1000
0000
0000
0000
1100
0000
0000
1000
0100
0000
0010
0000
0001
0000
0100
0000
,
0010
0000
0000
0000
0110
0000
0000
0010
0100
0000
0001
0000
0010
0000
0001
0000
,
0100
0000
0000
0000
0110
0000
0000
0010
1000
0000
0100
0000
0001
0000
0100
0000
,
1000
0000
0000
0000
1100
0000
0000
1000
0010
0000
0001
0000
0010
0000
1000
0000
,
0100
0000
0000
0000
1100
0000
0000
1000
0100
0000
0010
0000
0001
0000
0100
0000
,
0220
0330
2020
3030
,
2200
3300
0022
0033
,
0202
0303
0220
0330
,
2020
3030
2200
3300
,
2001
3100
1002
0013
,
0201
0310
2010
3100
,
0021
1030
0012
0103
,
1000
0100
0010
0100
1000
0010
0100
0100
,
0001
0100
0010
0100
0001
0010
0100
0100
,
0010
0001
0100
0100
1000
0100
0010
0000
,
0010
1000
0001
0001
0010
0001
0100
0100
,
0010
0000
1000
0000
0100
0000
0100
0000
1000
0000
0000
1000
0010
0000
0100
0000
,
0010
1000
0001
0001
0010
0001
1000
1000
,
0010
1000
0100
0100
1000
0010
0100
0000
,
0001
0010
0001
0001
1000
0100
0001
0001
,
1100
0000
0000
0000
0010
0000
0110
0000
0000
0000
1000
0001
1001
0000
0000
0000
,
1000
0000
0000
0000
1100
0000
0000
1000
0100
0000
0001
0000
0100
0000
1000
0000
,
0010
0000
0010
0000
0100
0000
0000
0010
0100
0000
0100
0000
0001
0000
0001
0000
,
1000
0000
0000
0000
1100
0000
0000
0100
1000
0000
0010
0000
0100
0000
0000
0000
,
0001
0000
0001
0000
0010
0000
0000
0010
0001
0000
0001
0000
0100
0000
0000
0000
,
0100
0000
0010
0000
1000
0000
0000
1000
0100
0000
1000
0000
0100
0000
0000
0100
,
0001
0000
0100
0000
1000
0000
0000
1000
0010
0000
0010
0000
0100
0000
0100
0000
,
0001
0000
1000
0000
0010
0000
0100
0000
0001
0000
1000
0000
0100
0010
0100
0010
,
0100
0000
2000
0100
3000
0002
0100
0003
,
1001
0000
0000
0000
1000
0000
0000
1000
0010
0000
0100
0000
0010
0000
0000
0000
,
0100
0000
0000
0000
0101
0000
0000
0001
0010
0000
0001
0000
0100
0000
0000
0000
,
0010
0000
0000
0000
1010
0000
0000
1000
0100
0000
0001
0000
0100
0000
0000
0000
,
0010
0000
0000
0000
0011
0000
0000
0001
0010
0000
1000
0000
0010
0000
0000
0000
,
0001
0000
0000
0000
1001
0000
0000
1000
0010
0000
0100
0000
0010
0000
0000
0000
,
1000
0000
0000
0000
1100
0000
0000
1000
0010
0000
0001
0000
0010
0000
0000
0000
,
0100
0000
0000
0000
0101
0000
0000
0001
0010
0000
0100
0000
0010
0000
0000
0000
,
0001
0000
0100
0000
0010
0000
0000
0000
1000
0000
0001
0000
0100
0010
0100
0010
;
