#TITLE:Karma;
#SUBTITLE:;
#ARTIST:Bump of Chicken;
#TITLETRANSLIT:;
#SUBTITLETRANSLIT:;
#ARTISTTRANSLIT:;
#CREDIT:Grithokskulk;
#BANNER:Karma.png;
#BACKGROUND:Karma-bg.png;
#LYRICSPATH:;
#CDTITLE:grithokskulk.png;
#MUSIC:Karma.mp3;
#OFFSET:-5.055;
#SAMPLESTART:49.275;
#SAMPLELENGTH:14.980;
#SELECTABLE:YES;
#BPMS:0.000=195.000,280.000=97.500,292.000=195.000;
#STOPS:298.000=0.280
;
#BGCHANGES:;

//---------------dance-single - ----------------
#NOTES:
     dance-single:
     :
     Easy:
     4:
     0.267,0.341,0.121,0.243,0.000: // measure 1
1000
0000
0100
0000
,  // measure 2
0010
0000
0001
0000
,  // measure 3
1000
0000
0010
0000
,  // measure 4
0100
0000
0010
0000
,  // measure 5
1000
1000
1000
0000
,  // measure 6
0001
0000
0100
0000
,  // measure 7
0010
0010
0010
0000
,  // measure 8
0100
0100
0100
0000
,  // measure 9
0001
0001
0001
0000
,  // measure 10
0010
0000
0010
0000
,  // measure 11
0100
0100
0100
0000
,  // measure 12
0010
0010
0010
0000
,  // measure 13
0100
0000
0100
0000
,  // measure 14
1000
0000
1000
0000
,  // measure 15
0010
0010
0100
0100
,  // measure 16
0001
0000
0001
0000
,  // measure 17
0010
0000
0010
0000
,  // measure 18
0001
0001
0001
0000
,  // measure 19
0100
0000
0010
0000
,  // measure 20
1000
0100
0010
0001
,  // measure 21
0100
0100
0100
0000
,  // measure 22
0010
0010
0010
0000
,  // measure 23
1000
0000
0100
0000
,  // measure 24
0010
0001
0010
0000
,  // measure 25
0001
0000
0100
0000
,  // measure 26
0010
0000
0100
0000
,  // measure 27
0001
0000
1000
1000
,  // measure 28
1001
0000
1000
0000
,  // measure 29
0100
0000
0100
0000
,  // measure 30
0200
0300
0000
0000
,  // measure 31
0010
0000
0010
0000
,  // measure 32
0020
0030
0000
0000
,  // measure 33
0001
0000
0001
0000
,  // measure 34
0002
0003
0000
0000
,  // measure 35
0100
0100
0010
0010
,  // measure 36
1000
0100
0010
0000
,  // measure 37
0002
0203
0320
2030
,  // measure 38
3000
0000
0000
0000
,  // measure 39
0100
0000
0100
0000
,  // measure 40
0100
0010
0000
0010
,  // measure 41
0010
0000
0001
0000
,  // measure 42
1000
0000
0010
0000
,  // measure 43
1001
0000
0000
0110
,  // measure 44
0000
0000
0100
0100
,  // measure 45
2000
3200
0320
0032
,  // measure 46
0003
0000
0000
0000
,  // measure 47
0100
0000
0100
0000
,  // measure 48
0010
0010
0000
1000
,  // measure 49
1000
0000
0001
0000
,  // measure 50
0010
0000
0100
0000
,  // measure 51
0110
0000
0000
1001
,  // measure 52
0000
0000
1000
1000
,  // measure 53
0001
0000
0100
0000
,  // measure 54
0010
0100
0010
0000
,  // measure 55
1000
0000
0000
0000
,  // measure 56
0100
0000
0000
0000
,  // measure 57
0010
0000
0000
0000
,  // measure 58
0001
0000
0000
0000
,  // measure 59
0100
0000
0000
0000
,  // measure 60
0001
0000
0000
0000
,  // measure 61
0010
0000
0010
0000
,  // measure 62
0100
0000
0100
0000
,  // measure 63
2000
0000
0000
3000
,  // measure 64
0002
0000
0000
0003
,  // measure 65
0200
0000
0000
0300
,  // measure 66
0020
0000
0000
0030
,  // measure 67
0200
0000
0000
0300
,  // measure 68
0002
0000
0000
0003
,  // measure 69
2002
0000
0000
0000
,  // measure 70
3003
0000
0000
0000
,  // measure 71
1000
0000
0000
0000
,  // measure 72
0000
0000
0000
0000
,  // measure 73
0000
0000
0000
0000
,  // measure 74
0110
0000
0000
1001
,  // measure 75
0000
0000
0100
0020
,  // measure 76
2030
3002
0023
0030
,  // measure 77
0000
0000
0000
0100
,  // measure 78
0000
0100
0000
1000
,  // measure 79
1000
0000
0010
0010
,  // measure 80
0000
0100
0000
0001
,  // measure 81
1000
0001
0000
1001
,  // measure 82
0000
0000
0110
0000
,  // measure 83
0000
1000
0000
0002
,  // measure 84
0023
0230
2300
3000
,  // measure 85
0000
0000
0010
0010
,  // measure 86
0000
0100
0000
0001
,  // measure 87
0001
0000
1000
1000
,  // measure 88
0000
0100
0000
1000
,  // measure 89
1000
1000
0000
1001
,  // measure 90
0000
0000
0110
0000
,  // measure 91
0100
0010
0000
0010
,  // measure 92
0000
1000
0000
1001
,  // measure 93
0000
0110
0000
2002
,  // measure 94
0000
0000
0000
3003
,  // measure 95
0000
1000
1000
1000
,  // measure 96
0000
0001
0000
0010
,  // measure 97
0000
0100
0100
0200
,  // measure 98
0000
0000
0000
0300
,  // measure 99
0000
0020
0030
0002
,  // measure 100
0000
0000
0000
0000
,  // measure 101
0000
0003
1000
2000
,  // measure 102
0000
0000
3000
0020
,  // measure 103
0030
0200
0300
0002
,  // measure 104
0000
0000
0000
0000
,  // measure 105
0000
0003
0000
1000
,  // measure 106
0000
0010
0000
0100
,  // measure 107
0000
0001
0000
0010
,  // measure 108
0010
0010
0000
0100
,  // measure 109
0100
0100
0000
1000
,  // measure 110
0000
0001
0000
0100
,  // measure 111
0000
0001
0000
1000
,  // measure 112
1000
1000
0000
1001
,  // measure 113
1001
1001
0000
0000
;

//---------------dance-single - ----------------
#NOTES:
     dance-single:
     :
     Medium:
     6:
     0.444,0.644,0.128,0.506,0.000:
2000
0000
3001
0000
,
0002
0000
0103
0000
,
0200
0000
0320
0000
,
2030
0000
3000
0000
,
1000
0000
0001
0000
0100
0000
0000
0010
,
0000
0100
0000
0010
0000
0000
0000
1000
,
0000
0000
1000
0000
1000
0000
0000
0001
,
0000
0001
0001
0000
,
0100
0000
0001
0000
0010
0000
0000
0100
,
0000
0010
0000
0100
0000
0000
0000
1000
,
0000
0000
1000
0000
1000
0000
0000
0001
,
0000
0001
1001
0000
,
0002
0000
0103
0000
,
0100
0010
0100
0000
,
0001
0001
0010
0010
,
0100
1000
0100
0000
,
1000
0010
0010
0100
,
0010
0100
0100
0000
,
0001
0010
0100
0010
,
0001
0000
0000
0001
1000
0000
0000
0000
,
0001
0001
0001
0100
,
0010
0010
0100
0000
,
0001
0001
0010
0010
,
0100
1000
0100
0000
,
1000
1000
0010
0100
,
0001
0001
0010
0001
,
0100
0000
0000
0010
0000
0100
0000
0010
,
0000
0000
0000
0110
0000
0000
1000
0000
,
0100
0000
0000
0100
0000
0000
0100
0010
,
0000
0000
0000
0001
0000
0001
0100
0000
,
0001
0000
0001
0010
0000
0000
0010
0100
,
0000
0000
0000
0100
0000
0100
1000
0000
,
0010
0000
0010
0100
0000
0100
0001
0000
,
0000
0000
0000
0001
0000
0001
1000
0000
,
0001
0001
1000
1000
,
0010
0100
0001
0000
,
2000
3200
0320
0032
,
0203
0000
0320
0000
0130
0000
0001
0100
,
0001
0000
0000
0000
0001
0000
0000
0001
,
0100
0010
0010
1000
,
0100
0000
0100
0000
1000
0000
0010
0100
,
0000
0100
0001
0010
,
0001
0000
1000
1000
0000
0010
0020
0000
,
0030
0100
0100
0000
0001
0000
0100
0000
,
0020
2030
3200
0320
,
0032
0000
0203
0000
0320
0000
0130
0001
,
0100
0000
0000
0000
0100
0000
0000
0100
,
0001
0010
0001
0001
,
1000
0000
1000
0000
0010
0000
0100
0010
,
0000
0010
1000
0100
,
0010
0000
0010
0001
0000
0001
0200
0000
,
0010
0000
0310
0000
0100
0010
0100
0000
,
0001
0000
1000
1000
,
1100
0011
1001
0000
,
0002
0000
0100
0000
,
0010
0000
1000
0000
,
0203
0000
1000
0000
,
0310
0100
0001
0010
,
0200
0000
0001
0000
,
1300
0010
0100
0000
,
0002
0000
0000
0000
2000
0003
0000
0000
,
3200
0000
0320
0000
,
0032
0000
0100
0010
,
0203
0000
1000
0001
,
0320
0000
1000
0001
,
0230
0000
0001
0010
,
0302
0000
0010
0100
,
0023
0000
0100
0001
,
0230
0000
0000
0000
,
0300
0000
0100
1000
,
0010
0100
0001
0020
0000
0000
0030
0000
,
0100
0000
0010
0000
0001
0001
0000
0100
,
0100
0000
0010
0000
1000
0001
1000
0000
,
1001
0000
0000
0110
0000
0000
2002
0000
,
0000
0000
3003
0200
,
0320
2030
3200
0302
,
0203
0000
2300
0000
3010
0100
0010
0000
,
0000
0000
0100
0000
0000
0100
0010
0000
,
0100
0001
0001
1000
,
0100
0000
0010
0000
0100
1000
0000
1000
,
0010
0100
0010
1010
,
0000
0101
0000
0000
2002
0000
0000
0000
,
3003
1000
0100
0020
,
0032
0203
0320
2030
,
3200
0000
0302
0000
0103
1000
0100
0000
,
0000
0000
0100
0000
0000
0100
0010
0000
,
0001
0100
0100
0010
,
0100
0000
0001
0000
1000
0100
0000
0000
,
0100
0010
0001
1000
,
1000
0001
0000
0001
0200
0000
0010
0000
,
0310
0100
0001
1000
,
0100
0010
0001
2002
,
3003
0220
0330
2002
,
0000
0000
0000
3003
,
0000
0000
1000
0100
1000
0000
0001
0000
,
0000
0100
0010
0220
,
0000
0330
1000
0000
0001
0000
0012
0000
,
0000
0100
0000
0010
,
0000
2003
0000
3200
,
0000
0010
0000
1000
,
0000
0310
0100
2000
,
0000
0010
0000
3002
,
0000
0203
0000
0320
,
0000
1000
0000
0100
,
0100
0130
0000
0001
,
0010
0000
0100
0000
0000
1000
0000
0010
,
0000
1000
0000
0010
0000
0200
0000
0000
,
0010
0000
0310
0000
0000
0200
0000
0000
,
0001
0301
0000
0010
,
0100
0000
1000
0000
0000
0001
0000
1000
,
0000
0001
0000
0000
0000
2000
0000
0000
,
0001
0000
3001
0000
0000
0220
0000
0330
,
0110
0110
0000
0000
;

//---------------dance-single - ----------------
#NOTES:
     dance-single:
     :
     Hard:
     9:
     0.705,0.719,0.465,0.594,0.017:
1000
0100
1000
0000
0001
0100
0001
0000
,
1000
0010
1000
0000
0001
0010
0001
0000
,
1000
0001
1000
0000
0100
0010
0100
0000
,
1000
0100
0010
0001
0000
0200
0000
0000
,
0310
0000
1000
0000
0010
0100
0001
1000
,
0000
1000
0100
1000
0000
0001
0000
1001
,
0000
0001
1000
0001
1000
0001
0000
0110
,
0000
0010
0100
0010
0100
0010
0000
1000
,
0000
0100
1000
0010
0100
0001
0000
1000
,
0100
1000
0000
0001
0100
0001
0000
1001
,
0000
1000
0100
0010
0001
0100
0000
0110
,
0000
0010
1000
0001
0010
0000
0000
0100
,
2000
0010
3001
0001
,
0100
0010
0100
0010
1000
0000
0100
0000
,
0010
0010
0001
0001
0100
0000
0100
0010
,
1000
0100
1000
1001
,
0002
0000
0100
0000
0103
0000
0010
0100
,
0000
0100
0010
0000
1000
0000
1001
0000
,
0100
0000
0010
0001
0000
0000
0001
0100
,
0010
0000
1000
0000
0100
0000
0010
0000
0001
1000
0001
0000
0100
0000
0000
0000
,
0010
0000
0010
0000
1010
0000
1000
0100
,
0010
0000
0010
0100
1000
0000
1001
0000
,
0001
0001
0100
0100
0010
0010
1000
1000
,
0100
0000
0010
0001
0100
0000
0110
0000
,
1000
0000
0100
0000
0010
0100
0000
1000
,
0000
0001
0000
0100
0010
0000
1000
0000
,
0001
1000
0000
1100
0000
0011
0000
1001
,
0000
0001
0100
0010
0000
0010
1000
0100
,
0010
0000
0010
0001
0000
0001
0100
0010
,
0000
0100
0100
0010
0000
1000
0100
0010
,
0001
0000
0001
1000
0000
1000
0010
0010
,
0000
0100
0100
0010
1000
0100
0010
0000
,
0001
0000
0001
0100
0000
0100
0010
1000
,
0000
0100
0100
1000
0100
0010
0001
0000
,
1010
1010
0101
0110
,
0002
2003
3200
0300
,
2000
3200
0320
0032
,
0203
0000
2300
0000
3200
0000
0301
0010
,
0200
0000
0310
0001
0200
0000
0310
1000
,
0100
0001
0100
0000
0110
0000
0001
0010
,
0100
0000
0010
0000
0001
1000
0000
1010
,
0000
1000
0010
0000
0100
0010
1000
0000
,
1100
0000
0001
0101
0000
1000
2100
0000
,
0010
0000
3010
0000
0100
0010
1000
0100
,
0010
0002
0203
2300
,
3200
0000
0302
0000
2003
0000
3100
0001
,
0200
0000
0310
0001
0200
0000
1300
0100
,
0001
0010
0100
0000
1100
0000
1000
0010
,
0200
0000
0301
0000
0010
0100
0001
0010
,
0000
0100
1000
0000
1000
0010
0100
0000
,
0101
0000
1000
1001
0000
1000
1200
0000
,
0010
0000
0310
0000
0001
0100
0010
0000
,
1010
0000
1000
0100
1000
0000
0001
0100
,
0010
0100
0010
0100
0010
0000
1001
0000
,
2100
0010
0001
0010
,
3002
0100
0010
1000
,
0203
1000
0001
0010
,
0302
0010
0100
1000
,
0023
1000
0001
0100
,
0032
0100
1000
0010
,
0203
0000
0000
0010
0320
0000
0000
1000
,
2030
0000
0000
0100
3200
0000
0300
0000
,
2100
0000
0010
3001
,
0102
0000
0010
1003
,
0200
2300
3200
0302
,
0023
0130
0200
1300
,
2100
0000
0001
3010
,
0210
0000
0001
0310
,
1000
0100
0000
0010
0001
0010
0000
0001
,
1000
0000
0002
0023
,
0230
0000
2300
0000
3020
0000
0230
0000
0000
0000
0000
0000
0300
0000
0010
1000
,
0200
0000
0300
0000
0200
0000
0300
0010
0001
0000
0001
0000
0000
0000
0001
0000
,
0100
0000
0010
0000
1000
0000
0100
1000
0000
0000
0001
0000
0100
0010
0000
0000
,
0110
0000
0001
1001
0000
1000
1200
0000
,
0010
0001
1300
0020
,
0230
0302
0203
2300
,
3200
0000
0320
0000
1030
0100
0002
0000
,
0013
0100
2000
0000
3010
0100
0001
1000
,
0100
0000
0110
0000
0010
0001
0100
0000
,
0010
0000
1000
0001
0000
1001
0000
0000
,
1100
0000
0010
0001
0100
0000
0110
0000
,
0010
1010
0000
1000
2100
0000
0001
0000
,
3010
0000
0100
0001
0010
0100
2000
0000
,
3020
0230
2300
3200
,
0302
0000
0023
0000
0130
1000
0020
0000
,
0130
1000
0200
0000
0301
0010
1000
0010
,
0001
0000
1001
0000
1000
0010
0100
0000
,
0010
0000
1000
0100
0010
0011
0000
0001
,
1000
0000
1000
0010
0100
0000
0110
0000
,
0010
1010
0000
1000
1002
0000
0010
0000
,
0103
0000
0010
0001
0100
0000
0110
0000
,
0010
1000
0100
0010
0100
0000
2200
0000
,
3300
0022
0033
2002
,
3003
0220
0330
2020
,
3030
0000
1000
0100
0010
0000
1001
0000
,
0000
0000
0001
0100
0010
0000
2020
0000
,
3030
0102
0103
1001
,
0100
0000
0010
0001
0000
0100
0000
0010
,
1000
0100
0000
0010
0001
0100
0000
0010
,
0100
0010
0100
0010
0000
1010
0000
1000
,
0010
1000
0010
1000
0000
0001
0000
0010
,
0100
0010
0100
0010
0000
0011
0000
1100
,
0000
1010
0000
0101
0000
0110
0000
0010
,
1000
0010
1000
0010
0000
0101
0000
0001
,
1000
0001
1000
0000
0001
0010
0100
0000
,
1000
0000
0010
0100
0010
1000
0000
0100
,
1000
0010
0000
0100
0001
0010
0000
0100
,
0010
0100
0010
0100
0000
0001
0000
1000
,
0001
1000
0001
1000
0000
0010
0000
0100
,
0010
1000
0100
0010
0000
0011
0000
1100
,
0000
1010
0000
0101
0000
0110
0000
1000
,
0001
0100
0010
1000
0000
1001
0000
1000
,
0100
0010
0001
0000
0000
0000
0000
0000
;
