#TITLE:Just a Game;
#SUBTITLE:;
#ARTIST:Y&Co.;
#TITLETRANSLIT:;
#SUBTITLETRANSLIT:;
#ARTISTTRANSLIT:;
#CREDIT:Grithokskulk;
#BANNER:Just a Game.png;
#BACKGROUND:Just a Game-bg.png;
#LYRICSPATH:;
#CDTITLE:jubeat.png;
#MUSIC:Just a Game.mp3;
#OFFSET:-2.116;
#SAMPLESTART:50.175;
#SAMPLELENGTH:15.000;
#SELECTABLE:YES;
#BPMS:0.000=160.000,32.000=80.000,48.000=160.000;
#STOPS:;
#BGCHANGES:;

//---------------dance-single - ----------------
#NOTES:
     dance-single:
     :
     Easy:
     3:
     0.238,0.285,0.045,0.036,0.000: // measure 1
1000
0001
1000
0001
,  // measure 2
1000
0001
1000
0001
,  // measure 3
1000
0001
1000
0001
,  // measure 4
1000
0000
0001
0001
,  // measure 5
0100
0010
0100
0010
,  // measure 6
0100
0010
0100
0010
,  // measure 7
0100
0010
0100
0100
,  // measure 8
0020
0000
0000
0000
,  // measure 9
0130
0000
0000
0000
,  // measure 10
0010
0000
0000
0000
,  // measure 11
0001
0000
0000
0000
,  // measure 12
1000
0000
0000
0000
,  // measure 13
0001
0000
0010
0000
,  // measure 14
0001
0100
0000
0000
,  // measure 15
0010
0000
0100
0000
,  // measure 16
0010
1000
0000
1000
,  // measure 17
0100
0000
0010
0000
,  // measure 18
0100
0010
0000
0000
,  // measure 19
0001
0000
1000
0000
,  // measure 20
0001
1000
0000
1000
,  // measure 21
0001
0000
0100
0000
,  // measure 22
0001
0000
0010
0000
,  // measure 23
0001
0000
1000
0000
,  // measure 24
0001
0000
0100
0000
,  // measure 25
0001
0000
0010
0000
,  // measure 26
0001
0000
0100
0000
,  // measure 27
0001
0001
0010
0010
,  // measure 28
0100
0100
2000
3000
,  // measure 29
1001
0001
0001
0000
,  // measure 30
0010
0100
0010
0000
,  // measure 31
0001
0001
0001
0000
,  // measure 32
1000
0010
1000
0000
,  // measure 33
0100
0100
0100
0000
,  // measure 34
1000
0010
1000
0000
,  // measure 35
0010
0010
0010
0000
,  // measure 36
0100
0000
0110
0000
,  // measure 37
0001
0010
0001
0010
,  // measure 38
0001
0100
0001
0100
,  // measure 39
0010
0100
0010
0100
,  // measure 40
0010
1000
0010
0000
,  // measure 41
1000
0100
1000
0100
,  // measure 42
0010
0100
0010
0100
,  // measure 43
0010
0000
0110
0000
,  // measure 44
0001
0000
1001
0000
,  // measure 45
1000
0100
1000
0000
,  // measure 46
0100
0010
0000
0000
,  // measure 47
0001
0100
0001
0000
,  // measure 48
0100
0000
0000
0000
,  // measure 49
0010
0100
0010
0000
,  // measure 50
1000
0000
0001
0000
,  // measure 51
0010
0001
0010
0000
,  // measure 52
0100
0000
0010
0010
,  // measure 53
0100
1000
0100
0000
,  // measure 54
1000
0010
1000
0000
,  // measure 55
0001
0100
0001
0010
,  // measure 56
0001
0100
0010
0010
,  // measure 57
1000
0100
1000
0010
,  // measure 58
1000
0100
0010
0010
,  // measure 59
0001
0100
0010
0100
,  // measure 60
0001
0100
0010
0010
,  // measure 61
1000
0001
0010
0100
,  // measure 62
0010
0001
1000
0010
,  // measure 63
0220
0000
0000
0000
,  // measure 64
0000
0000
0000
0000
,  // measure 65
0330
0000
0000
0000
;

//---------------dance-single - ----------------
#NOTES:
     dance-single:
     :
     Medium:
     6:
     0.434,0.457,0.232,0.080,0.000:
1000
0010
0100
0001
,
1000
0010
0100
0001
,
1000
0010
0100
0001
,
2000
0000
0000
0000
3001
0001
0001
0001
,
0010
0100
1000
0001
,
0010
0100
1000
0001
,
0010
0000
0100
0000
1000
1000
0001
0001
,
0200
0000
0310
0110
,
0200
0000
0000
0000
,
0320
0000
0000
0000
,
2030
0000
0000
0000
,
3002
0000
0000
0000
,
1003
0100
1000
0000
0100
0000
0010
0000
,
0100
1000
0010
0100
0000
0000
0000
0000
,
0001
0010
0001
0000
0100
0000
0010
0000
,
0100
0000
0001
1000
0000
1000
0100
0000
,
0010
0100
1000
0010
,
0100
0001
0010
0100
0000
0000
0000
0000
,
0010
0001
1000
0010
,
0100
0000
0010
1000
0000
1000
0100
0000
,
0010
0100
0010
0000
1000
0001
1000
0000
,
0001
0100
0001
0000
0010
0100
0010
0000
,
0001
0010
0001
0000
1000
0010
1000
0000
,
0010
0100
0010
0000
1000
0001
1000
0000
,
0100
1000
0100
0000
0010
0001
0010
0000
,
0001
0100
0001
0000
1000
0010
1000
0000
,
0001
0010
0000
0010
0001
0000
0100
0010
,
0100
0001
1000
0001
2000
0000
3001
0000
,
0100
0001
0100
0000
0010
0100
0010
0000
,
1000
0001
1000
0001
1000
0000
1001
0000
,
0001
0010
0001
0000
1000
0010
1000
0000
,
0010
0100
0001
0100
0010
0000
0110
0000
,
1000
0100
1000
0000
0001
0100
0001
0000
,
0010
0001
0010
0100
0010
0000
0011
0000
,
1000
0001
1000
0000
0001
0001
0000
1000
,
1000
0000
0010
0010
0000
0100
0010
0000
,
0110
0000
0110
0000
1000
0001
1000
0000
,
0011
0000
0011
0000
1000
0001
1000
0000
,
1010
0000
1010
0000
0010
0100
0010
0000
,
1001
0000
1001
0000
1000
0100
1000
0000
,
0011
0000
0011
0000
0001
0010
0001
0000
,
1001
0000
1001
0000
0010
0100
0010
0000
,
1010
0000
0000
0101
0000
0000
0011
0000
,
0000
1100
0000
0000
0001
1000
0001
0000
,
0010
0100
0010
0000
0001
1000
0001
0000
,
0100
0001
1000
0100
0000
0000
0000
0000
,
0010
0100
0010
0000
0001
1000
0001
0000
,
0100
0010
1001
0110
,
0001
0010
0001
0000
1000
0010
1000
0000
,
0001
0100
0010
1000
0000
0000
0000
0000
,
0100
1000
0100
0000
0010
0100
0000
0010
,
0100
0000
1000
0001
1000
0000
0001
0000
,
0100
0010
0100
0000
0010
0100
0000
0001
,
0010
0000
0001
1000
0000
0010
0100
0000
,
0001
0010
0001
0000
1000
0010
1000
0000
,
0001
0010
0100
1000
0001
0000
1001
0000
,
0100
0010
0100
0000
0001
0010
0001
0000
,
1000
0010
0100
0001
1000
0000
1001
0000
,
1000
0100
1000
0000
0001
0100
0001
0000
,
1000
0100
0010
0100
1000
0000
1001
0000
,
1000
0010
1000
0000
0001
0010
0000
0001
,
0100
0000
0001
0010
0000
0001
1000
0000
,
2002
0000
0000
0000
,
0000
0000
0000
0000
,
3003
0000
0000
0000
;

//---------------dance-single - ----------------
#NOTES:
     dance-single:
     :
     Hard:
     8:
     0.613,0.685,0.152,0.116,0.232:
1000
0010
1000
0100
,
0010
0100
1000
0001
,
0100
0010
0100
0001
,
0020
0000
0000
0000
0030
0000
0000
0000
0100
0010
0100
0010
0100
0010
0100
0010
,
0100
1000
0010
0100
,
0010
1000
0001
0010
,
0001
0000
0000
0000
0100
0000
0000
0000
0010
0100
0010
0100
0010
0100
0010
0100
,
0020
0030
1001
0110
,
0200
0000
0000
0000
,
0002
0000
0000
0300
,
0020
0000
0000
0003
,
0200
0000
0030
0000
,
0301
0010
0100
0100
0010
0001
0100
0010
,
1000
0100
0001
0100
0000
0000
0000
0000
,
0010
0001
0100
0100
0010
0100
1000
0100
,
0001
0010
0100
0010
0000
0001
0100
0000
,
0001
1000
0100
0100
0010
0100
1000
0010
,
0001
0010
0100
0001
0000
0000
0000
0000
,
1000
0100
0100
0001
0100
0100
0010
0100
,
0100
1000
0100
0100
0110
0000
1001
0000
,
0010
0001
0100
0100
0010
0100
0001
1000
,
0100
0010
0100
0100
1000
0010
0001
0010
,
0100
0001
0010
0010
0100
0001
0100
1000
,
0001
0010
0100
0010
0001
0001
1000
0100
,
0010
0100
1000
1000
0001
0010
1000
1000
,
0010
0001
0100
0100
1000
0100
0001
0001
,
1000
0100
1000
0000
0001
0100
0001
0000
1000
0010
1000
0000
0001
0010
0001
0000
,
0100
0010
0100
0010
0100
0010
0100
0010
0200
0000
0000
0000
0310
0000
0000
0000
,
0001
0010
0100
0010
0001
0100
0010
0010
,
0100
0000
0001
0000
0010
0000
1000
0000
0010
0100
0000
0010
0100
0000
0010
0000
,
0001
0100
0010
0100
0001
0010
0100
0100
,
1000
0000
0010
0000
0100
0010
0100
0000
0001
1000
0001
0000
0020
0000
0000
0000
,
0130
0010
0001
0100
0100
0010
0100
0001
,
0010
0000
0010
0000
0100
0000
1000
0000
0010
0100
0000
0010
0100
0000
0001
0000
,
1000
0100
1100
0000
0001
0101
0000
1000
,
1001
0000
0010
0110
0200
0000
2300
0000
,
3010
0100
0010
1000
0010
0001
0010
0100
,
0010
1000
0010
0100
0010
0001
0010
0100
,
0002
0000
0010
0000
0013
0000
0100
0010
0100
0000
0000
0000
1000
0010
1000
0000
,
0000
0000
0001
0100
0001
0000
0000
0000
0010
0000
0100
0000
0100
0000
0010
0000
,
0100
1000
0100
0010
0100
1000
0100
0001
,
0100
0010
0100
0001
0100
1000
0100
0001
,
0100
0010
0100
0000
0000
0000
0001
0010
0001
0000
0000
0000
1000
0010
1000
0000
,
0000
0000
0100
0010
0100
0000
1000
0001
1000
0000
0010
0100
0010
0100
0010
0100
,
0010
1000
0100
0010
0010
0100
1000
0010
,
0100
1000
0100
0002
0000
0000
0003
0011
,
1100
0100
0010
0100
1000
0010
0100
0010
,
1000
0000
0001
0000
0010
0000
0100
0000
0110
0000
0000
1001
0000
0000
0101
0000
,
0010
0100
0010
0001
0001
0100
1000
0100
,
0010
1000
0100
0010
0000
0000
0110
0000
,
1001
0001
0001
0010
0001
0001
0100
0001
,
0001
1000
0001
0001
0010
0001
0100
0010
,
1000
0100
0100
0010
0100
0100
1000
0100
,
0100
0000
0001
0000
0100
0000
0100
0000
0010
0001
0010
0000
0001
1000
0001
0000
,
0100
0001
0100
0000
0010
0000
0100
0000
0100
0000
0001
0000
0010
0000
0100
0010
,
0100
0000
0010
0000
0010
0000
0001
0000
0100
0010
0000
0100
0010
0000
1000
0000
,
0100
1000
0100
0000
1000
0000
0010
0000
0010
0000
1000
0000
0001
0000
1000
0010
,
1000
0100
0010
0010
1001
0000
0110
0000
,
0001
0010
0001
0000
0100
0000
0010
0000
0010
0000
0100
0000
0001
0000
0010
0100
,
0010
0000
0100
0000
1000
0000
0010
0000
0100
0001
0000
0100
0001
0000
0010
0000
,
0100
0010
0100
0010
0001
1000
0001
1000
,
0010
0100
0010
0000
1000
0001
1000
0000
0100
0010
0100
0010
0100
0010
0100
0010
,
0200
0000
0000
0000
,
0000
0000
0000
0000
,
0300
0000
0000
0000
;
