#TITLE:JET WORLD;
#SUBTITLE:(Ryu☆ Remix);
#ARTIST:Mitsuhiko Izumi Remixed by Ryu☆;
#TITLETRANSLIT:;
#SUBTITLETRANSLIT:;
#ARTISTTRANSLIT:;
#CREDIT:Grithokskulk;
#BANNER:JET WORLD (Ryu Remix).png;
#BACKGROUND:JET WORLD (Ryu Remix)-bg.png;
#LYRICSPATH:;
#CDTITLE:REFLEC BEAT.png;
#MUSIC:JET WORLD (Ryu Remix).mp3;
#OFFSET:-3.535;
#SAMPLESTART:32.595;
#SAMPLELENGTH:15.000;
#SELECTABLE:YES;
#BPMS:0.000=165.000;
#STOPS:;
#BGCHANGES:;

//---------------dance-single - ----------------
#NOTES:
     dance-single:
     :
     Easy:
     3:
     0.257,0.282,0.228,0.208,0.000: // measure 1
1000
1000
0001
0001
,  // measure 2
0100
0100
0010
0000
,  // measure 3
1001
0000
0000
0000
,  // measure 4
0011
0000
0000
0000
,  // measure 5
1010
0000
0000
0000
,  // measure 6
0110
0000
0000
0000
,  // measure 7
0101
0000
0000
0000
,  // measure 8
1001
0000
0000
0000
,  // measure 9
1100
0000
0000
0000
,  // measure 10
0110
0000
0000
0000
,  // measure 11
2002
0000
0000
3003
,  // measure 12
0100
0200
0000
0300
,  // measure 13
0010
0000
1000
0000
,  // measure 14
0100
0010
0100
0000
,  // measure 15
0010
0001
0100
0001
,  // measure 16
0020
0030
0200
0300
,  // measure 17
1000
0000
0010
1000
,  // measure 18
0001
0000
1000
0010
,  // measure 19
0100
0000
0010
0000
,  // measure 20
1000
0000
0001
0001
,  // measure 21
1001
0000
1000
0100
,  // measure 22
0010
0000
0100
0010
,  // measure 23
0002
0000
1000
1003
,  // measure 24
0001
0000
1000
0000
,  // measure 25
0110
0000
0000
0000
,  // measure 26
0011
0000
0000
0000
,  // measure 27
1001
0000
0000
0000
,  // measure 28
0110
0000
0000
0000
,  // measure 29
1000
0000
0100
1000
,  // measure 30
0100
0000
0010
0001
,  // measure 31
0020
0000
0100
0130
,  // measure 32
1000
0001
1000
0000
,  // measure 33
2002
0000
0000
3003
,  // measure 34
0001
0000
1000
0000
,  // measure 35
0220
0000
0000
0330
,  // measure 36
0001
0000
0010
0000
,  // measure 37
0100
0010
0100
0000
,  // measure 38
1000
0001
1000
0000
,  // measure 39
0001
0100
0001
0000
,  // measure 40
1000
0010
1000
0000
,  // measure 41
0002
0000
0000
0003
,  // measure 42
0020
0000
0000
0030
,  // measure 43
0100
0000
0010
0000
,  // measure 44
0001
0000
0100
0000
,  // measure 45
0010
0000
1000
0000
,  // measure 46
1001
0000
0000
0110
0000
0000
0000
0000
,  // measure 47
1000
0100
1000
0000
,  // measure 48
0001
0100
0001
0000
,  // measure 49
1000
0010
1000
0000
,  // measure 50
0002
0000
0010
0013
,  // measure 51
0002
0000
0000
0003
,  // measure 52
0010
0100
0010
0000
,  // measure 53
2002
0000
0000
3003
,  // measure 54
1000
0010
0100
0010
,  // measure 55
1000
1000
1000
0000
,  // measure 56
0001
0001
0001
0000
,  // measure 57
0010
0100
0010
0000
,  // measure 58
0001
1000
0001
0000
,  // measure 59
0220
0000
0000
0330
,  // measure 60
0202
0000
0000
0303
,  // measure 61
1000
0000
0100
0000
,  // measure 62
0010
0000
0100
0000
,  // measure 63
1000
0000
0001
0000
,  // measure 64
0110
0000
0000
1001
0000
0000
0000
0000
;

//---------------dance-single - ----------------
#NOTES:
     dance-single:
     :
     Medium:
     6:
     0.458,0.410,0.208,0.277,0.000:
1000
1000
0001
0001
,
1000
1000
0001
0001
,
0100
0010
0100
0000
0001
0000
1001
0000
,
1000
0100
1000
0000
0010
0000
0110
0000
,
1000
0010
1000
0000
0001
0000
0011
0000
,
0100
0010
0100
0000
0010
0000
0011
0000
,
0001
0100
0001
0000
1000
0000
1100
0000
,
0010
0100
0010
0000
1000
0000
1001
0000
,
0010
0100
0010
0000
0001
0000
0101
0000
,
0010
0100
0010
0000
1000
0000
1001
0000
,
0200
0000
0000
0000
,
0310
0010
0010
0010
0000
0100
0100
0000
,
1000
0001
0100
0010
,
0100
0001
1000
0100
,
0020
0000
0100
0130
,
0010
0001
0010
0000
0100
1000
0100
0000
,
1000
0010
0100
0010
,
1000
0001
0010
0001
,
0200
0000
0010
0310
,
0100
0010
0100
0010
0000
0000
1001
0000
,
0010
0001
0010
0000
0100
1000
0100
0000
,
1000
0010
0100
0001
,
2001
0000
0001
3001
,
0010
0001
0010
0000
0100
0000
0010
0000
,
0100
1000
0100
0000
1000
0000
1000
0000
,
0010
0100
0010
0000
0100
0000
0100
0000
,
0001
0010
0001
0000
0010
0000
0010
0000
,
0001
1000
0001
0000
1000
0001
1000
0000
,
0010
0100
0010
0000
1000
0000
1001
0000
,
0001
0010
0001
0000
0100
0000
0110
0000
,
0002
0000
1000
1003
,
0100
1000
0100
0000
0010
0100
0010
0000
,
2002
0000
0000
3003
,
0001
0100
0001
0000
0100
0000
0100
0000
,
0220
0000
0000
0330
,
1000
0001
1000
0000
0001
1000
0001
0000
,
0010
0100
0010
0001
,
0100
0000
1000
0000
0100
0010
0100
0000
,
0001
0010
0100
0010
,
0001
0000
1000
0000
0010
1000
0100
0000
,
0020
0000
0100
0130
,
0110
0000
0110
0000
0001
1000
0001
0000
,
0200
1300
0200
0301
,
0200
1300
0200
0301
,
0200
1300
0200
0301
,
1000
0100
0001
0100
0000
0000
0000
0000
,
0010
0010
0001
0001
,
0100
0100
1000
1000
,
0010
0010
0001
0001
,
0200
0000
0010
0310
,
0220
0000
0000
0330
,
1000
0010
1000
0000
0001
0010
0001
0000
,
0220
0000
0000
0330
,
0001
0010
0001
0000
1000
0100
1000
0000
,
0001
0100
1000
0100
,
0001
0010
1000
0010
,
0001
0100
0001
0000
1000
0100
1000
0000
,
0001
0010
0001
0000
1000
0010
1000
0000
,
0020
0000
0100
0130
,
0110
0000
0110
0000
1000
0001
1000
0000
,
0200
0301
0200
1300
,
0020
0031
0020
1030
,
0200
0301
0200
1300
,
0010
0100
0001
1000
0000
0000
1001
0000
;

//---------------dance-single - ----------------
#NOTES:
     dance-single:
     :
     Hard:
     8:
     0.638,0.600,0.347,0.168,0.158:
1100
0101
1100
1100
,
0011
1010
0011
0011
,
1000
0010
0001
0000
1000
0010
0001
0010
,
1000
0100
0001
0000
0001
0100
1000
0010
,
0001
0010
0100
0000
0100
0001
0010
0100
,
0010
0001
0100
0000
0100
0010
1000
0100
,
0001
0100
1000
0000
0010
0100
0010
1000
,
0001
0010
1000
0000
0010
0001
0100
1000
,
0100
0010
1000
0000
0100
0010
0100
1000
,
0010
0100
0001
0010
0000
0010
0100
0010
,
0002
0000
0000
0000
,
1000
1000
1000
2000
0000
0000
3003
0000
,
1000
0000
0000
1000
0000
0000
0001
0000
0000
0100
0000
0000
0010
0000
0000
0000
,
0100
0000
0000
0001
0000
0000
0010
0000
0000
0100
0000
0000
0010
0000
0000
0000
,
0002
0000
0000
0100
0000
0000
0100
0000
0000
0100
0000
0000
0103
0000
0000
0000
,
0100
0010
1000
0100
0010
0000
0110
0000
,
0010
0000
0000
0001
0000
0000
0100
0000
0000
0010
0000
0000
0100
0000
0000
0000
,
0001
0000
0000
1000
0000
0000
0100
0000
0000
0001
0000
0000
0100
0000
1000
0000
,
0020
0000
0000
0100
0000
0000
0100
0000
0000
0100
0000
0000
0130
0000
0000
0000
,
0001
0000
0010
0000
0100
0000
1000
0000
0000
0000
0001
1000
0001
0000
0000
0000
,
0100
0010
0100
0000
0001
0010
0100
0000
,
1000
0010
0001
0010
0100
0001
0010
0000
,
0200
0001
1000
0310
,
0001
0100
1000
0100
0010
1000
0100
0000
,
0010
0001
0100
0010
0100
0001
1000
0000
,
0001
0010
1000
0010
0001
0100
0010
0000
,
1000
0100
0010
0100
1000
0010
0001
0000
,
0010
0100
1000
0100
0001
1000
0100
0000
,
0010
0100
0010
0000
1000
0100
1000
0000
,
0001
0100
0010
1000
0100
0010
0100
0000
,
2100
0000
0010
3010
,
0100
0001
0010
0100
0010
0001
0100
0000
,
2002
3003
0110
1001
,
0100
0000
0010
0000
0100
0000
0000
0001
0000
0000
0010
0000
0100
0000
0010
0000
,
0002
1000
0010
0103
,
0100
0000
0000
0110
0000
0000
0001
0000
1000
0000
0000
1100
0000
0000
0001
0000
,
0010
1000
0010
0001
0010
1000
0010
0001
,
0100
1000
0100
0001
0100
1000
0100
0001
,
0010
1000
0010
0001
0010
1000
0010
0001
,
0100
1000
0100
0001
0100
1000
0100
0001
,
0020
0000
1000
0000
0031
0100
1000
0000
,
0101
0000
1010
0000
1000
0010
0100
0000
,
0010
0000
0100
0000
0010
0000
0100
0010
0000
0100
0010
0000
0100
0000
0010
0000
,
1000
0000
0001
0000
1000
0000
0001
1000
0000
0001
1000
0000
0001
0000
1000
0000
,
0010
0000
0100
0000
0010
0000
0100
0010
0000
0100
0010
0000
0100
0000
0010
0000
,
1000
0100
0010
0002
0000
1000
1003
0000
,
1010
0000
1010
0000
0001
0010
0100
0000
,
0011
0000
0011
0000
1000
0010
0001
0000
,
0110
0000
0110
0000
0001
1000
0100
0000
,
0210
1000
0001
0310
,
0022
0033
1001
0110
,
1000
0000
0010
0000
0100
0000
0010
1000
0000
0010
1000
0000
0100
0000
0010
0000
,
0012
1003
1001
0110
,
1000
0000
0000
0110
0000
0000
0001
0000
0010
0000
0000
1100
0000
0000
0001
0000
,
0100
1000
0100
0001
0100
1000
0100
0001
,
0010
1000
0010
0001
0010
1000
0010
0001
,
0100
1000
0100
0001
0010
1000
0010
0001
,
0100
1000
0100
0001
0010
1000
0010
0001
,
0200
0000
1000
0000
0310
0100
0001
0000
,
0011
0000
1100
0000
0010
1000
0100
0000
,
1000
0000
0010
0000
0100
0000
0010
1000
0000
0010
0100
0000
0010
0000
1000
0000
,
0001
0000
0010
0000
0100
0000
0010
0001
0000
0010
0100
0000
0010
0000
0001
0000
,
0100
0000
1000
0000
0100
0000
0001
0100
0000
1000
0100
0000
0001
0000
0100
0000
,
0010
1000
0010
0002
0000
0013
1001
0000
;

//---------------dance-single - ----------------
#NOTES:
     dance-single:
     :
     Challenge:
     8:
     0.629,0.600,0.158,0.119,0.149:
0010
0010
0100
0100
,
0010
0100
0010
1001
,
0010
1000
0100
0000
0010
0001
1000
0010
,
0100
0001
0010
0000
0100
1000
0001
0100
,
0010
1000
0100
0000
0010
0001
1000
0010
,
0100
0001
0010
0000
0100
1000
0001
0100
,
0010
1000
0100
0000
0010
0001
1000
0010
,
0100
0001
0010
0000
0100
1000
0001
0100
,
0010
1000
0100
0000
0010
0001
1000
0010
,
0100
0001
0010
0000
0100
1000
0001
0100
,
0020
0000
0000
0030
,
0100
0010
0100
0010
0000
0000
1001
0000
,
0001
0100
0100
0000
1000
0100
0100
0000
,
0010
1000
0100
1000
0001
0100
0010
0000
,
1000
0100
0001
0000
0001
0100
1000
0000
,
1000
0010
0100
0010
0000
1000
1000
0000
,
0001
0100
0100
0000
1000
0100
0100
0000
,
0010
1000
0100
1000
0001
0100
0010
0000
,
1000
0100
0100
0000
0001
0100
0100
0000
,
0010
0001
0100
0010
0000
1000
1001
0000
,
0001
0100
0100
0000
1000
0100
0100
0000
,
0010
1000
0100
1000
0001
0100
0010
0000
,
0210
0000
0010
0310
,
0001
0010
0100
1000
0010
0100
1000
0000
,
0100
0001
0010
0000
0100
0001
0100
1000
,
0010
1000
0100
0000
0010
1000
0010
0001
,
0100
0001
0010
0000
0100
0001
0100
1000
,
0010
1000
0100
0000
0010
1000
0010
0001
,
0100
0001
0100
0000
0010
1000
0010
0000
,
0100
0001
0100
0001
1000
0010
1000
0000
,
0210
0000
0010
0310
,
1000
0100
0010
0001
0010
0100
1000
0000
,
0210
0000
0010
0310
,
0100
0000
0001
0000
1000
0000
0100
1000
0000
0001
0100
0000
0000
0010
0100
0000
,
0210
0000
0010
0310
,
0001
0100
0001
0100
0000
0001
0100
0000
1000
0100
1000
0100
0000
1000
0100
0000
,
0001
0100
0001
0100
0001
0100
0001
0100
,
1000
0100
1000
0100
1000
0100
1000
0100
,
0001
0100
1000
0100
0001
0100
1000
0100
,
0001
0100
1000
0100
0001
0100
1000
0100
,
0210
0000
0010
0310
,
1010
0000
0101
0000
1000
0100
0001
0000
,
0001
0000
0100
0000
0001
0000
0100
0000
0001
0000
0100
0001
0000
0100
0001
0000
,
1000
0000
0100
0000
1000
0000
0100
0000
1000
0100
1000
0000
0000
0100
0000
1000
,
0100
0000
0010
0000
0100
0000
0010
0100
0000
0010
0100
0000
0010
0000
0100
0000
,
1000
0100
0001
0200
0000
0000
0300
0000
,
0010
1000
0010
1000
0010
1000
0010
1000
,
0001
0100
0001
0100
0001
0100
0001
0100
,
0010
1000
0001
0100
0010
1000
0001
0100
,
0210
0000
0010
0310
,
0210
0000
0010
0310
,
1000
0000
0001
0000
1000
0000
0001
0100
0000
1000
0100
0000
0010
0000
0100
0000
,
0210
0000
0010
0310
,
0001
0100
0001
0100
0000
0001
0100
0000
1000
0100
1000
0100
0000
1000
0100
0000
,
0001
1000
0001
1000
0001
1000
0001
1000
,
0010
0100
0010
0100
0010
0100
0010
0100
,
0001
1000
0001
1000
0010
0100
0010
0100
,
0001
1000
0010
0100
0001
1000
0010
0100
,
0210
0000
0010
0310
,
0101
0000
1100
0000
0001
0100
1000
0000
,
0001
0000
0100
0000
0001
0000
0100
0001
0000
0100
0001
0000
0100
0000
0001
0000
,
1000
0000
0100
0000
1000
0000
0100
1000
0000
0100
1000
0000
0100
0000
1000
0000
,
0100
0000
0010
0000
0100
0000
0010
0000
0100
0010
0000
0100
0010
0000
0100
0000
,
1000
0100
0001
0200
0000
0000
0300
0000
;
