#TITLE:Invitation From Mr.C;
#SUBTITLE:;
#ARTIST:C-Show;
#TITLETRANSLIT:;
#SUBTITLETRANSLIT:;
#ARTISTTRANSLIT:;
#CREDIT:Grithokskulk;
#BANNER:Invitation From Mr.C-bn.png;
#BACKGROUND:Invitation From Mr.C-bg.png;
#LYRICSPATH:;
#CDTITLE:SOUND VOLTEX.png;
#MUSIC:Invitation From Mr.C.mp3;
#OFFSET:-1.198;
#SAMPLESTART:17.820;
#SAMPLELENGTH:15.000;
#SELECTABLE:YES;
#BPMS:0.000=230.000,60.000=115.000,62.000=230.000,70.000=115.000,74.000=230.000,82.000=115.000,86.000=230.000,130.000=115.000,145.000=230.000,174.000=115.000,176.000=230.000,203.000=115.000,206.000=230.000,227.000=115.000,243.000=230.000,267.000=115.000,269.000=230.000,333.000=114.999;
#STOPS:145.000=0.300
,190.000=0.242
,203.000=0.503
,206.000=0.763
,245.000=0.280
,248.000=0.260
,251.000=0.260
,254.000=0.260
;
#BGCHANGES:;

//---------------dance-single - ----------------
#NOTES:
     dance-single:
     :
     Easy:
     5:
     0.334,0.352,0.018,0.046,0.000: // measure 1
1000
0000
0001
0001
,  // measure 2
0001
0000
0010
0000
,  // measure 3
0100
0000
0010
0010
,  // measure 4
0010
0000
0001
0000
,  // measure 5
0100
0000
0010
0010
,  // measure 6
0010
0000
0100
0000
,  // measure 7
0001
0000
1000
1000
,  // measure 8
0000
1000
0100
0000
,  // measure 9
1000
0100
1000
0100
,  // measure 10
0010
0001
0010
0001
,  // measure 11
0100
0010
0100
0010
,  // measure 12
1000
1000
1000
0000
,  // measure 13
0001
0100
0001
0100
,  // measure 14
0010
1000
0010
1000
,  // measure 15
0100
1000
0100
1000
,  // measure 16
0010
0100
0010
0000
,  // measure 17
0010
0000
0010
0000
,  // measure 18
0010
0000
1000
0100
,  // measure 19
0010
0001
0100
0000
,  // measure 20
0100
0000
0100
0000
,  // measure 21
0100
0000
0001
0010
,  // measure 22
0100
1000
0001
0000
,  // measure 23
0001
0000
0001
0000
,  // measure 24
0001
0000
1000
0000
,  // measure 25
1000
0000
1000
0000
,  // measure 26
1000
0000
0010
0000
,  // measure 27
0010
0000
0010
0000
,  // measure 28
0010
0000
0200
0000
,  // measure 29
0000
0000
0000
0000
,  // measure 30
0000
0000
0000
0000
,  // measure 31
0000
0000
0000
0000
,  // measure 32
0000
0000
0000
0000
,  // measure 33
0000
0300
0010
0010
,  // measure 34
0010
0010
0100
0100
,  // measure 35
0100
0100
0001
0001
,  // measure 36
0001
0001
0010
0010
,  // measure 37
0010
0100
1000
1000
,  // measure 38
1000
0000
0001
0001
,  // measure 39
0001
0000
0100
0100
,  // measure 40
0010
0010
0100
0010
,  // measure 41
0100
0000
0001
0001
,  // measure 42
0001
0000
1000
1000
,  // measure 43
1000
0000
0100
0100
,  // measure 44
1000
1000
0010
0100
,  // measure 45
0010
0010
0010
0010
,  // measure 46
0100
0100
0100
0100
,  // measure 47
0001
0001
1000
1000
,  // measure 48
0001
0001
1000
0100
,  // measure 49
0100
0100
0100
0010
,  // measure 50
0010
0010
0010
0100
,  // measure 51
0100
1000
1000
0010
,  // measure 52
0100
0001
0020
0200
,  // measure 53
0000
0000
0000
0000
,  // measure 54
0000
0000
0000
0000
,  // measure 55
0000
0000
0000
0000
,  // measure 56
0000
0000
0000
0000
,  // measure 57
0000
0300
0000
0100
,  // measure 58
1000
0100
1000
0001
,  // measure 59
0100
0001
0030
0001
,  // measure 60
0100
0001
0010
0100
,  // measure 61
0010
0001
0100
0010
,  // measure 62
0010
0010
0100
0100
,  // measure 63
0100
0001
0001
0001
,  // measure 64
1000
1000
1000
0200
,  // measure 65
0000
0000
0000
0000
,  // measure 66
0000
0000
0000
0000
,  // measure 67
0000
0000
0000
0300
,  // measure 68
0000
0010
0010
0100
,  // measure 69
0100
1000
0001
1000
,  // measure 70
0001
0100
0100
0010
,  // measure 71
0010
0100
0001
0100
,  // measure 72
0001
1000
1000
0100
,  // measure 73
0100
1000
0010
1000
,  // measure 74
0010
0100
0100
0001
,  // measure 75
0001
0020
0030
0100
,  // measure 76
0100
1000
0010
1000
,  // measure 77
0010
0100
0001
0100
,  // measure 78
0001
0010
0001
0010
,  // measure 79
0001
1000
0010
1000
,  // measure 80
0000
0001
0001
1000
,  // measure 81
1000
0100
0100
0010
,  // measure 82
0010
0100
1000
0100
,  // measure 83
1000
0001
0100
0001
,  // measure 84
0000
1000
0100
0010
,  // measure 85
0100
1000
0010
0100
,  // measure 86
0001
1001
0000
0110
;

//---------------dance-single - ----------------
#NOTES:
     dance-single:
     :
     Medium:
     7:
     0.467,0.585,0.128,0.082,0.009:
1001
0000
0000
0100
0000
0100
0000
0100
,
0000
0010
0000
0010
0100
0000
0000
0000
,
1001
0000
0000
0100
0000
0100
0000
0010
,
0000
0010
0000
0100
0000
0000
0000
0000
,
0011
0000
0000
1000
0000
1000
0000
0100
,
0000
0100
0000
0100
1000
0000
0000
0000
,
1010
0000
0000
0100
0000
0100
0000
0001
,
0000
0001
0000
0100
0000
0000
0000
0000
,
0001
0010
0100
1000
,
0001
0010
0100
1000
,
1000
0010
0100
0001
,
0010
0010
0010
0110
,
1000
0100
1000
0000
0001
0100
0001
0000
,
1000
0010
1000
0000
0001
0010
0001
0000
,
1000
0000
0000
1001
0000
1001
0000
0000
,
0200
0000
0020
0330
1000
0000
0000
1000
,
0000
0000
1000
0000
0000
1000
0000
0000
,
1000
1000
0001
1001
,
0001
0000
1001
0000
0100
0000
0000
0100
,
0000
0000
0100
0000
0000
0100
0000
0000
,
0100
0100
0010
1010
,
1000
0000
1100
0000
0100
0000
0000
0100
,
0000
0000
0100
0000
0000
0100
0000
0000
,
0100
0000
0000
0000
0010
0000
0000
0010
,
0000
0000
0010
0000
0000
0010
0000
0000
,
0010
0000
0000
0000
0001
0000
0000
0001
,
0000
0000
0001
0000
0000
0001
0000
0000
,
0001
0001
2000
0000
,
0000
0000
0000
0000
,
0000
0000
0000
0000
,
0000
0000
0000
0000
,
0000
0000
3000
0000
,
0001
0000
0001
0000
0100
0010
0010
0010
,
0010
0010
0010
0000
1000
0100
0100
0100
,
0100
0100
0100
0000
0010
0001
0001
0001
,
0001
0001
0001
0000
0100
0010
0010
0010
,
0010
1001
1000
0100
,
1000
0000
0100
0000
0010
0100
0010
0000
,
1000
0001
0100
0100
,
0010
0000
0010
0000
0100
0001
0100
0000
,
1000
0100
1000
0000
0001
0000
0010
0000
,
0100
0000
1000
0000
0001
0100
0001
0000
,
1000
0100
1000
0000
0001
0000
0010
0100
,
0000
0000
1000
0000
0002
0000
1000
1003
,
1000
0010
1000
0000
0010
1000
0010
0000
,
0100
0010
1000
0100
,
0010
0001
0010
0000
0001
0010
0001
0000
,
1000
0000
0010
0000
0100
0000
0010
0100
,
0010
0000
1000
0001
1000
0000
0001
0010
,
0001
0000
1000
0010
1000
0000
0002
0000
,
0000
2003
0000
3001
,
0010
0100
1000
0002
,
0000
0000
0000
0000
,
0000
0000
0000
0000
,
0000
0000
0000
0000
,
0000
0000
0000
0003
,
0000
0000
1000
0000
1000
0000
0100
0010
,
0010
0000
0010
0000
0100
0000
0000
0100
0000
0000
0000
0000
1000
0000
0010
0000
,
0010
0010
0100
0000
0010
0000
0100
0001
,
0001
0000
0001
0000
0010
0000
0000
0010
0000
0000
0000
0000
0100
0000
0010
0000
,
0010
0010
0001
0000
1000
0000
0010
0000
,
0010
0100
0100
0100
,
0001
0001
0001
0010
,
0010
0010
0100
2000
,
0000
0000
0000
0000
,
0000
0000
0000
0000
,
0000
0000
0000
0000
0000
0000
3000
0001
,
0001
0001
0100
0000
0010
0000
0100
0000
,
0001
0000
0010
0001
0010
0000
0100
1000
,
0100
1000
0010
0100
,
0001
0010
0001
0100
,
0001
0010
0100
1000
,
0010
0000
0100
0010
0100
0000
0010
1000
,
0010
1000
0100
0010
,
0001
0200
0000
0010
,
0310
0000
0100
0010
0100
0000
0001
1000
,
0001
0000
1000
0100
1000
0000
0001
0010
,
0001
0000
1000
0010
1000
0000
0001
0100
,
0001
1000
0100
0010
,
0001
0000
0100
0010
0100
0000
0001
0100
,
0001
0000
1000
0010
1000
0000
0100
1000
,
0100
0000
0010
0001
0010
0000
0001
0100
,
0001
1000
0100
0010
,
0100
0000
1000
0010
0010
0010
0010
0010
,
0010
0000
0100
0010
0010
0010
0010
0010
,
0010
0000
1001
0000
0000
0110
0000
0000
;

//---------------dance-single - ----------------
#NOTES:
     dance-single:
     :
     Hard:
     9:
     0.843,1.000,0.938,0.574,0.278:
1100
0011
0000
0101
0000
0110
0000
1001
,
0000
1001
0000
0001
0010
0100
1000
0000
,
1010
0101
0000
1010
0000
0110
0000
1010
,
0000
1010
0000
2001
0000
0000
3100
0000
,
0011
0101
0000
0110
0000
1001
0000
1100
,
0000
0011
0000
0001
0100
0010
1000
0000
,
1100
0011
0000
0101
0000
0110
0000
1001
,
0000
1001
0000
1100
0000
0000
0110
0000
,
0100
0010
0100
0010
,
0100
1000
0100
1000
,
0001
1000
0001
1000
,
0001
0000
0100
0000
0010
0100
0010
0000
,
0001
0100
0001
0100
0001
0100
0001
0100
,
0010
1000
0010
1000
0010
1000
0010
1000
,
1100
0000
0000
0011
0000
0011
0000
0000
,
0001
0000
1000
0001
1000
0000
0110
0000
2002
0000
0000
0000
3003
0000
2200
0000
,
0000
3300
0022
0000
0033
0202
0000
0303
,
0110
0000
0000
0000
0110
0000
0000
0000
1000
0000
0100
0000
1100
0000
0000
1000
,
0001
0100
0001
0000
1001
0000
0000
0000
0022
0000
0000
0000
0033
0000
2200
0000
,
0000
3300
2020
0000
3030
0220
0000
0330
,
1001
0000
0000
0000
0110
0000
0000
0000
0001
0000
0001
0000
0011
0000
0000
1000
,
0010
0100
0010
0000
1010
0000
1000
0100
0220
0000
0000
0000
0330
0000
0022
0000
,
0000
0033
2200
0000
3300
2002
0000
3003
,
0110
0000
0101
0000
2002
0000
3003
2200
,
0000
3300
0022
0000
0033
2002
0000
3003
,
0110
0000
0101
0000
2002
0000
3003
2200
,
0000
3300
0220
0000
0330
0022
0000
0033
,
1001
0110
2002
0000
,
0000
0000
0000
0003
,
0002
0000
0000
0000
,
0000
0003
0002
0003
,
0002
0003
0002
0000
,
3000
0000
0000
0000
2003
0000
0000
0000
3001
0010
0100
0010
0100
0010
0100
0010
,
0100
0010
0100
0010
0200
0000
2300
0000
3001
1000
0010
1000
0010
1000
0010
1000
,
0010
0100
0010
0000
1000
0001
1000
0000
0100
1000
0001
1000
0001
1000
0001
1000
,
0001
1000
0001
1000
0020
0000
0230
0000
0301
1000
0100
1000
0100
1000
0100
1000
,
0100
1000
0100
0010
0001
0000
0000
0000
0101
0000
0000
0000
1010
0000
0000
0000
,
0101
0000
0101
0000
1000
0100
0010
0000
,
1000
0100
0010
0000
1100
0000
0011
0000
,
1100
0000
1100
0000
0010
0001
0010
0100
,
1000
0010
1000
0000
1010
0000
1100
0000
,
1010
0000
1010
0000
1000
0010
0100
0000
,
1000
0010
0100
0000
0101
0000
0011
0000
,
0101
0000
0000
0000
0101
0000
0000
0000
0001
0010
0100
1000
0020
0000
0230
0000
,
0301
0010
0001
0010
0001
1000
0001
1000
,
0001
0011
1000
1010
,
1000
0100
1000
0100
1000
0010
1000
0010
,
1000
0000
1001
0000
0110
0000
0100
0001
,
0100
0010
0100
0001
0100
0010
0100
0000
,
0101
0000
0001
0000
1001
0000
1000
0100
,
1000
0010
1000
0100
1000
0010
0100
0000
,
0010
1000
0100
0010
0001
0000
0220
0000
,
0000
0000
0000
0000
,
0000
0000
0000
0000
,
0000
0000
0000
0000
,
0000
0000
0000
0330
,
0000
0000
0000
0000
1000
0000
0000
0000
1001
0000
0000
0000
1000
0010
0100
0010
,
0000
1000
0100
0010
0100
0000
1000
0010
0200
0000
0000
0000
0301
0000
0010
0000
,
0000
0000
0010
0000
0001
0100
0010
1000
0100
0000
0010
0000
0100
1000
0010
1000
,
0000
0001
0100
0000
0010
0000
0100
0001
0020
0000
0000
0000
0130
0000
0010
0000
,
0000
0000
0010
0000
0100
1000
0010
0100
0000
0001
1000
0000
0100
0000
0010
0000
,
0100
0010
0110
0000
1000
0100
1000
0100
,
1100
0000
0001
0100
0001
0100
0101
0000
,
0010
0100
0010
0100
0110
0000
2002
0000
,
0000
0000
0000
0000
,
0000
0000
0000
0000
,
0000
0000
0000
0000
0000
0000
0000
0000
0000
0000
0000
0000
3003
0000
1000
0001
,
1000
0110
1000
0010
1000
0010
0100
0010
,
0100
0010
1000
0000
1100
0000
0001
0000
,
0011
0000
0100
0010
0100
0010
0100
1000
,
0100
1000
0100
0010
0100
0000
1000
0001
,
1000
0000
0001
0100
0001
0100
0010
0100
,
0010
0100
0001
0000
0011
0000
1000
0000
,
1010
0000
1000
0100
1000
0100
1000
0001
,
1000
0001
2000
0000
0000
0000
0001
0000
,
3001
0000
0010
0001
0010
0001
0100
0001
,
0100
0001
0100
0010
0100
0010
1000
0010
,
1000
0000
0001
0010
0001
0010
0100
0010
,
0100
0010
0100
1000
0010
0100
0002
0000
,
2003
0000
3001
0100
0001
0100
0010
0100
,
0010
0100
0010
1000
0010
1000
0100
0010
,
0100
0000
0010
0001
0010
0001
1000
0001
,
1000
0001
0100
0010
0100
0010
1000
0000
,
0100
0000
0000
0000
0010
0001
0100
0001
0100
0001
0100
0001
0100
0001
0100
0001
,
0100
0000
0010
0000
1000
0100
0010
0100
0010
0100
0010
0100
0010
0100
1000
0010
,
0100
0001
0010
0000
0110
0000
0000
1001
0000
0000
0110
0000
0000
0000
0000
0000
;
