#TITLE:IONIZATION;
#SUBTITLE:;
#ARTIST:llliiillliiilll;
#TITLETRANSLIT:;
#SUBTITLETRANSLIT:;
#ARTISTTRANSLIT:;
#CREDIT:Grithokskulk;
#BANNER:IONIZATION.png;
#BACKGROUND:IONIZATION-bg.png;
#LYRICSPATH:;
#CDTITLE:CROSSxBEATS.png;
#MUSIC:IONIZATION.mp3;
#OFFSET:-2.635;
#SAMPLESTART:85.615;
#SAMPLELENGTH:15.000;
#SELECTABLE:YES;
#BPMS:0.000=185.000;
#STOPS:;
#BGCHANGES:;

//---------------dance-single - ----------------
#NOTES:
     dance-single:
     :
     Easy:
     3:
     0.234,0.330,0.000,0.226,0.000: // measure 1
0100
0100
0010
0100
,  // measure 2
0000
0000
0000
0000
,  // measure 3
0001
0001
1000
0001
,  // measure 4
0000
0000
0010
0000
,  // measure 5
0100
0100
0010
0100
,  // measure 6
0000
0000
0000
0000
,  // measure 7
1000
1000
0010
1000
,  // measure 8
0000
0000
0001
0000
,  // measure 9
0010
0010
0100
0010
,  // measure 10
0100
0000
0100
0000
,  // measure 11
0001
0001
0010
0001
,  // measure 12
0010
0000
0010
0000
,  // measure 13
0100
1000
0100
0100
,  // measure 14
1000
0000
1000
0000
,  // measure 15
0001
1000
0001
0001
,  // measure 16
1000
0000
1000
0000
,  // measure 17
0000
0000
0000
0000
,  // measure 18
0010
0000
0010
0000
,  // measure 19
0100
0000
0010
0000
,  // measure 20
0020
0000
0000
0000
,  // measure 21
0030
0000
0000
0000
,  // measure 22
1000
0000
0100
0000
,  // measure 23
1000
0000
0010
0000
,  // measure 24
0200
0000
0000
0300
,  // measure 25
0001
0000
1000
0000
,  // measure 26
0002
0000
0000
0003
,  // measure 27
0010
0000
0100
0000
,  // measure 28
0020
0000
0000
0030
,  // measure 29
0200
0000
0000
0000
,  // measure 30
0000
0000
0000
0000
,  // measure 31
0300
0000
0000
0000
,  // measure 32
0000
0000
0000
0000
,  // measure 33
1000
0100
1000
0000
,  // measure 34
0010
0010
0100
0010
,  // measure 35
0100
0000
0001
0000
,  // measure 36
0002
0000
0000
0000
,  // measure 37
0003
0000
0000
0000
,  // measure 38
1000
0100
1000
1000
,  // measure 39
0010
0000
0100
0000
,  // measure 40
0020
0000
0000
0030
,  // measure 41
0100
0000
0010
0000
,  // measure 42
2000
0000
0000
3000
,  // measure 43
0001
0000
0010
0000
,  // measure 44
0002
0000
0000
0003
,  // measure 45
0200
0000
0000
0000
,  // measure 46
0000
0000
0000
0000
,  // measure 47
0300
0000
0000
0000
,  // measure 48
0010
1000
0100
0010
,  // measure 49
0002
0000
0000
0003
,  // measure 50
0002
0000
0000
0003
,  // measure 51
0002
0000
0000
0003
,  // measure 52
0002
0000
0000
0003
,  // measure 53
0200
0000
0000
0300
,  // measure 54
0200
0000
0000
0300
,  // measure 55
0200
0000
0000
0300
,  // measure 56
0200
0000
0000
0300
,  // measure 57
0020
0000
0000
0030
,  // measure 58
0020
0000
0000
0030
,  // measure 59
0020
0000
0000
0030
,  // measure 60
0020
0000
0000
0030
,  // measure 61
2000
0000
0000
3000
,  // measure 62
2000
0000
0000
3000
,  // measure 63
2000
0000
0000
3000
,  // measure 64
2000
3000
0000
0000
,  // measure 65
0100
1000
0100
1000
,  // measure 66
0000
1000
0010
0000
,  // measure 67
0010
0100
0010
0100
,  // measure 68
0000
0100
0010
0000
,  // measure 69
0010
1000
0010
1000
,  // measure 70
0000
1000
0001
0000
,  // measure 71
0001
0010
0001
0000
,  // measure 72
0001
0100
0010
0000
,  // measure 73
0100
0100
0010
0010
,  // measure 74
1000
1000
0100
0100
,  // measure 75
0010
0001
0010
0000
,  // measure 76
0100
1000
0100
0000
,  // measure 77
1000
0001
1000
0000
,  // measure 78
0001
0100
0001
0000
,  // measure 79
0010
0010
0001
0001
,  // measure 80
0200
0000
0000
0300
,  // measure 81
0010
0000
0010
0000
,  // measure 82
1000
0000
0100
0000
,  // measure 83
1000
0000
1000
0000
,  // measure 84
0010
0000
0100
0000
,  // measure 85
0001
0000
0001
0000
,  // measure 86
0010
0000
0001
0000
,  // measure 87
0100
0000
0100
0000
,  // measure 88
0010
0000
1000
0100
;

//---------------dance-single - ----------------
#NOTES:
     dance-single:
     :
     Medium:
     5:
     0.359,0.441,0.042,0.410,0.000:
1000
0000
0100
0000
0010
0000
0100
2000
,
3000
0000
0000
0000
,
0001
0000
0100
0000
0010
0000
0100
0002
,
0003
0000
0000
0000
0020
0030
0000
0000
,
0100
0000
1000
0000
0001
0000
0010
0002
,
0003
0000
0000
0000
,
0100
0000
0010
0000
0100
0000
0001
0020
,
0030
0000
0000
0000
0200
0300
0000
0000
,
1000
0000
0010
0000
1000
0000
0100
2000
,
3100
0000
0010
0000
0002
0003
0100
0000
,
0010
0000
0100
0000
0001
0000
1000
0002
,
1003
0000
0100
0000
0020
0030
0100
0000
,
1000
0000
0010
0000
0100
0000
0001
0020
,
0031
0000
1000
0000
0020
0030
0100
0000
,
0010
0000
1000
0000
0100
0000
0010
0200
,
0310
0000
0100
0000
2000
3000
0010
0000
,
0000
0000
0000
0000
,
1000
0000
0000
1000
0000
1000
0000
0000
,
0001
0000
0000
0001
0000
0000
0002
0000
,
0000
0000
0000
0000
,
0003
0000
0000
0000
,
0100
0000
0000
0010
0000
0010
0000
0000
,
1000
0000
0000
1000
0000
0000
2000
0000
,
0000
0000
3000
0001
,
0001
0000
0000
0010
0000
0000
0002
0000
,
0000
0000
0003
0100
,
0100
0000
0000
0010
0000
0000
0200
0000
,
0000
0300
0010
0000
,
2000
0000
0000
0000
,
0000
0000
0000
0000
,
3000
0000
0000
0000
,
0000
0000
0000
0000
,
1000
0100
1000
0000
0010
0000
0100
0000
,
0001
0000
0000
0010
0000
0000
0001
0000
,
0100
0000
0000
0100
0000
0000
0200
0000
,
0000
0000
0300
0000
,
0010
1000
0010
0000
1000
0000
0100
0000
,
0010
0000
0000
0010
0000
0000
0010
0000
,
0100
0000
0000
0100
0000
0000
0200
0000
,
0000
0000
0300
0010
,
0001
0000
0000
0100
0000
0000
0002
0000
,
0000
0000
0003
1000
,
1000
0000
0000
0100
0000
0000
0020
0000
,
0000
0030
0100
0000
,
2000
0000
0000
0000
,
0000
0000
0000
0000
,
3001
0000
0000
0001
0000
0000
0001
0000
,
0010
0100
1000
0010
,
0200
0000
0300
0200
0000
0300
0200
0000
,
0300
0200
0000
0300
0200
0000
0300
0000
,
0010
0000
0000
1000
0000
0000
1000
0000
,
0100
0010
0001
0000
,
2000
0000
3000
2000
0000
3000
2000
0000
,
3000
2000
0000
3000
2000
0000
3000
0000
,
0010
0000
0000
0010
0000
0000
0010
0000
,
2000
0000
3000
0000
,
0002
0000
0003
0002
0000
0003
0002
0000
,
0003
0002
0000
0003
0002
0000
0003
0000
,
0001
0000
0000
0100
0000
0000
0100
0000
,
0010
1000
0100
0000
,
0020
0000
0030
0020
0000
0030
0020
0000
,
0030
0020
0000
0030
0020
0000
0030
0000
,
0001
0000
1000
0000
,
0020
0030
0100
0000
0100
0000
0100
0000
,
1002
0000
0000
1000
,
1003
0000
0000
0000
1000
0100
1000
0000
,
0100
0000
0010
0100
0000
0000
0000
0000
,
1000
1000
0001
0001
,
0100
0000
0010
0100
0000
0000
0001
0000
,
0010
0000
0100
1000
0000
0000
0001
0000
,
0200
0000
0000
0000
,
0000
0000
0010
0310
,
0100
0000
0101
0000
,
1010
0000
1100
0000
,
0011
0000
0001
0100
,
0010
0010
0100
0000
,
0001
0000
0010
0000
0100
0000
0010
0001
,
0010
0001
0100
0010
,
2000
0000
0000
0000
,
0000
0000
3000
0000
,
0100
1000
0100
0000
1000
0100
1000
0000
,
0001
0010
0100
1000
,
0001
0100
0001
0000
0100
0001
0100
0000
,
0001
0010
0100
1000
,
0010
0100
0010
0000
1000
0001
1000
0000
,
0001
0010
0100
1000
,
0001
0100
0001
0000
1000
0100
1000
0000
,
0001
0000
0010
0000
0100
0000
1000
0010
;

//---------------dance-single - ----------------
#NOTES:
     dance-single:
     :
     Hard:
     9:
     0.704,0.772,0.050,0.544,0.000:
1000
0100
1000
0010
0001
0010
0100
0001
,
0000
0000
0000
0000
,
0001
0010
0100
0010
0001
0100
0010
0100
,
0000
0000
0000
0000
0001
1000
0100
0010
,
0100
1000
0010
0001
0010
1000
0100
0010
,
0000
0000
0000
0000
0000
0000
0000
0010
,
1000
0010
0001
0100
0010
1000
0100
0010
,
0000
0000
0000
0000
0010
0100
1000
0010
,
0100
0010
1000
0100
0001
0100
1000
0010
,
0100
0100
0001
0010
1000
0010
0001
0100
,
0001
0001
1000
0010
0100
0010
1000
0100
,
1000
1000
0001
0010
1000
0010
0001
0100
,
0010
0010
1000
0100
0001
0100
1000
0010
,
0100
0100
0001
0100
1000
0100
0001
1000
,
0100
0100
1000
0010
0100
0010
1000
0100
,
0010
0010
0001
0100
1000
0100
0010
0100
,
0002
0000
0000
0100
0000
0000
0013
0000
,
0100
0000
1000
0010
0000
0100
0000
0010
,
2000
0000
0000
0100
0000
0000
0200
0000
,
0000
0000
0000
3300
,
0020
0000
0000
0100
0000
0000
0032
0000
,
0203
0000
0010
0010
0000
0302
0000
0000
,
1000
0000
0000
0100
0000
0000
2000
0000
,
0000
0000
3003
1000
,
2000
0000
0000
0200
0000
3000
2000
0000
,
0300
0000
0000
3100
,
0200
0000
0000
0020
0000
0300
0200
0000
,
0030
0300
0020
0000
,
0032
0000
0000
1000
0000
0000
0200
0000
,
0000
0000
0303
0000
,
0020
0000
0000
2000
0000
0030
0200
0000
,
3000
0000
0300
0000
,
0010
0001
0100
0010
1000
0100
0000
0100
,
1000
0000
1000
0010
0000
0100
0000
0100
,
0010
0000
1000
0100
0000
0010
0001
0000
,
0100
0010
0100
0001
0001
0100
0010
0000
,
1000
0100
0001
0100
0000
0100
1000
0010
,
0100
0010
0010
1000
0000
1000
0010
0100
,
0001
0000
0001
0010
0000
0001
0100
0000
,
0010
0100
0010
1000
0100
0000
1000
0000
,
1100
0000
1000
1010
0000
0010
0100
0001
,
0010
0001
0100
0010
0100
0100
0001
0010
,
0011
0000
0001
1001
0000
1000
1010
0000
,
1000
0010
0100
0010
1000
0100
0100
0000
,
2000
0000
0010
3020
0000
0100
0230
0000
,
1000
0000
0301
0010
0100
1000
0100
0000
,
0020
0000
0001
0032
0000
0100
0203
0000
,
0320
2030
3200
0320
,
0230
1000
1300
0200
1000
1300
0100
1000
,
0200
1000
1300
0200
1000
1300
0100
1000
,
0200
1000
1300
0200
1000
1300
0100
1000
,
0100
0010
0100
0010
0001
0100
0010
0000
,
0002
0100
0103
0002
0100
0103
0001
0100
,
0002
0100
0103
0002
0100
0103
0001
0100
,
0002
0100
0103
0002
0100
0103
0001
0010
,
0200
0000
0310
0001
1000
1000
0010
0000
,
0200
0010
0310
0200
0010
0310
0100
0010
,
0200
0010
0310
0200
0010
0310
0100
0010
,
0200
0010
0310
0200
0010
0310
0100
0010
,
1000
0100
0010
0100
0000
0100
1000
0000
,
0002
1000
1003
0002
1000
1003
0001
1000
,
0002
1000
1003
0002
1000
1003
0001
1000
,
0002
1000
1003
0002
1000
1003
0001
1000
,
0002
0010
0100
1003
,
1000
0100
1000
0010
0100
0010
1000
0100
,
0100
0000
0010
0100
1000
0001
0000
0001
,
0100
0010
0100
0001
0000
0010
0001
0010
,
0100
1000
0010
0100
0001
0000
1000
0001
,
1000
0000
1000
0100
0000
0100
0010
0000
,
0100
1000
0010
0100
0010
0000
0200
0000
,
0001
0010
1000
1000
,
0001
1000
0310
0110
,
2000
0100
3100
0000
0020
0001
0031
0000
,
0200
0010
0310
0000
0200
0001
0301
0000
,
2000
0100
3100
0000
0020
0100
0130
1000
,
0000
0010
0100
0010
0000
1000
0100
0010
,
0002
0100
0103
0000
2000
0100
3100
0010
,
1000
0100
0010
0100
0000
0100
1000
0000
,
0010
0100
0001
0010
0100
0010
0010
0000
,
0001
0100
0010
0100
0001
1000
1000
0000
,
0001
0010
0100
1000
0001
0010
0100
1000
,
0010
0100
0001
0001
1000
0100
0010
0010
,
0100
1000
0010
0100
0010
1000
0100
0010
,
0001
0100
0010
0010
0100
0001
0100
0100
,
0001
1000
0100
0001
0100
1000
0010
0001
,
0010
1000
0010
0100
0010
1000
0100
1000
,
0010
0100
0001
0010
1000
0010
0001
0100
,
0010
1000
0100
0100
0010
0001
0100
0100
;
