#TITLE:INFINITE WORLD;
#SUBTITLE:;
#ARTIST:SOUND HOLIC feat. Nana Takahashi;
#TITLETRANSLIT:;
#SUBTITLETRANSLIT:;
#ARTISTTRANSLIT:;
#CREDIT:Grithokskulk;
#BANNER:INFINITE WORLD.png;
#BACKGROUND:INFINITE WORLD-bg.png;
#LYRICSPATH:;
#CDTITLE:grithokskulk.png;
#MUSIC:INFINITE WORLD.mp3;
#OFFSET:0.073;
#SAMPLESTART:58.755;
#SAMPLELENGTH:15.000;
#SELECTABLE:YES;
#BPMS:0.000=167.000;
#STOPS:;
#BGCHANGES:0.063=INFINITE WORLD.avi=1.000=1=0=1,
99999=-nosongbg-=1.000=0=0=0 // don't automatically add -songbackground-
;

//---------------dance-single - ----------------
#NOTES:
     dance-single:
     :
     Easy:
     4:
     0.258,0.308,0.076,0.118,0.000: // measure 1
0000
0000
0000
0000
,  // measure 2
0000
0000
1001
0000
,  // measure 3
0000
0000
1000
0100
,  // measure 4
1000
0000
0000
0000
,  // measure 5
0000
0000
0010
0000
,  // measure 6
0100
0000
0010
0000
,  // measure 7
1000
0000
0100
0000
,  // measure 8
1000
0000
0001
0001
,  // measure 9
0001
0000
0100
0100
,  // measure 10
0100
0000
0010
0000
,  // measure 11
0010
0000
1000
0000
,  // measure 12
0100
0000
0010
0000
,  // measure 13
0100
0000
1000
0000
,  // measure 14
0001
0000
0100
0000
,  // measure 15
0010
0000
0100
0000
,  // measure 16
0001
0000
0010
0000
,  // measure 17
0100
0000
1000
1000
,  // measure 18
2000
3000
0001
0000
,  // measure 19
1000
0000
0010
0010
,  // measure 20
0010
0000
1000
0000
,  // measure 21
0100
0000
1000
1000
,  // measure 22
1000
0000
0001
0000
,  // measure 23
0100
0000
0010
0010
,  // measure 24
0010
0000
1000
0000
,  // measure 25
0100
0000
0010
0000
,  // measure 26
0100
0110
0010
0000
,  // measure 27
0001
0000
1000
0010
,  // measure 28
1000
0000
0001
0000
,  // measure 29
0010
0000
0100
1000
,  // measure 30
0100
0000
1000
0000
,  // measure 31
0010
0000
0100
0000
,  // measure 32
0001
0010
0001
0000
,  // measure 33
0100
0000
0010
0000
,  // measure 34
0100
0100
0020
0030
,  // measure 35
2000
3000
0100
0100
,  // measure 36
0010
0010
0001
0000
,  // measure 37
1000
0000
0020
0000
,  // measure 38
0030
0000
0200
0300
,  // measure 39
0020
0030
1000
1000
,  // measure 40
1000
0000
0100
0000
,  // measure 41
0010
0000
0220
0000
,  // measure 42
0330
0000
1000
1000
,  // measure 43
1000
0000
0001
0001
,  // measure 44
0001
0000
0100
0000
,  // measure 45
0020
0000
0000
0030
,  // measure 46
0000
0000
1000
1000
,  // measure 47
1001
0000
0001
0001
,  // measure 48
1001
0000
1000
0100
,  // measure 49
1000
0001
0200
0000
,  // measure 50
0300
0000
0010
0010
,  // measure 51
0010
0000
0100
0100
,  // measure 52
0100
0000
0001
0010
,  // measure 53
0001
0000
2000
0000
,  // measure 54
0000
3000
0010
0010
,  // measure 55
0110
0000
0100
0100
,  // measure 56
0110
0000
1000
0001
,  // measure 57
1000
0000
0200
0000
,  // measure 58
0000
0300
0010
0000
,  // measure 59
0001
0000
0100
0100
,  // measure 60
0100
0000
0001
0000
,  // measure 61
1000
0000
0100
0100
,  // measure 62
0100
0000
1000
0000
,  // measure 63
0001
0000
0010
0010
,  // measure 64
0010
0000
0001
0000
,  // measure 65
0100
0000
0010
0010
,  // measure 66
0010
0010
1000
0000
,  // measure 67
0100
0000
1000
1000
,  // measure 68
0001
0001
0100
0000
,  // measure 69
0010
0000
1000
1000
,  // measure 70
0010
0010
0100
0000
,  // measure 71
0001
0000
1000
1000
,  // measure 72
0100
0100
0010
0000
,  // measure 73
0100
0000
0220
0000
,  // measure 74
0000
0330
0100
0000
,  // measure 75
1000
0000
0010
0000
,  // measure 76
0100
0000
0001
0010
,  // measure 77
0001
0010
1000
0100
,  // measure 78
1000
0100
1000
0000
,  // measure 79
0010
0000
0100
0000
,  // measure 80
0001
0000
1000
0000
,  // measure 81
1000
0000
0001
0000
,  // measure 82
0100
0000
0110
0000
;

//---------------dance-single - ----------------
#NOTES:
     dance-single:
     :
     Medium:
     6:
     0.479,0.513,0.260,0.311,0.000:
0000
0000
0000
0000
,
0000
0000
1001
0000
,
0000
0000
0000
1000
0000
0001
0000
0100
,
0000
0010
0000
0000
0000
0000
0000
0000
,
0000
0000
2000
0002
0000
0000
0000
0000
,
3003
0000
0000
1000
0000
0100
0000
1000
,
0000
0010
0000
0100
0010
0000
0000
0000
,
0010
0000
1000
0100
,
1000
0010
0100
1001
,
0000
0110
1100
0010
,
0001
0200
1000
0010
,
0001
0000
0310
0000
0100
0000
0001
0001
,
0000
1000
0100
1000
0000
0010
0100
0000
,
0010
0000
1000
0100
0000
0010
0100
0000
,
0010
0001
0100
0010
,
1000
0000
0100
0000
1000
0100
1000
0000
,
0001
0100
0001
0100
0000
0010
0000
1000
,
0000
0002
0000
0003
1000
0000
1100
0000
,
1000
0010
1000
0000
0020
0000
0100
0000
,
1000
0000
0031
0000
0100
0010
0100
0000
,
0001
0010
0001
0000
1000
0100
1000
0000
,
0010
0000
0110
0000
1000
0001
1000
0000
,
0001
0010
0200
0001
,
1000
0000
0310
0000
0001
0010
0001
0000
,
1000
0010
1000
0000
0010
0100
0000
0010
,
0100
0000
1001
0000
1000
0100
1000
0000
,
0010
0100
0000
0100
0010
0000
1000
0000
,
0100
0010
0100
0010
0200
0000
1000
0000
,
0001
0000
1000
1000
,
1300
0000
0010
0000
0001
0100
0001
0000
,
0100
0010
0000
0010
0100
0000
0010
0000
,
1000
0001
1000
0002
0000
0000
1000
0000
,
1003
0000
0000
0000
1000
0010
0100
0001
,
1000
0000
0000
0000
0001
1000
0001
0000
,
1000
0100
1000
0000
0001
0010
0001
0000
,
0100
0000
0110
0000
0010
1000
0010
0000
,
0200
1000
0320
0000
,
0030
0000
0000
0000
0100
0010
0100
0000
,
0001
0100
0001
0000
1000
0000
0100
0000
,
0020
0030
0200
0000
,
0020
0330
0220
0000
,
0330
0000
0000
0000
1000
0100
1000
0000
,
0001
0001
2000
3200
,
0320
0000
0032
0000
0103
0010
0100
0000
,
0001
1000
0100
0010
,
0100
0000
0100
0000
1000
0100
1000
0000
,
2200
0000
3300
0000
0001
0100
0001
0000
,
0202
0000
0303
0000
0010
0100
0010
0000
,
1000
0001
1000
0000
0220
0000
0000
0000
,
0330
0000
0000
0000
1000
0100
1000
0000
,
0001
0100
0001
0000
2000
0000
3200
0000
,
0320
0000
0032
0000
0103
0001
0100
0002
,
0000
0100
0203
0300
,
0010
0100
0010
0000
1000
0100
1000
0000
,
1001
0000
0000
0000
0001
0100
0001
0000
,
1001
0000
0000
0000
0010
0100
0010
0000
,
1000
0001
1000
0000
0200
0000
0000
0000
,
0000
0000
0300
0000
0010
0100
0010
0000
,
1001
0000
1000
0100
,
0010
0000
1001
0000
0001
0100
0001
0000
,
0110
0000
1000
0010
,
0100
0000
0110
0000
1000
0100
1000
0000
,
1001
0000
0001
0010
,
0100
0000
1001
0000
1000
0010
1000
0000
,
0001
0010
0001
0000
0200
0000
0000
0000
,
0310
0000
0010
0000
0010
0100
0010
0000
,
0110
0000
0000
0000
1000
0001
1000
0000
,
1001
0000
0110
0000
1000
0010
1000
0000
,
0110
0000
0000
0000
0001
1000
0001
0000
,
0011
0000
1100
0000
0001
1000
0001
0000
,
0110
0000
0000
0000
0001
0100
0001
0000
,
1010
0110
2000
0000
,
0002
3003
2002
0000
,
0000
3003
1000
0100
,
0010
0100
0010
0000
0100
0000
0010
0000
,
0001
0100
0001
0000
1000
0000
0010
0000
,
0100
0010
0100
0000
0001
0000
1000
0000
,
0100
0000
0000
0000
0100
1000
0100
1000
,
0100
0000
0000
0000
0010
0001
0010
0001
,
0010
0000
0100
0100
,
1000
0000
0000
0000
0010
0100
0010
0000
,
0100
0000
0000
0110
0000
0000
0000
0000
;

//---------------dance-single - ----------------
#NOTES:
     dance-single:
     :
     Hard:
     9:
     0.690,0.616,0.655,0.185,0.050:
0000
0000
0000
0000
,
0000
0000
1001
0000
,
0000
0000
0000
1010
0000
0101
0000
0011
,
0000
1100
0000
0020
0000
0000
0000
0000
,
0000
0030
0100
0010
0000
0100
0001
0010
,
0100
1000
0000
0011
0000
1100
0000
1010
,
0000
0101
0000
0010
0200
0000
0001
0000
,
1000
0000
0310
0000
0100
1000
0100
0010
,
0001
0100
0010
0000
0100
0001
0101
0000
,
1000
0100
1100
0000
1001
0100
0010
0100
,
0001
0010
0000
0001
0010
0100
0010
0001
,
0010
1000
0010
0001
0100
0010
1000
1100
,
0000
0001
0100
0101
0000
1000
0100
0010
,
0100
1000
0010
0110
0000
0001
1000
0100
,
0001
0100
0010
0001
0100
0010
1000
0100
,
0000
0010
0100
0000
0210
0000
1000
0000
,
0000
0000
1300
1001
0000
0101
0000
0110
,
0000
2002
0000
3003
1000
0100
0010
0001
,
0100
0000
0010
0100
0000
0101
0000
1010
,
0000
0100
1000
0010
0000
0100
0100
0000
,
0001
0010
0100
0010
0000
0011
0000
1100
,
0000
1010
0000
0001
0100
0000
0110
0000
,
0010
1000
0100
0010
0000
0100
1000
0100
,
1000
0000
0000
0010
0000
0000
0100
0000
0110
0000
0010
0000
0000
1000
0000
0000
,
0001
0000
0000
0010
0000
0000
0001
0000
0000
0000
1010
0000
0000
0101
0000
0000
,
0011
0000
0000
0110
0000
0000
0000
0000
0010
0000
0001
0000
0100
0000
0000
0000
,
0010
0100
0001
1000
0200
0000
0001
0000
,
1300
0100
0010
0100
0000
0100
1000
0010
,
0100
0001
0000
0110
0000
0010
0100
1000
,
0100
0001
1000
0100
0010
0000
0100
0000
,
0100
1000
0010
0100
0000
0100
0001
1000
,
0100
1000
0010
0100
0000
0100
0010
1000
,
0100
0010
0001
0100
0201
0000
0010
0000
,
0310
0000
0110
0000
1010
0000
1000
0100
,
0010
0000
0010
0001
0100
1000
0100
0001
,
0010
1000
0010
0001
0100
0010
1000
0000
,
0100
0000
0000
0010
0000
0000
0100
0000
1000
0000
0010
0000
0100
0000
0001
0000
,
1001
0000
1000
0100
0020
0000
0130
1000
,
0200
0000
0310
0001
0100
1000
0100
0001
,
1000
0000
0000
0000
1100
0000
0000
0000
0012
0000
0000
0100
0000
0000
0103
0000
,
2010
0000
0000
0100
0000
0000
3100
0000
2002
0000
0000
0000
3003
0000
0000
0000
,
1000
0100
0001
0100
2000
0000
3010
0100
,
0010
1010
0101
0011
,
1100
0000
1001
0000
1000
0010
0001
0010
,
0200
0000
0001
0000
0310
0100
0001
0010
,
0100
0010
0001
0000
0001
0100
0010
1000
,
0001
1000
1001
0000
1000
0100
0001
0100
,
0010
0001
0011
0000
0001
0100
1000
0100
,
0010
0100
0010
1010
0000
0101
0000
0011
,
0001
0100
0010
1000
0200
0000
0001
0000
,
1300
0011
0101
1010
,
0110
0000
1010
0000
1000
0100
0001
0100
,
1000
0000
0010
0100
0000
0100
0001
0010
,
0001
0100
0000
0110
0000
1000
0010
0001
,
0010
1000
0001
0011
0000
0001
0010
0100
,
1000
0010
0100
0110
0000
0010
1000
0100
,
0010
0100
1000
0010
0100
0000
0001
0010
,
0100
0000
0110
0000
1100
0000
0001
0100
,
0010
0000
0100
0101
0000
1010
0000
1000
,
0100
0001
0100
1000
0010
0000
0100
0001
,
0010
0000
0010
0100
0000
0100
1000
0100
,
0001
0100
0010
0000
0001
0000
0100
1000
,
0100
0000
0001
0011
0000
0110
0000
0100
,
1000
0010
0100
0001
0020
0000
0130
0000
,
0002
0000
0103
0000
0010
1000
0100
0010
,
0001
0100
0110
0000
0001
0100
0010
0000
,
1000
0000
0100
0110
0000
1100
0000
1000
,
0010
0001
0010
0100
0001
0010
0100
0000
,
0010
0000
0001
0101
0000
0110
0000
0100
,
1000
0100
0001
0010
0100
0010
0001
0000
,
0100
0000
0010
1010
0000
0101
0000
1000
,
0100
0010
0200
0000
0310
0001
0100
1000
,
0100
0001
0010
1000
0010
0001
0100
0010
,
1000
1000
1001
0000
1000
0100
1000
0100
,
0010
0100
0001
0100
0010
0100
1000
0100
,
0001
0100
1000
0020
0000
0130
0200
0000
,
0301
0010
0100
0020
0000
0031
0100
0001
,
0100
0001
0100
0000
0001
0100
1000
0100
,
0010
1000
0100
0010
0100
0000
0010
0010
,
0000
0000
0001
0000
0100
0000
1000
0000
0000
0000
0100
0000
0000
0010
0000
0000
,
1000
0000
0000
0100
0000
0000
0010
0000
0000
0000
0011
0000
0000
1100
0000
0000
,
1010
0000
0000
0101
0000
0000
0110
0000
1001
0000
0000
0000
0000
0000
0000
0000
;
