#TITLE:Hunny Bunny;
#SUBTITLE:;
#ARTIST:U1 overground;
#TITLETRANSLIT:;
#SUBTITLETRANSLIT:;
#ARTISTTRANSLIT:;
#CREDIT:Grithokskulk;
#BANNER:Hunny Bunny.png;
#BACKGROUND:Hunny Bunny-bg.png;
#LYRICSPATH:;
#CDTITLE:jubeat.png;
#MUSIC:Hunny Bunny.mp3;
#OFFSET:-6.165;
#SAMPLESTART:84.155;
#SAMPLELENGTH:14.980;
#SELECTABLE:YES;
#BPMS:0.000=160.000,170.000=80.000,186.000=160.000;
#STOPS:44.000=1.140
,169.000=1.120
;
#BGCHANGES:;

//---------------dance-single - ----------------
#NOTES:
     dance-single:
     :
     Easy:
     3:
     0.244,0.248,0.000,0.097,0.000: // measure 1
2000
0000
0000
3000
,  // measure 2
0020
0000
0000
0030
,  // measure 3
2000
0000
0000
3000
,  // measure 4
0200
0000
0000
0300
,  // measure 5
0010
0010
0000
0100
,  // measure 6
0010
0000
0000
0000
,  // measure 7
0001
0001
0000
0100
,  // measure 8
0001
0000
0000
0000
,  // measure 9
0010
0010
0000
0100
,  // measure 10
0010
0000
0000
0000
,  // measure 11
1000
1000
0000
0010
,  // measure 12
0010
0100
0100
0100
,  // measure 13
0000
0010
0010
0010
,  // measure 14
0000
1000
1000
1000
,  // measure 15
0000
0100
0100
0100
,  // measure 16
0000
0010
0010
0010
,  // measure 17
0000
0100
0100
0100
,  // measure 18
0000
1000
1000
1000
,  // measure 19
0000
0001
0000
1000
,  // measure 20
1000
0010
0100
0010
,  // measure 21
0000
0100
0001
0100
,  // measure 22
0000
0001
0010
0001
,  // measure 23
0000
1000
0000
1000
,  // measure 24
1000
0100
1000
0100
,  // measure 25
0000
0010
0100
0010
,  // measure 26
0000
0001
1000
0001
,  // measure 27
0000
0200
0000
0020
,  // measure 28
0330
0100
0000
0010
,  // measure 29
0100
0010
0000
1000
,  // measure 30
0010
1000
0000
0001
,  // measure 31
0010
0001
0000
0100
,  // measure 32
0001
0100
0000
0010
,  // measure 33
1000
0010
0000
1000
,  // measure 34
0100
1000
0000
0001
,  // measure 35
0010
0001
0000
1000
,  // measure 36
0000
0010
0100
0010
,  // measure 37
0100
0001
0010
0001
,  // measure 38
0000
1000
0100
1000
,  // measure 39
0100
1000
0010
1000
,  // measure 40
0000
0010
0100
0010
,  // measure 41
0100
0001
0100
0001
,  // measure 42
0100
0001
0010
0001
,  // measure 43
0010
0100
0020
0000
,  // measure 44
0130
0000
2000
0000
,  // measure 45
3001
0000
0200
0000
,  // measure 46
0301
0000
0020
0000
,  // measure 47
0200
0330
1000
0100
,  // measure 48
1000
0100
0010
0001
,  // measure 49
0010
0000
0001
0100
,  // measure 50
0001
0100
0010
1000
,  // measure 51
0010
0000
1000
0100
,  // measure 52
1000
0100
0010
0100
,  // measure 53
0010
0000
0001
1000
,  // measure 54
0001
1000
0010
0100
,  // measure 55
0010
0000
0100
0100
,  // measure 56
0000
0010
0100
0000
,  // measure 57
0001
1000
0100
0100
,  // measure 58
0000
0010
0100
0000
,  // measure 59
1000
0001
0100
0100
,  // measure 60
0001
0001
0010
0010
,  // measure 61
0001
0001
1000
0010
,  // measure 62
1000
0010
0100
0001
,  // measure 63
0100
0001
1000
0000
;

//---------------dance-single - ----------------
#NOTES:
     dance-single:
     :
     Medium:
     6:
     0.452,0.442,0.186,0.071,0.000:
2000
0000
0000
0000
,
3002
0000
0000
0000
,
0203
0000
0000
0000
,
0320
0000
0000
0030
,
1000
0010
1000
0000
0001
0000
0011
0000
,
1100
0000
0001
0000
0100
0010
0100
0000
,
0001
0010
0001
0000
1000
0000
1010
0000
,
1100
0000
1000
0000
0010
0100
0010
0000
,
1000
0001
1000
0000
0001
0000
0011
0000
,
0110
0000
0010
0000
0001
0100
0001
0000
,
0100
0010
0100
0000
0001
1000
0001
0000
,
0010
0000
0100
0010
0100
0000
1100
0000
,
0011
0000
0100
0000
0001
0100
0010
0000
,
0100
0000
0001
0010
0001
0000
0011
0000
,
1100
0000
1000
0000
0010
1000
0100
0000
,
0010
0000
0100
1000
0100
0000
0001
0001
,
0001
0000
0100
0010
0100
0000
0010
0010
,
0010
0000
1000
0010
1000
0000
0100
1000
,
0100
0000
0010
0100
0010
0000
0001
0010
,
0001
0000
0100
0010
0100
0000
0001
0000
,
1000
0000
0100
1000
0100
0000
1000
0000
,
0010
0000
0100
0010
0100
0000
0001
0000
,
0010
0000
0001
0100
0010
0000
0100
0010
,
1000
0000
0100
1000
0100
0000
1000
0000
,
0001
0000
0100
0010
0100
0000
0001
0000
,
0010
0000
0001
0100
0001
0000
1000
0100
,
1000
0000
0010
0100
0010
0100
0010
0000
,
1001
0000
1000
0100
1000
0000
1100
0000
,
0011
0000
0001
0100
0010
0000
0100
0000
,
0001
0000
0010
0100
0010
0000
1100
0000
,
0011
0000
1000
0010
0100
0000
0010
0000
,
1000
0000
0100
1000
0100
0000
0010
0001
,
0010
0000
0001
0100
0001
0000
1000
0010
,
1000
0000
0100
1000
0100
0000
1000
0010
,
1000
0000
0001
0010
0100
0010
0001
0000
,
1001
0000
0100
0010
0000
0100
0000
0001
,
0000
0010
0100
0010
0100
0000
0010
0000
,
0110
0000
1000
0001
0000
1000
0000
0100
,
1000
0100
1000
0000
0010
0000
1000
0000
,
0001
0000
0010
0001
0010
0001
0000
0001
,
0000
0100
0000
0100
0000
0010
0000
0010
,
1000
0000
0100
1000
0100
1000
0000
1000
,
0000
0010
0100
0000
0010
0020
0000
1000
,
0001
0000
0030
0000
0100
0200
0000
1000
,
0001
0000
0300
0000
0001
0002
0000
0010
,
0100
0000
0003
0000
1000
2000
0000
0100
,
0010
0000
3010
0100
0001
1000
0001
0000
,
0010
0100
0010
0000
0001
0010
0001
0100
,
0001
0000
1000
0000
0100
1000
0010
0000
,
0010
1000
0100
0000
1000
0010
0100
0010
,
1000
0000
1001
0000
0001
0010
0100
0000
,
0100
1000
0010
0000
0010
0100
0010
1000
,
0010
0000
1001
0000
1000
0100
1000
0000
,
0001
0100
0001
0000
0010
0100
0010
0001
,
0100
0000
0110
0000
0100
0001
0100
0000
,
0001
1000
0001
0000
1000
0100
1000
0000
,
0100
0010
0100
1000
0010
0100
0010
0000
,
0100
0001
0100
0000
0001
0010
0001
0000
,
1000
0001
0010
0001
1000
0100
1000
0000
,
0010
1000
0010
0000
0100
0001
0100
0000
,
0001
0010
0001
0000
1000
0010
1000
0010
,
0100
0001
0100
0001
0010
0001
0010
0001
,
0010
0100
0010
0000
1001
0000
0000
0000
;

//---------------dance-single - ----------------
#NOTES:
     dance-single:
     :
     Hard:
     8:
     0.622,0.552,0.265,0.115,0.256:
0100
0010
0100
0001
0100
0010
0100
0000
,
0010
1000
0010
0100
0010
1000
0010
0000
,
0100
1000
0100
0001
0010
1000
0010
0001
,
0200
0000
0000
0000
0010
0010
0310
0000
,
1010
0000
0101
0000
0010
0001
0011
0000
,
1100
0000
1000
0010
0100
0010
1000
0100
,
0011
0000
1100
0000
1000
0001
1001
0000
,
0110
0000
0000
0000
0001
0000
0010
0000
0100
0010
0000
0100
0010
0000
0001
0000
,
0101
0000
0110
0000
1000
0100
1100
0000
,
0011
0000
0000
0000
1000
0000
0100
0000
0010
0100
0000
0010
0100
0000
1000
0000
,
0010
0100
0000
0010
0100
0000
0001
0010
0000
0001
0010
0000
0001
1000
0000
0001
,
2000
0000
0000
0000
3010
0000
0100
0000
0001
0000
0000
0001
0010
0000
0100
0000
,
0010
0000
0001
0000
0100
0000
0000
0100
0000
0000
0100
0000
0010
0000
0100
0000
,
0002
0000
0000
0000
1003
0000
0100
0000
0010
0000
0000
0010
0100
0000
1000
0000
,
0010
0100
0020
0000
1000
0000
0001
0000
,
0100
0030
0000
0000
1000
0000
0100
0000
0010
0000
0100
0000
0100
0000
0010
0000
,
0001
0001
0020
0000
0001
0000
1000
0000
,
0130
0000
1000
0010
0010
0100
0010
0010
,
0001
0010
0010
0100
0010
0010
1000
0001
,
1001
0000
0000
0000
1000
0000
0000
1000
0100
0000
0010
0000
0100
0000
0000
0100
,
1000
0000
0010
0000
0100
0000
0000
0100
0010
0000
1000
0000
0100
0000
0000
0100
,
0010
0000
0000
0010
0001
0000
0000
0001
0100
0000
0010
0000
0100
0000
0000
0100
,
0001
0000
0010
0000
0100
0000
0000
0100
0010
0000
0001
0000
0100
0000
0000
0100
,
0010
0000
0000
0010
1000
0000
0000
1000
0100
0000
1000
0000
0010
0000
0000
0010
,
0100
0000
0001
0000
0010
0000
0000
0010
0001
0000
0100
0000
1000
0000
0000
1000
,
0100
0000
0000
0100
0001
0000
0010
0000
0001
0000
0000
0000
1000
0000
0010
0000
,
1000
0000
0010
0000
0100
0000
0001
0000
0100
0000
0001
0000
0010
0100
0010
0100
,
0010
0000
0000
0000
0001
0000
1000
0000
0010
0000
0000
0010
0100
0000
0000
0000
,
0010
1000
0200
0000
0001
0000
1000
0000
,
0310
0000
0000
0000
0001
0000
0100
0000
0010
0000
0000
0010
0100
0000
0001
0000
,
0010
1000
0011
0000
1100
0001
0100
0000
,
0110
0000
0000
0000
0001
0000
0000
0001
0100
0000
0010
0000
0100
0000
0000
0100
,
0001
0010
0200
0000
1300
0000
1000
0010
,
0100
0000
0001
0010
0010
0100
0010
0010
,
1000
0010
0010
0001
0010
0010
0100
0010
,
0110
0000
0000
0000
0001
0000
0010
0000
0001
0000
0100
0000
0001
0010
0000
0001
,
0100
0010
0110
0000
1001
0000
0110
0000
,
1001
0000
0000
0000
1000
0000
0100
0000
1000
0000
0001
0000
1000
0100
0000
1000
,
0010
0100
0110
0110
0110
0000
1001
0000
,
1001
0000
0001
0100
0001
1000
0100
1000
,
0001
0010
0001
1000
0010
1000
0001
0010
,
0100
1000
0001
0100
0001
1000
0100
1000
,
0001
0010
0001
0000
2001
0001
0000
0100
,
0020
0000
3030
0000
0210
0010
0000
1000
,
0002
0000
0303
0000
0021
0001
0000
1000
,
0002
0033
0100
0001
,
0010
0100
0010
1001
0100
1000
0100
0000
,
1000
0010
1000
0000
0010
0100
0010
0000
1000
0000
0001
0000
1000
0000
0000
0000
,
0001
0010
0001
0000
0010
0100
0010
0000
0001
0000
0100
0000
0010
0000
0000
0000
,
1000
0100
1000
0000
0001
0100
0001
0000
0010
0000
0100
0000
0010
0000
0001
0000
,
0100
0010
0100
0001
0010
0100
1000
0000
,
0010
1000
0010
0000
0100
0010
0100
0000
0001
0000
0010
0000
0100
0000
0010
0000
,
0001
0100
0100
0000
0001
0010
1000
0010
,
0001
0100
1000
0100
0001
0010
0100
1000
,
0010
0000
0100
0000
0001
1000
0001
1000
0001
0000
0000
0001
0010
0000
0000
0000
,
0001
0000
0100
0000
0010
0000
0000
0010
0100
0000
0000
0000
0001
0000
0100
0000
,
0001
0010
0001
0000
1000
0010
1000
0000
0100
0000
0000
0100
1000
0000
0000
0000
,
0010
0000
0100
0000
0010
0000
0000
0010
1000
0000
0000
0000
0100
0000
1000
0000
,
0001
0010
0001
0000
1000
0010
1000
0000
0001
0000
0100
0000
1000
0000
0100
0000
,
0001
0010
0100
0010
0001
1000
0100
0001
,
0100
1000
0100
0000
0010
1000
0010
0001
,
0010
0100
0010
0001
0100
1000
0100
0010
,
0100
0000
0001
0000
0010
0100
0010
0100
0010
0000
0000
0000
0000
0000
0000
0000
;
