#TITLE:Hayate;
#SUBTITLE:;
#ARTIST:Power Of Nature;
#TITLETRANSLIT:;
#SUBTITLETRANSLIT:;
#ARTISTTRANSLIT:;
#CREDIT:Grithokskulk;
#BANNER:Hayate.png;
#BACKGROUND:Hayate-bg.png;
#LYRICSPATH:;
#CDTITLE:pop'n music.png;
#MUSIC:Hayate.mp3;
#OFFSET:-5.715;
#SAMPLESTART:16.360;
#SAMPLELENGTH:15.000;
#SELECTABLE:YES;
#BPMS:0.000=180.000;
#STOPS:;
#BGCHANGES:;

//---------------dance-single - ----------------
#NOTES:
     dance-single:
     :
     Easy:
     3:
     0.265,0.270,0.210,0.088,0.000: // measure 1
0000
1001
0000
0000
,  // measure 2
0110
0000
0000
0100
,  // measure 3
0000
1001
0000
0000
,  // measure 4
0110
0000
0000
0001
,  // measure 5
2000
0000
0000
3000
,  // measure 6
0020
0000
0000
0030
,  // measure 7
0200
0000
0000
0300
,  // measure 8
0020
0000
0000
0030
,  // measure 9
1000
1000
0001
0001
,  // measure 10
0000
0010
0000
0100
,  // measure 11
0010
0010
0001
0001
,  // measure 12
0100
0100
0000
0000
,  // measure 13
0001
0001
1000
1000
,  // measure 14
0000
0010
0000
1000
,  // measure 15
0100
0100
0010
0010
,  // measure 16
0001
0001
0100
0100
,  // measure 17
0000
0010
0010
0000
,  // measure 18
0100
0100
0000
1001
,  // measure 19
0000
0010
0010
0000
,  // measure 20
0001
0001
0000
1001
,  // measure 21
1000
0000
0010
1000
,  // measure 22
0100
0000
0010
0000
,  // measure 23
0100
0100
0010
0010
,  // measure 24
0001
0001
0000
1000
,  // measure 25
1000
0000
0010
0000
,  // measure 26
0100
0000
0010
0000
,  // measure 27
1000
1000
0001
0001
,  // measure 28
0010
0010
0100
0100
,  // measure 29
0000
1001
0000
0000
,  // measure 30
0100
0010
0100
0000
,  // measure 31
0000
0011
0000
0000
,  // measure 32
1000
0010
0100
0000
,  // measure 33
0000
1001
0000
0000
,  // measure 34
0010
0100
1000
0000
,  // measure 35
0000
1010
0000
0000
,  // measure 36
1000
0001
0010
0000
,  // measure 37
0002
0003
0200
0000
,  // measure 38
0300
0001
0010
0100
,  // measure 39
0020
0030
0002
0000
,  // measure 40
0000
0003
0200
0300
,  // measure 41
0010
0000
0110
0000
,  // measure 42
1000
0000
1001
0000
,  // measure 43
0010
0001
0010
0000
,  // measure 44
0001
1000
0001
0000
,  // measure 45
0000
0100
0100
0000
,  // measure 46
0010
0010
0000
1001
,  // measure 47
0000
1000
1000
0000
,  // measure 48
0001
0001
0000
1001
,  // measure 49
0100
0000
0010
0000
,  // measure 50
1000
0000
0100
0000
,  // measure 51
0010
0000
0100
0000
,  // measure 52
0010
0000
0001
0000
,  // measure 53
1000
0000
0010
0000
,  // measure 54
0100
0000
0001
0000
,  // measure 55
0010
0000
0001
0000
,  // measure 56
0100
0000
0001
0000
,  // measure 57
1001
0000
0000
0000
,  // measure 58
0110
0000
0000
0000
,  // measure 59
0101
0000
0010
0000
,  // measure 60
0100
0200
0000
0300
,  // measure 61
0110
0000
0000
0000
,  // measure 62
1001
0000
0000
0000
,  // measure 63
1010
0000
0010
0000
,  // measure 64
0100
0000
0010
0000
,  // measure 65
1000
1000
0001
0001
,  // measure 66
0010
0000
0001
0000
,  // measure 67
0100
0010
0100
0001
,  // measure 68
1000
0000
0100
0000
,  // measure 69
0010
0010
0100
0100
,  // measure 70
1000
0000
0001
0000
,  // measure 71
0100
0100
0010
0010
,  // measure 72
0100
0000
0001
0000
,  // measure 73
0010
0100
1000
0100
,  // measure 74
0000
0110
0000
0000
,  // measure 75
1001
0000
0000
0010
,  // measure 76
0010
0101
0000
0000
,  // measure 77
1001
0000
0000
0100
,  // measure 78
0100
0000
0000
0000
;

//---------------dance-single - ----------------
#NOTES:
     dance-single:
     :
     Medium:
     7:
     0.521,0.572,0.456,0.201,0.000:
1000
1000
1000
1000
,
1000
1000
1000
1000
,
0001
0001
0001
0001
,
0001
0001
0001
0001
,
0200
0000
0320
0000
,
0230
0000
0302
0000
,
0023
0000
0230
0000
,
0320
0000
0032
0000
,
0103
0000
0100
0000
0010
0100
0010
0100
,
0000
0010
0000
1000
,
0100
0110
0010
0011
,
0001
0101
0000
0000
,
0100
0010
0100
0000
0001
0000
1000
0000
,
0100
1000
0100
0000
0010
0000
0100
0000
,
1000
1010
0010
0110
,
0100
0101
0001
0011
,
0000
0100
0010
0100
0010
0100
0000
0001
,
1000
0001
1000
0001
0000
0100
0010
0100
,
0000
0010
1000
0010
1000
0010
0000
0100
,
0001
0100
0001
0100
0000
0001
0010
0001
,
0010
0000
0000
0000
0100
0010
0100
0010
,
0000
1000
0000
0001
,
0100
0010
0100
0000
0001
1000
0001
0000
,
0010
0110
0000
0000
,
0001
0010
0001
0000
1000
0000
0010
0100
,
0000
0010
0000
0100
,
1001
1001
0110
0110
,
1001
0110
1001
0110
,
0002
0000
0013
0000
0100
0010
0100
0000
,
1000
0000
0010
0000
0100
0001
0100
0001
,
2000
0000
3100
0000
0010
0100
0010
0000
,
0100
0000
1000
0000
0001
1000
0001
0000
,
0101
0000
1000
0000
0100
0010
0100
0000
,
0100
1000
0010
0100
,
0001
0000
1000
0001
1000
0000
0001
0000
,
0010
0000
0100
0000
0010
0001
0010
0000
,
0002
0100
0203
0010
,
0010
0320
2030
3200
,
0320
0100
0230
1000
,
2300
0100
3200
0310
,
0010
0001
0010
0001
0000
0000
1001
0000
,
0001
0100
0001
0100
0000
0000
0110
0000
,
0010
1000
0010
0000
1000
0100
1000
0000
,
1001
1001
0110
0110
,
0000
0001
1000
0001
1000
0001
0000
0100
,
0010
0100
0010
0100
0000
0001
0100
0001
,
0000
1000
0100
1000
0100
1000
0000
0001
,
0010
0001
0010
0001
0000
0100
0010
0100
,
0010
0000
0000
0110
,
0000
1001
0000
0000
0101
0000
0101
0000
,
1001
0000
0000
1100
,
0000
0110
0000
0000
0100
0100
0100
0100
,
0010
0000
0000
0011
,
0000
1001
0000
0000
1010
0000
1010
0000
,
0110
0000
0000
1001
,
0000
0110
0000
0000
0010
0010
0010
0010
,
0200
0000
0000
0010
0000
0310
0000
0000
,
0020
0000
0000
0100
0000
0130
0000
0000
,
1000
0010
0100
0001
,
0010
0100
0010
0000
1001
0000
0000
0000
,
0002
0000
0000
0100
0000
0103
0000
0000
,
0020
0000
0000
0100
0000
0130
0000
0000
,
0101
1010
1000
0100
,
1100
0011
0001
1000
,
0110
0110
1001
1001
,
0110
0000
0001
0010
0100
1000
0010
0000
,
0100
0010
0100
0000
0001
1000
0001
0000
,
1100
0000
1000
0010
0100
0001
1000
0000
,
0100
0010
0100
0000
1100
0000
0011
0000
,
1001
0000
0001
0100
0001
0100
0001
0000
,
1000
0100
0010
0001
,
1001
0000
0010
0100
0010
0100
0001
0000
,
1000
0000
0100
0000
0010
0100
1000
0000
,
0000
0010
0010
0010
0010
0010
0000
0100
,
0100
0100
0100
0100
0000
0001
0001
0001
,
0000
1000
1000
1000
1000
1000
0000
0100
,
0100
0100
0100
0100
0000
0010
0010
0010
;

//---------------dance-single - ----------------
#NOTES:
     dance-single:
     :
     Challenge:
     10:
     0.833,0.943,0.578,0.237,0.337:
0000
0100
0100
0100
0100
0110
0000
0001
,
0001
0001
0001
0011
0000
0010
0010
0010
,
0000
0100
0100
0100
0100
0110
0000
1000
,
1000
1000
1000
1001
0000
0100
0100
0100
,
0010
0100
0010
0000
1000
0000
0000
0000
0100
0000
0000
0001
0000
0000
0100
0000
,
0010
0000
0000
0000
0001
0000
0000
0000
0100
0000
0000
0010
0000
0000
0100
0000
,
0001
0000
0000
0000
1000
0000
0000
0000
0100
0000
0000
1000
0000
0000
0010
0000
,
0100
0000
0000
0000
0010
0000
0000
0000
1000
0000
0000
0001
0000
0000
0010
0000
,
0100
0000
0010
0001
0010
0000
0000
0000
0001
0000
0100
0000
1000
0000
0100
0000
,
0000
0000
0010
0100
0010
0000
0000
0000
1000
0000
0001
0000
0001
0000
0000
0000
,
1000
0000
0001
0010
0001
0000
1000
0010
1000
0000
0001
0100
0001
0000
1000
0000
,
0100
0000
1000
0010
1000
0000
0000
0000
0010
0000
0010
0000
0010
0000
0000
0000
,
0100
0000
0010
0100
0010
0000
0000
0000
0100
0000
0001
0000
0010
0000
0100
0000
,
0000
0000
0010
0001
0010
0000
0000
0000
0001
0000
0100
0000
0100
0000
0000
0000
,
0010
0100
0010
0000
1000
0001
1000
0000
0001
0010
0001
0000
1000
0100
1000
0000
,
0010
1000
0010
0000
0100
0001
0100
0000
0001
0010
0001
0000
1000
0010
1000
0000
,
0000
0010
0010
0010
0010
0110
0000
0100
,
0100
0100
0100
1100
0000
0001
0001
1001
,
0000
1000
1000
1000
1000
1010
0000
0100
,
0100
0100
0100
0101
0000
0010
0010
0110
,
0010
0000
0001
0100
0001
0000
0000
0000
1000
0000
0100
0000
0010
0000
0100
0000
,
0000
0000
1000
0010
1000
0000
0000
0000
0010
0000
0100
0000
0100
0000
0000
0000
,
0001
0000
0010
0001
0010
0000
0001
1000
0001
0000
0100
0010
0100
0000
0001
0000
,
0010
0000
0100
0010
0100
0000
0000
0000
1000
0000
1000
0000
1000
0000
0000
0000
,
0001
0000
0100
0010
0100
0000
0000
0000
0001
0000
0010
0000
0100
0000
0010
0000
,
0000
0000
0001
1000
0001
0000
0000
0000
0100
0000
0010
0000
0010
0000
0000
0000
,
1000
0010
1000
0000
0001
0010
0001
0000
1000
0100
1000
0000
0001
0100
0001
0000
,
1000
0010
1000
0000
0100
1000
0100
0000
0010
0001
0010
0000
0001
0100
0001
0000
,
0100
0000
0000
0000
0010
0100
0010
0100
0010
0000
1000
0000
0100
0000
0010
0000
,
0100
1000
0010
0200
0000
0010
0010
0310
,
0100
0000
0000
0000
0001
0010
0001
0010
0001
0000
0010
0000
0100
0000
0010
0000
,
0001
1000
0010
0200
0000
0001
0001
0301
,
1000
0000
0000
0000
0100
0010
0100
0010
0100
0000
1000
0000
0010
0000
0001
0000
,
0010
0100
0001
0020
0000
0100
0100
0130
,
0010
0000
0000
0000
0001
0100
0001
0100
0001
0000
0100
0000
0010
0000
1000
0000
,
0100
0001
0100
2000
0000
0010
0010
3010
,
0200
0000
1300
0100
0002
0000
0013
1000
,
0010
0200
0320
0032
,
0203
0000
0310
0100
0002
0000
1003
0100
,
0002
0000
0103
1000
0010
0100
0001
0000
,
1010
0010
0100
0101
0000
0001
0010
0100
,
1100
1000
0010
0110
0000
0001
0010
0100
,
0110
0010
0001
0100
0010
1000
0100
0010
,
0001
0001
0010
0010
0100
0100
1000
1000
,
0000
0001
0001
0001
0001
1001
0000
0100
,
0100
0100
0100
0110
0000
0001
0001
0101
,
0000
1000
1000
1000
1000
1100
0000
0001
,
0001
0001
0001
0011
0000
0010
0010
0110
,
0020
0000
0031
0100
1000
0000
0200
0000
,
0310
2000
0100
3000
0001
0100
0010
0001
,
0200
0000
1300
0100
0001
0010
2000
0000
,
3010
0200
0010
0300
0001
0001
0001
0001
,
0200
1000
0310
0000
0010
2000
0100
3000
,
0001
0100
1000
0010
0001
0010
0100
1000
,
0200
0000
0301
0010
0100
0000
0020
0001
,
0130
2000
0100
3000
0010
0010
0010
0010
,
0100
0010
0100
0000
0000
0000
1001
0000
0000
0000
1100
0000
0000
0000
0011
0000
,
1000
0100
1000
0000
0000
0000
1001
0000
0000
0000
0110
0000
0000
0000
0101
0000
,
0010
0000
0100
0010
0100
0000
0010
1000
0010
0000
1000
0100
1000
0000
0110
0000
,
0000
0000
1100
0000
0000
0000
1002
0000
0100
0000
0000
0100
0000
0000
0103
0000
,
0010
0100
0010
0000
0000
0000
0101
0000
0000
0000
1010
0000
0000
0000
1100
0000
,
0001
0010
0001
0000
0000
0000
0110
0000
0000
0000
1001
0000
0000
0000
0110
0000
,
0001
0100
0001
0000
1000
0100
1000
0000
0001
0010
0001
0000
1000
0010
1000
0000
,
0010
0100
0010
0000
1000
0001
1000
0000
0100
0010
0100
0000
1000
0001
1000
0000
,
0001
0010
0100
0000
1000
0010
0100
0000
0001
0100
0010
0000
1000
0100
0010
0000
,
1001
0000
0000
0000
0001
0010
0100
0010
0001
0000
0010
0000
0100
0000
1000
0000
,
0010
0100
0010
2000
0000
0100
0100
3100
,
0110
0000
0000
0000
0001
0010
0100
1000
0010
0000
0100
0000
1000
0000
0100
0000
,
0001
0010
0100
0020
0000
0001
0001
0031
,
1001
0000
0000
0000
1000
0010
0100
0010
1000
0000
0010
0000
0100
0000
0001
0000
,
0010
0000
1000
0000
0010
0000
0001
0000
1000
0000
0010
0000
,
0110
0000
0000
0000
1000
0010
0100
0001
0010
0000
0100
0000
0010
0000
0001
0000
,
0100
0001
0100
0020
0000
1000
1000
1030
,
0000
0110
0110
0110
0110
0101
0000
1001
,
1001
1001
1001
1100
0000
0110
0110
0110
,
0000
0011
0011
0011
0011
1001
0000
1010
,
1010
1010
1010
1001
0000
1100
1100
0110
;

//---------------dance-single - ----------------
#NOTES:
     dance-single:
     :
     Hard:
     8:
     0.677,0.606,0.342,0.131,0.074:
0000
0100
0100
0100
0100
0010
0000
1000
,
1000
1000
1000
0100
0000
0010
0010
0010
,
0000
0100
0100
0100
0100
0010
0000
0100
,
0100
0100
0100
1000
0000
0001
0001
0001
,
0100
0000
0000
0000
0010
0000
0000
0100
0000
0000
0001
0000
0000
0000
1000
0000
,
0100
0000
0000
0000
0010
0000
0000
0100
0000
0000
0010
0000
0000
0000
0100
0000
,
1000
0000
0000
0000
0010
0000
0000
0000
0100
0000
0000
1000
0000
0000
0100
0000
,
0010
0000
0000
0000
1000
0000
0000
0000
0100
0000
0000
0010
0000
0000
0100
0000
,
0010
0000
0110
0000
0010
0001
0100
0020
,
0000
0100
0130
0000
0001
0010
0100
0000
,
0010
0001
0010
0100
0010
1000
0010
0100
,
0010
0001
0010
0000
0100
0010
0110
0000
,
1000
0010
1010
0000
1000
0010
0001
0020
,
0000
0100
0130
0000
0001
0010
0100
0000
,
0010
0001
0010
0001
0100
0001
0100
0001
,
0100
0010
0100
0010
1000
0010
1000
0010
,
0000
0100
0100
0100
0100
0010
0000
1000
,
1000
1000
1000
0100
0000
0010
0010
0010
,
0000
0001
0001
0001
0001
0010
0000
0001
,
0001
0001
0001
0100
0000
0001
0001
0001
,
1000
0100
0010
0000
0100
1000
0010
0200
,
0000
0010
0310
0000
0100
0010
1010
0000
,
1000
0100
0001
0100
1000
0010
0001
0010
,
0100
0010
1000
0000
0001
1000
1001
0000
,
0010
0100
0010
0000
0100
0010
0001
0200
,
0000
0010
0310
0000
0100
0001
1001
0000
,
1000
1000
0100
0100
0010
0010
0100
0100
,
1000
1000
0010
0010
0001
0001
0010
0010
,
0100
0000
0001
0010
0100
1000
0100
0010
,
0100
1100
0001
0101
,
1000
0000
0010
0001
0010
0100
0001
0010
,
0100
0010
0001
0200
0000
0010
0310
0000
,
0110
0000
0001
0010
1000
0010
0100
1000
,
0010
0100
0010
2000
0000
0001
3001
0000
,
0011
0000
0100
0010
0100
1000
0010
0001
,
0010
0100
0001
0020
0000
0100
0130
0010
,
0002
1000
0203
1000
,
0010
0302
0023
0230
,
0320
1000
0032
0100
,
0023
1000
0031
1001
,
0001
0010
0100
1001
0000
1000
0010
0001
,
0010
0100
0001
1001
0000
1000
0100
0010
,
0100
0100
1000
1000
0010
0010
0100
0100
,
0101
1010
1100
0011
,
0000
0100
0100
0100
0100
0010
0000
0100
,
0100
0100
0100
1000
0000
0100
0100
0100
,
0000
0010
0010
0010
0010
0001
0000
0010
,
0010
0010
0010
1000
0000
0010
0010
0010
,
0100
0000
0010
0001
0010
0000
0011
0000
,
0001
0100
0010
0000
0100
0001
0100
0000
,
0110
0000
1000
0100
0001
0000
0110
0000
,
0100
1000
0010
0000
0100
0100
0100
0100
,
0010
0000
1000
0010
0100
0000
0101
0000
,
1000
0100
0010
0000
1100
0000
0011
0000
,
0001
0000
0100
1000
0100
0000
0110
0000
,
0010
1000
0100
0000
0010
0010
0010
0010
,
0100
0010
0100
0000
0000
0000
0011
0000
0000
0000
1010
0000
0000
0000
0010
0000
,
0100
0001
0100
0000
0000
0000
1001
0000
0000
0000
1010
0000
0000
0000
0100
0000
,
0010
0100
1000
0010
0100
0001
0010
0110
,
0000
0000
0011
0000
0000
0000
1100
0000
0010
0000
0000
0100
0000
0000
0001
0000
,
0010
0100
0010
0000
0000
0000
1001
0000
0000
0000
0110
0000
0000
0000
1000
0000
,
0010
0100
0010
0000
0000
0000
1010
0000
0000
0000
0101
0000
0000
0000
0010
0000
,
0100
0100
0010
0010
0001
0001
0100
0100
,
1000
1000
0100
0100
0001
0001
0010
0010
,
0100
0100
0010
0010
0001
0001
1000
1000
,
1010
0000
0000
0000
0100
0010
0100
0000
0001
0000
0010
0000
0100
0000
0010
0000
,
0001
1000
0010
0100
0000
0010
0010
0000
,
0110
0000
0000
0000
1000
0001
1000
0000
0001
0000
0010
0000
0100
0000
0010
0000
,
0001
0100
0010
0100
0000
0001
0001
0000
,
1001
0000
0000
0000
1000
0100
1000
0000
0100
0000
0010
0000
0100
0000
1000
0000
,
0010
0000
0100
0000
0001
0000
1000
0000
0100
0000
0010
0000
,
0110
0000
0000
0000
0010
0001
0010
0000
0001
0000
0100
0000
0010
0000
0100
0000
,
0001
0010
1000
0010
0000
0100
0100
1000
,
0000
0010
0010
0010
0010
0100
0000
0010
,
0010
0010
0010
1000
0000
0010
0010
0010
,
0000
0100
0100
0100
0100
1000
0000
0100
,
0100
0100
0100
0001
0000
0010
0010
0100
;
