#TITLE:Gyogyotto ningyo bakkon bridal;
#SUBTITLE:;
#ARTIST:Umi no soko kara mermaid Prim by ARM x Kitsune musou;
#TITLETRANSLIT:;
#SUBTITLETRANSLIT:;
#ARTISTTRANSLIT:;
#CREDIT:Grithokskulk;
#BANNER:Gyogyotto ningyo bakkon bridal.png;
#BACKGROUND:Gyogyotto ningyo bakkon bridal-bg.png;
#LYRICSPATH:;
#CDTITLE:beatmania IIDX.png;
#MUSIC:Gyogyotto ningyo bakkon bridal.mp3;
#OFFSET:0.578;
#SAMPLESTART:65.375;
#SAMPLELENGTH:15.000;
#SELECTABLE:YES;
#BPMS:0.000=169.000,290.000=84.500,303.000=169.000;
#STOPS:290.000=0.740
;
#BGCHANGES:0.500=Gyogyotto ningyo bakkon bridal.avi=1.000=1=0=1,
99999=-nosongbg-=1.000=0=0=0 // don't automatically add -songbackground-
;

//---------------dance-single - ----------------
#NOTES:
     dance-single:
     :
     Easy:
     4:
     0.278,0.380,0.287,0.189,0.000: // measure 1
0000
0000
0000
0000
,  // measure 2
0000
0000
0000
0000
,  // measure 3
0000
0000
0000
0000
,  // measure 4
0000
0000
0000
0000
,  // measure 5
0000
0000
2000
0000
,  // measure 6
0000
3000
0002
0000
,  // measure 7
0000
0003
0200
0000
,  // measure 8
0000
0300
0020
0000
,  // measure 9
0000
0030
0200
0000
,  // measure 10
0000
0300
0002
0000
,  // measure 11
0000
0003
0010
0000
,  // measure 12
0100
0000
1001
0000
,  // measure 13
0110
0000
1000
0000
,  // measure 14
0000
1001
0001
0000
,  // measure 15
0000
1001
0100
0000
,  // measure 16
0000
0110
0010
0000
,  // measure 17
0000
0110
1000
0000
,  // measure 18
0000
1001
0001
0000
,  // measure 19
0000
1001
0010
0000
,  // measure 20
0100
0000
0000
0110
,  // measure 21
0110
0000
1000
0000
,  // measure 22
0001
0000
0010
0001
,  // measure 23
0100
0000
0010
0000
,  // measure 24
0100
0000
0001
1000
,  // measure 25
1001
0000
1000
0000
,  // measure 26
0100
0000
0010
0100
,  // measure 27
1000
0000
0010
0000
,  // measure 28
0100
0000
0001
1000
,  // measure 29
1001
0000
0001
0010
,  // measure 30
0001
0100
0001
0010
,  // measure 31
0100
0000
1000
0010
,  // measure 32
1000
0100
1000
0100
,  // measure 33
0010
0000
0001
0100
,  // measure 34
0001
0010
0001
0100
,  // measure 35
0010
0000
1000
0100
,  // measure 36
1000
0010
1000
0100
,  // measure 37
0010
0000
0000
0001
,  // measure 38
0001
0001
1000
1000
,  // measure 39
1000
0000
0010
0010
,  // measure 40
0010
0010
0200
0300
,  // measure 41
0100
0000
0001
0010
,  // measure 42
0001
0010
0100
1000
,  // measure 43
0100
0000
1001
0000
,  // measure 44
0000
0000
0110
0000
,  // measure 45
0000
0000
0110
0000
,  // measure 46
1001
0000
0110
0110
,  // measure 47
1001
1001
0200
0300
,  // measure 48
0010
0100
0001
0010
,  // measure 49
0100
0000
0010
0001
,  // measure 50
0100
0000
0010
0100
,  // measure 51
0110
0000
2000
3000
,  // measure 52
0001
0010
0100
0000
,  // measure 53
0010
0001
1000
0000
,  // measure 54
1001
0000
0001
0100
,  // measure 55
0110
0000
0020
0030
,  // measure 56
1000
0100
0010
0100
,  // measure 57
1000
0000
0002
0003
,  // measure 58
0100
0010
0100
0001
,  // measure 59
1001
0000
2000
3000
,  // measure 60
0100
0010
0100
1000
,  // measure 61
0010
0100
0020
0000
,  // measure 62
0000
0000
0000
0000
,  // measure 63
0000
0030
0100
0000
,  // measure 64
0010
0000
2002
0000
,  // measure 65
0000
3003
1000
0000
,  // measure 66
1001
0000
0001
0000
,  // measure 67
1001
0000
1000
0010
,  // measure 68
0100
0000
0100
0010
,  // measure 69
1000
0000
0001
0000
,  // measure 70
0110
0000
1000
0000
,  // measure 71
0110
0000
0001
0000
,  // measure 72
1000
0000
0001
0000
,  // measure 73
0010
0000
0110
0200
,  // measure 74
0320
0032
0203
0320
,  // measure 75
0000
0000
0030
0200
,  // measure 76
0302
2003
3000
1001
,  // measure 77
0000
0110
0000
1001
,  // measure 78
0110
1001
0000
0000
;

//---------------dance-single - ----------------
#NOTES:
     dance-single:
     :
     Medium:
     6:
     0.426,0.507,0.385,0.287,0.000: // measure 1
0000
0000
0000
0000
,  // measure 2
0000
0000
0000
0000
,  // measure 3
0000
0000
0000
0000
,  // measure 4
0000
0000
0000
0000
,  // measure 5
0000
0000
2000
0000
,  // measure 6
0100
0000
3200
0000
,  // measure 7
0010
0000
0320
0000
,  // measure 8
0001
0000
0032
0000
,  // measure 9
0100
0000
0203
0000
,  // measure 10
1000
0000
0302
0000
,  // measure 11
0010
0000
1003
0100
,  // measure 12
0010
0100
0010
0010
,  // measure 13
0011
0000
0001
0100
,  // measure 14
0010
0100
0010
0000
1000
0000
0001
0000
,  // measure 15
0010
0100
0010
0000
0001
0000
1000
0000
,  // measure 16
0100
1000
0100
0000
1000
0000
0010
0000
,  // measure 17
0100
0001
0100
0000
0001
0000
1000
0000
,  // measure 18
0100
0010
0100
0000
0010
0000
0001
0000
,  // measure 19
0100
0001
0100
0000
0010
0000
0000
0010
,  // measure 20
0100
0000
0000
0100
0000
0000
1001
0000
,  // measure 21
0110
0000
0000
0000
0001
0000
0000
0001
,  // measure 22
1000
0000
0000
1000
0100
0000
0000
0100
,  // measure 23
0010
0000
0000
0010
0100
0000
0000
0100
,  // measure 24
1000
0000
0000
1000
0010
0000
0000
0010
,  // measure 25
0100
0000
0001
0000
0010
0000
0000
0010
,  // measure 26
0001
0000
0000
0001
0100
0000
0000
0100
,  // measure 27
0010
0000
0100
0000
0001
0000
0000
0001
,  // measure 28
1000
0000
0000
1000
0100
0000
0010
0100
,  // measure 29
0010
0110
0002
0103
,  // measure 30
2000
0000
3100
0000
0001
0000
0010
0100
,  // measure 31
0010
0001
2000
3010
,  // measure 32
0002
0000
0013
0000
0100
0000
0010
0100
,  // measure 33
0010
0110
0002
0103
,  // measure 34
2000
0000
3100
0000
0001
0000
0010
0100
,  // measure 35
0010
0001
2000
3010
,  // measure 36
0002
0000
0013
0000
0100
0000
0010
0001
,  // measure 37
0100
0000
0000
0110
,  // measure 38
0110
0110
0101
0101
,  // measure 39
0101
0000
1001
1001
,  // measure 40
1001
1001
2200
3300
,  // measure 41
1100
0000
0001
0100
,  // measure 42
0010
0100
0001
0000
1000
0000
0100
0000
,  // measure 43
0010
0100
1000
0000
2001
0000
0000
0000
,  // measure 44
0000
0001
3001
0000
1002
0000
0000
0000
,  // measure 45
0000
1000
1003
0000
0001
0000
0100
0010
,  // measure 46
0100
0000
0001
1000
0001
0000
0001
0000
,  // measure 47
1001
1001
0220
0330
,  // measure 48
0001
0010
0001
0000
0100
0000
0010
0100
,  // measure 49
0010
0000
0000
0000
1000
0100
1000
0000
,  // measure 50
0001
0100
0001
0000
0110
0000
1001
0000
,  // measure 51
0220
0000
0330
0000
0001
0100
0001
0000
,  // measure 52
1000
0000
0100
0000
0010
0100
0010
0000
,  // measure 53
0100
0000
1000
0000
0010
0100
0010
0000
,  // measure 54
0100
0010
1001
1001
,  // measure 55
0110
0000
0022
0033
,  // measure 56
1000
0010
0100
0000
1000
0000
0010
0100
,  // measure 57
0010
1000
2002
3003
,  // measure 58
1000
0100
1000
0000
0011
0000
1100
0000
,  // measure 59
1001
0000
0220
0330
,  // measure 60
0100
0001
1000
0000
2200
0000
3300
0000
,  // measure 61
1000
0010
0100
0000
0002
0000
0010
0000
,  // measure 62
0100
0010
0100
0100
,  // measure 63
1003
0000
0000
0000
0100
0000
0000
0100
,  // measure 64
0010
0000
0000
0010
0200
0000
0000
0000
,  // measure 65
0000
0300
1000
0010
,  // measure 66
0100
0001
0100
0000
0001
0000
0010
0000
,  // measure 67
0100
0010
0100
0000
0010
0000
0001
0000
,  // measure 68
1000
0010
1000
0000
0100
0000
1000
0000
,  // measure 69
0010
0100
0010
0000
1000
0000
0001
0000
,  // measure 70
0010
0100
0010
0000
0001
0000
0100
0000
,  // measure 71
0010
0100
0010
0000
1010
0000
0000
0101
,  // measure 72
0000
0000
0011
0000
1100
0000
0000
1001
,  // measure 73
0000
0110
0001
0010
,  // measure 74
0100
0010
0001
0200
,  // measure 75
0000
0000
0300
0010
,  // measure 76
1000
0000
2002
0000
0000
3003
1001
0000
,  // measure 77
0000
0110
0000
1001
,  // measure 78
0110
1001
0000
0000
;

//---------------dance-single - ----------------
#NOTES:
     dance-single:
     :
     Hard:
     9:
     0.638,0.697,0.541,0.123,0.590: // measure 1
0000
0000
0000
0000
,  // measure 2
0000
0000
0000
0000
,  // measure 3
0000
0000
0000
0000
,  // measure 4
0000
0000
0000
0000
,  // measure 5
0000
0000
0000
0000
0000
0000
0000
0000
0001
0000
0010
0000
0000
0100
0000
0010
,  // measure 6
0000
0001
0000
0000
0100
0000
0010
0000
0100
0000
0001
0000
0000
1000
0000
0100
,  // measure 7
0000
0010
0000
0000
0100
0000
1000
0000
0010
0000
0100
0000
0000
0001
0000
1000
,  // measure 8
0000
0100
0000
0000
0001
0000
0100
0000
0010
0000
0001
0000
0100
0000
0000
0020
,  // measure 9
0000
0000
0000
0000
0100
0000
0130
0000
0001
0000
0010
0000
0000
0100
0000
0010
,  // measure 10
0000
0001
0000
0000
0100
0000
0010
0000
0100
0000
0001
0000
0000
1000
0000
0100
,  // measure 11
0000
0010
0000
0000
0100
0000
1000
0000
1010
0000
0000
0110
0000
0000
0101
0000
,  // measure 12
0011
0000
0000
0000
0000
0000
0000
0000
0000
0110
0000
0000
0000
0000
0000
0000
0000
0000
1100
0000
0000
0000
0000
0000
0001
0000
0000
0000
1000
0000
0000
0000
0001
0000
0000
0000
1000
0000
0000
0000
0001
0000
0000
0000
1000
0000
0000
0000
,  // measure 13
0001
0000
0000
0000
0110
0000
0000
0000
0001
0000
0010
0000
0100
0010
0000
0001
,  // measure 14
0000
0200
0000
0000
0010
0000
0310
0000
0100
0000
0001
0000
1000
0100
0000
0001
,  // measure 15
0000
0200
0000
0000
0010
0000
0310
0000
0100
0000
1000
0000
0010
0100
0000
0010
,  // measure 16
0000
2000
0000
0000
0001
0000
3001
0000
0010
0000
0100
0000
0010
0001
0000
0100
,  // measure 17
0000
0000
0010
0000
0100
0000
0100
0000
0010
0000
1000
0000
0100
0001
0000
0100
,  // measure 18
0000
2000
0000
0000
0010
0000
3010
0000
0100
0000
0010
0000
0001
0010
0000
1000
,  // measure 19
0000
0020
0000
0000
0100
0000
0130
0000
0001
0000
0000
0010
0000
0000
0100
0000
,  // measure 20
0010
0000
0000
0000
0000
0000
0000
0000
0000
0100
0000
0000
0000
0000
0000
0000
0000
0000
1000
0000
0000
0000
0000
0000
0000
0000
0000
0000
0010
0000
0000
0000
0100
0000
0000
0000
0001
0000
0000
0000
0010
0000
0000
0000
0100
0000
0000
0000
,  // measure 21
1000
0000
0000
0000
0000
0000
0000
0000
0001
0000
0000
0001
0000
0000
0001
0000
,  // measure 22
0010
0000
0000
0010
0000
0000
0010
0000
0100
0000
0000
0010
0000
0000
0001
0000
,  // measure 23
0100
0000
0000
0000
0110
0000
0000
0000
0001
0000
0000
1000
0000
0000
0100
0000
,  // measure 24
1000
0000
0000
0001
0000
0000
0100
0000
0001
0000
0000
0010
0000
0000
1000
0000
,  // measure 25
0010
0000
0000
0000
0110
0000
0000
0000
0100
0000
0000
1000
0000
0000
0010
0000
,  // measure 26
0100
0000
0000
0001
0000
0000
0010
0000
0001
0000
0000
0100
0000
0000
1000
0000
,  // measure 27
0100
0000
0000
0000
0110
0000
0000
0000
1000
0000
0000
0100
0000
0000
0001
0000
,  // measure 28
0100
0000
0000
0010
0000
0000
0001
0000
0100
0000
0000
0010
0000
0000
0100
0000
,  // measure 29
0001
0000
0000
0000
0010
0000
0000
0000
0100
0000
0000
0000
1000
0000
0000
0000
0000
0000
0000
0000
0000
0000
0000
0000
1000
0000
0000
0000
0000
0000
0000
0000
0000
1000
0000
0000
0100
0000
0000
0000
0000
0000
0010
0000
0000
0000
0000
0000
,  // measure 30
0100
0000
0000
0100
1000
0000
0010
0000
0100
0000
0001
0000
0010
0000
0100
0000
,  // measure 31
0010
0000
0000
0000
0011
0000
0000
0000
0001
0000
0000
0001
1000
0000
0010
0000
,  // measure 32
0100
0000
0000
0000
0000
0000
0000
0000
0000
0100
0000
0000
0010
0000
0000
0000
1000
0000
0000
0000
0100
0000
0000
0000
0010
0000
0000
0000
0000
0000
0000
0000
0000
0000
0000
0000
0110
0000
0000
0000
0000
0000
0000
0000
0000
0000
0000
0000
,  // measure 33
0100
0010
0000
0001
0000
0100
0000
0010
0100
0000
0000
0100
0001
0000
0010
0000
,  // measure 34
0100
0000
0000
0100
0010
0000
0001
0000
0100
0000
0000
0100
1000
0000
0100
0000
,  // measure 35
0010
0000
0000
0000
1010
0000
0000
0000
1000
0000
0000
1100
0000
0000
0001
0000
,  // measure 36
0100
0000
0000
0110
0000
0000
0001
0000
0011
0000
0000
1100
0000
0000
0010
0000
,  // measure 37
0110
1001
0011
1100
,  // measure 38
1010
0101
0110
0110
,  // measure 39
2002
0000
0000
0000
3000
0003
0000
0000
0011
0000
0000
0000
1100
0000
0000
0000
,  // measure 40
1010
0101
0210
0301
,  // measure 41
0021
0000
0000
0000
0130
0000
0000
0000
0010
0000
0000
0010
0001
0000
0000
0000
,  // measure 42
0100
0000
0000
0100
0010
0000
0000
0000
1000
0000
0000
1000
0100
0000
0000
0100
,  // measure 43
0010
0110
1001
0000
,  // measure 44
0000
0110
0110
0000
1010
0000
0000
0000
,  // measure 45
0000
0000
1001
0000
1001
0000
0000
0000
0011
0000
0000
0100
0000
0000
0010
0000
,  // measure 46
1100
0000
0000
0010
0000
0000
0100
0000
0101
0000
0000
0000
1001
0000
0000
0000
,  // measure 47
1100
0000
0110
0000
0011
0000
1000
0010
,  // measure 48
0100
0000
0000
0100
0010
0000
1000
0000
0100
0000
0000
0100
0001
0000
0100
0000
,  // measure 49
0010
0000
0001
0000
0101
0000
0000
0000
0010
0000
0000
0010
0100
0000
0001
0000
,  // measure 50
1000
0000
0000
1000
0100
0000
0010
0000
0001
0001
0000
0000
0100
0100
0000
0000
,  // measure 51
0010
0010
0000
0000
1001
0000
0000
0000
1000
0000
0000
1000
0010
0000
0001
0000
,  // measure 52
0010
0000
0000
0000
0110
0000
0000
0000
0001
0000
0000
0001
0010
0000
1000
0000
,  // measure 53
0010
0000
0000
0000
0110
0000
0000
0000
0001
0000
0010
0000
0100
0000
0010
0001
,  // measure 54
0000
0000
0100
0000
0010
0000
0100
0000
0101
0000
0000
1010
0000
0000
0001
0000
,  // measure 55
0011
0000
0000
0000
0110
0000
0000
0000
0011
0000
0000
0001
0100
0000
0000
0100
,  // measure 56
0010
0000
0000
0010
0100
0000
0000
0000
0001
0000
0000
0010
0000
0000
0100
0000
,  // measure 57
0010
0000
0001
0000
1001
0000
0000
0000
1000
0000
0000
1000
0010
0000
0100
0000
,  // measure 58
0010
0000
0000
0010
1000
0000
0100
0000
0010
0010
0000
0000
0100
0100
0000
0000
,  // measure 59
1000
1000
0000
0000
1001
0000
0000
0000
0001
0000
0000
0001
0100
0000
1000
0000
,  // measure 60
0100
0000
0000
0000
0110
0000
0000
0000
1000
0000
0000
1000
0100
0000
0001
0000
,  // measure 61
0100
0000
0000
0010
0000
0000
0001
0000
0200
0000
0000
0000
0010
0000
0010
0000
,  // measure 62
0010
0000
1000
1000
1000
0000
0001
0000
,  // measure 63
0020
0000
0000
0000
0330
0000
0000
0000
0001
0000
0000
0010
0000
0000
0100
0000
,  // measure 64
0010
0000
0000
0001
0000
0000
0100
0000
0020
0000
0000
0000
0000
0000
0000
0000
,  // measure 65
0000
0000
0000
0000
0030
0000
0000
0000
0100
0000
0010
0000
1000
0100
0000
0010
,  // measure 66
0000
0100
0000
0000
1000
0000
1000
0000
0001
0000
0010
0000
0100
0010
0000
0001
,  // measure 67
0000
0100
0000
0000
0010
0000
0010
0000
0100
0000
0001
0000
1000
0100
0000
0010
,  // measure 68
0000
0100
0000
0000
1000
0000
1000
0000
0001
0000
0100
0000
1000
0100
0000
0001
,  // measure 69
0000
0000
0010
0000
0001
0000
0100
0000
0010
0000
0100
0000
0001
0010
0000
0100
,  // measure 70
0000
0010
0000
0000
0001
0000
0100
0000
0010
0000
0100
0000
1000
0100
0000
0001
,  // measure 71
0000
0000
0010
0000
0100
0000
1000
0000
0011
0000
0000
1100
0000
0000
0011
0000
,  // measure 72
0000
1100
0000
0000
0001
0000
0100
0000
1010
0000
0000
0101
0000
0000
1010
0000
,  // measure 73
0000
0000
0101
0000
0000
0000
0000
0000
1000
0000
0000
0000
0001
0000
0000
0000
0000
0000
0000
0000
0000
0000
0000
0000
0010
0000
0000
0010
0000
0000
0010
0000
,  // measure 74
0100
0000
0000
0000
0010
0000
0000
0000
0100
0000
0000
0100
0000
0000
0100
0000
1000
0000
0000
1000
0000
0000
1000
0000
0002
0000
0000
0000
0000
0000
0000
0000
,  // measure 75
0000
0000
0000
0000
0000
0000
0000
0000
0003
0000
0000
0000
0000
0000
0000
0000
0000
0000
0000
0000
0000
0000
0000
0000
0100
0000
0000
0010
0000
0000
0100
0000
,  // measure 76
0001
0000
0000
0000
0000
0000
0000
0000
0000
0000
0000
0000
0000
0000
0000
0000
0000
0000
1000
0000
0000
0000
0000
0000
0000
0000
0000
0000
0000
0000
0000
0000
0000
0000
0000
0000
0100
0000
0000
0000
0000
0000
0000
0000
0000
0000
0000
0000
0020
0000
0000
0000
0000
0000
0000
0000
0000
0000
0000
0000
0000
0000
0000
0000
0000
0000
0000
0000
0000
0000
0000
0000
0000
0000
0000
0000
0000
0000
0000
0000
0000
0000
0000
0000
0000
0000
0000
0000
0000
0000
0000
0000
0000
0000
0000
0000
0030
0000
0000
0000
0000
0000
0000
0000
0000
0000
0000
0000
0000
0000
0000
0000
0000
0000
0000
0000
0000
0000
0000
0000
0000
0000
0000
0000
0000
0000
0000
0000
0000
0000
0000
0000
0000
0000
0000
0000
0000
0000
0000
0000
0000
0000
0000
0000
0100
0000
0000
0000
0000
0000
0000
0000
0000
0000
0000
0000
0000
0000
0000
0000
1000
0000
0000
0000
0000
0000
0000
0000
0000
0000
0000
0000
0000
0000
0000
0000
0100
0000
0000
0000
0000
0000
0000
0000
0000
0000
0000
0000
0000
0000
0000
0000
,  // measure 77
1000
0000
0000
0001
0100
0001
0100
0000
0000
1000
0001
1000
,  // measure 78
0001
1000
0001
1000
0000
0000
0000
0000
0000
0000
0000
0000
;
