#TITLE:Greening;
#SUBTITLE:;
#ARTIST:Nekomata Master;
#TITLETRANSLIT:;
#SUBTITLETRANSLIT:;
#ARTISTTRANSLIT:;
#CREDIT:Grithokskulk;
#BANNER:Greening.png;
#BACKGROUND:Greening-bg.png;
#LYRICSPATH:;
#CDTITLE:pop'n music.png;
#MUSIC:Greening.mp3;
#OFFSET:-7.137;
#SAMPLESTART:69.235;
#SAMPLELENGTH:15.000;
#SELECTABLE:YES;
#BPMS:0.000=146.000;
#STOPS:;
#BGCHANGES:;

//---------------dance-single - ----------------
#NOTES:
     dance-single:
     :
     Easy:
     3:
     0.261,0.240,0.000,0.511,0.000: // measure 1
2000
0000
0000
3000
,  // measure 2
0002
0003
0010
0001
,  // measure 3
0200
0000
0000
0300
,  // measure 4
0010
0010
0010
0100
,  // measure 5
0002
0003
2000
3000
,  // measure 6
0100
0200
0300
0010
,  // measure 7
0100
0200
0000
0300
,  // measure 8
1000
0010
0100
0001
,  // measure 9
0020
0030
0002
0003
,  // measure 10
1000
2000
3000
0010
,  // measure 11
0200
0300
0020
0030
,  // measure 12
1000
0100
0010
0100
,  // measure 13
2000
3000
0020
0030
,  // measure 14
0200
0300
0020
0030
,  // measure 15
2000
3000
0001
0001
,  // measure 16
0020
0030
0001
0100
,  // measure 17
0020
0030
0200
0300
,  // measure 18
0002
0003
2000
3000
,  // measure 19
0100
1000
0010
0100
,  // measure 20
0001
0001
1000
1000
,  // measure 21
0200
0000
0000
0300
,  // measure 22
0020
0030
0100
0010
,  // measure 23
0001
0000
0001
0000
,  // measure 24
0100
0010
1000
0100
,  // measure 25
0010
0001
0002
0003
,  // measure 26
1000
0100
1000
0000
,  // measure 27
0020
0030
0200
0000
,  // measure 28
0300
0001
1000
0100
,  // measure 29
1000
0010
0020
0030
,  // measure 30
0200
0000
0000
0310
,  // measure 31
0010
0000
1000
0000
,  // measure 32
0000
0100
1000
0010
,  // measure 33
0100
0001
0002
0003
,  // measure 34
0010
0001
0010
0000
,  // measure 35
0200
0300
0020
0030
,  // measure 36
0000
0001
0100
0001
,  // measure 37
0010
0100
0200
0300
,  // measure 38
0010
0100
1000
0001
,  // measure 39
0002
0003
2000
3000
,  // measure 40
0010
0020
0030
0100
,  // measure 41
0001
0002
0003
0000
,  // measure 42
0010
0100
1000
0010
,  // measure 43
0200
0300
0020
0030
,  // measure 44
0100
0200
0300
0001
,  // measure 45
2000
3000
0002
0003
,  // measure 46
1000
0100
0010
0100
,  // measure 47
2000
3000
0002
0003
,  // measure 48
0100
0200
0300
0010
,  // measure 49
0100
0001
1000
0100
,  // measure 50
0010
0100
1000
0010
,  // measure 51
0200
0300
0002
0003
,  // measure 52
1000
2000
3000
0100
,  // measure 53
2000
3000
0002
0003
,  // measure 54
0100
0001
0010
0001
,  // measure 55
0200
0000
0000
0300
,  // measure 56
0020
0030
2000
3000
,  // measure 57
0002
0000
0000
0003
,  // measure 58
0010
0000
0100
0010
,  // measure 59
0002
0000
0000
0003
,  // measure 60
0200
0300
0002
0003
,  // measure 61
2000
0000
0000
3000
,  // measure 62
0100
0000
0010
0000
,  // measure 63
0200
0000
0000
0300
,  // measure 64
0020
0030
0002
0003
,  // measure 65
2000
0000
0000
3000
,  // measure 66
0000
0000
0000
0010
,  // measure 67
0200
0000
0000
0300
,  // measure 68
0020
0030
2000
3000
,  // measure 69
0002
0000
0000
0000
,  // measure 70
0003
0000
0000
0000
;

//---------------dance-single - ----------------
#NOTES:
     dance-single:
     :
     Medium:
     5:
     0.369,0.427,0.139,0.612,0.000:
2000
0100
0010
0100
,
0002
0003
0010
0100
,
0020
0030
0200
0300
,
0002
0000
3003
0001
,
0101
0000
0010
0100
0010
0000
1000
0001
,
1000
0000
0001
0000
0010
0001
0010
0001
,
0200
0010
1000
0010
,
0002
0003
0020
0330
,
0001
0000
0010
0100
0010
0000
0001
1000
,
0001
0000
1000
0000
0100
1000
0010
0100
,
0020
0000
0130
0010
0200
0000
0301
0100
,
0001
0000
1000
0000
0100
0010
0100
1000
,
0020
0000
0230
0000
,
0302
0000
0010
0000
0010
0003
0100
0010
,
0002
0000
1000
0010
,
2000
0000
3003
0000
1000
0010
0100
0010
,
2000
3000
0002
0010
,
0100
0010
0010
1000
,
0010
0100
0010
1000
,
1003
0001
0010
0000
1000
0001
0010
0000
,
0110
0000
0100
0000
0010
0100
0010
0000
,
1100
0000
0011
0100
,
0020
0000
0030
0100
0001
0000
0010
0000
,
0002
0000
0003
1000
0001
0000
0100
0000
,
0010
1000
0010
0000
2020
0000
0030
0000
,
0001
0001
0001
3001
,
0220
0000
0330
0010
1000
0000
0100
0000
,
2200
0000
3300
0010
0001
0000
0100
0000
,
0220
0000
0330
0010
0100
0000
0001
0000
,
0010
0001
0010
0000
0100
1000
0100
0000
,
2200
0000
3300
1000
0010
0000
0100
0000
,
0220
0000
0330
0001
1000
0000
0001
0000
,
0022
0000
0033
0010
0001
0000
0100
0000
,
0010
0100
0010
0000
0100
0001
0100
0000
,
2002
0000
3003
1000
0100
0000
0100
0000
,
2200
0000
3300
1000
0010
0000
0010
0000
,
0220
0000
0330
0001
1000
0000
0001
0000
,
0010
0001
0010
0000
0100
1000
0100
0000
,
2000
0000
0020
0030
,
0100
0020
0030
0001
,
0010
0020
0030
0001
,
3100
0010
0100
0000
1000
0010
1000
0000
,
0002
0000
0200
0300
,
0010
0020
0030
1000
,
0200
0300
0020
0030
,
1000
0000
0100
0000
0013
0001
0010
0000
,
0200
0000
0020
0030
,
1000
2000
3000
0010
,
1000
0010
0001
0010
,
1000
1000
0001
0001
,
0320
0000
0002
0003
,
0100
0200
0300
0001
,
0200
0000
0300
0000
0002
0000
0003
0030
,
0001
0010
0001
0000
1000
0010
1000
0010
,
0200
0000
0000
0000
,
0020
0030
2000
3000
,
0002
0000
0000
0003
,
0020
0030
0001
0010
,
0002
0000
0000
0003
,
2000
3000
0020
0030
,
0002
0000
0000
0000
,
0000
0000
0000
0303
,
2002
0000
0000
0003
,
0200
3000
0020
0330
,
2002
0000
0000
3000
,
0200
0300
0020
0033
,
2200
0000
0000
0300
,
0020
0030
0002
3003
,
0202
0000
0000
0000
,
0303
0000
0000
0000
;

//---------------dance-single - ----------------
#NOTES:
     dance-single:
     :
     Hard:
     7:
     0.513,0.481,0.101,0.403,0.252:
2000
0100
0010
0001
,
0020
0030
0001
0100
,
0020
0030
0002
3003
,
0010
0001
0010
0000
0100
0000
0011
0000
,
1100
0000
0000
1000
0010
0000
0000
0010
0100
0000
0000
0100
0010
0000
0000
0010
,
1000
0000
0000
1000
0001
0000
0000
0000
0010
0000
0001
0000
0100
0000
0010
0000
,
0100
0000
0000
0100
0001
0000
0000
0000
0010
0000
0001
0000
0010
0000
0000
0000
,
0001
0000
0100
0000
0010
0000
1000
0000
0100
0000
0000
0100
1000
0000
0000
1000
,
0010
0000
0000
0010
0100
0000
0000
0100
1000
0000
0000
1000
0100
0000
0000
0100
,
0001
0000
0000
0001
0010
0000
0000
0010
0100
0000
0010
0000
0001
0000
0100
0000
,
0020
0000
0130
0001
0200
0000
0310
1000
,
0100
0010
0100
1000
0001
0010
0001
0100
,
0020
1000
0001
0100
,
2030
0000
0100
0000
3200
0000
0310
0100
,
2000
3010
0020
0230
,
0302
0000
0013
0000
0001
0100
1000
0100
,
0002
0010
2003
3200
,
0320
0230
2300
3020
,
0230
0320
2030
3002
,
0013
0001
0100
0100
1000
0100
0001
0001
,
1000
0000
0000
0000
1001
0000
0000
0001
1000
0000
0100
0000
0100
0000
0000
0000
,
0010
0000
0100
0000
0100
0000
0000
0100
1000
0000
0010
0000
0100
0000
0000
0000
,
0101
0000
0000
0001
0010
0000
0000
0010
0100
0000
0000
0100
0010
0000
0000
0010
,
0001
0000
0000
0001
0100
0000
0000
0100
1000
0000
0000
1000
0100
0000
0010
0000
,
1000
0100
0010
0000
0210
0000
1000
0000
,
0001
0001
0001
0000
1000
1000
1300
0000
,
1000
0000
0000
1000
0010
0000
0000
0010
0100
0000
0000
0100
0010
0000
0000
0010
,
1000
0001
0010
0001
0100
0010
0100
0001
,
0010
0100
0010
0000
0210
0000
1000
0000
,
0001
0001
0001
0000
1300
0000
1100
0000
,
1000
0000
0000
1000
0010
0000
0000
0010
0100
0000
0000
0100
0010
0000
0000
0010
,
1000
0000
0000
1000
0001
0000
0000
0001
0010
0000
1000
0000
0010
0000
0001
0000
,
0100
0010
0100
0000
0210
0000
1000
0000
,
0001
0001
0001
0000
0010
0010
0310
0000
,
0110
0000
0000
0010
1000
0000
0000
1000
0100
0000
0000
0100
0010
0000
0000
0010
,
0100
0000
0000
0100
1000
0000
0000
1000
0010
0000
0100
0000
0010
0000
1000
0000
,
0001
0010
0100
0000
0210
0000
1000
0000
,
0001
0001
0001
0000
1300
1000
0100
0000
,
0010
0000
0000
0010
0100
0000
0000
0100
1000
0000
0000
1000
0010
0000
0000
0010
,
0100
0000
0000
0100
0001
0000
0000
0001
0010
0000
1000
0000
0010
0000
0001
0000
,
0100
0000
0000
0100
0010
0000
0000
0000
0100
0000
0001
0000
0100
0000
0000
0000
,
0001
0000
0010
0000
0100
0000
1000
0000
0001
0000
0010
0000
0100
0000
0000
0100
,
1000
0000
0000
1000
0010
0000
0000
0010
0100
0000
0000
0100
1000
0000
0000
1000
,
0100
0000
0000
0100
0001
0000
0000
0001
1000
0000
0100
0000
0010
0000
0100
0000
,
2000
0000
3010
0100
0020
0000
0130
0010
,
1000
0001
0010
0010
0001
0100
0010
0100
,
0001
0000
0000
0001
1000
0000
0000
1000
0100
0000
0000
0100
0010
0000
0000
0010
,
0100
0000
0000
0100
1000
0000
0000
1000
0010
0000
0100
0000
0010
0000
1000
0000
,
0001
0001
0010
0010
0100
0100
0010
0010
,
0001
0100
1000
0100
0001
1000
0100
0000
,
1000
0000
0000
1000
0100
0000
0000
0100
0010
0000
0000
0010
0100
0000
0000
0100
,
1000
0000
0000
1000
0010
0000
0000
0010
0100
0000
0010
0000
1000
0000
0001
0000
,
0010
0000
0001
0100
0001
0000
1000
0100
,
1000
0100
0001
0100
1000
0010
0100
0001
,
0020
0000
1000
0000
0001
0001
0001
0000
,
0200
0300
0002
0003
,
0100
0000
1000
0000
0001
0001
0001
0000
,
0230
0000
0310
0002
0200
0003
1300
0000
,
0120
0000
1000
0000
0001
0001
0001
0000
,
0200
0300
2000
3000
,
0200
0030
1000
0000
0001
0001
0001
0000
,
0010
0000
0001
0000
0010
0010
0310
0000
,
0202
0000
0000
0300
,
0020
0000
0203
0000
,
2030
0000
0000
0300
,
0002
0000
3000
0203
0000
0000
0310
0000
,
0202
0000
0000
0300
,
0020
0003
0200
0030
,
0020
0000
0000
0330
,
0001
0000
0000
0000
;
