#TITLE:Godspeed;
#SUBTITLE:;
#ARTIST:dj TAKA xxx Nekomata Master xxx L.E.D.;
#TITLETRANSLIT:;
#SUBTITLETRANSLIT:;
#ARTISTTRANSLIT:;
#CREDIT:Grithokskulk;
#BANNER:Godspeed.png;
#BACKGROUND:Godspeed-bg.png;
#LYRICSPATH:;
#CDTITLE:beatmania IIDX.png;
#MUSIC:Godspeed.mp3;
#OFFSET:-0.818;
#SAMPLESTART:11.875;
#SAMPLELENGTH:15.000;
#SELECTABLE:YES;
#BPMS:0.000=165.000;
#STOPS:;
#BGCHANGES:0.500=Godspeed.avi=1.000=1=0=1,
99999=-nosongbg-=1.000=0=0=0 // don't automatically add -songbackground-
;

//---------------dance-single - ----------------
#NOTES:
     dance-single:
     :
     Easy:
     4:
     0.340,0.321,0.229,0.423,0.000:
2000
3000
0002
0003
,
0200
0300
0020
0030
,
0200
0300
0001
0010
,
0100
0000
0010
0001
,
0200
0000
0000
0300
,
0020
0030
1000
0001
,
0020
0000
0000
0030
,
0001
1000
0001
1000
,
0100
0100
0100
0000
,
1000
0010
1000
0000
,
0001
0001
0001
0000
,
0010
0100
0010
0001
,
0100
0100
0100
0000
,
0010
1000
0010
0000
,
1000
0001
1000
0000
,
2002
0000
0000
3003
,
2200
0000
0000
3300
,
0022
0000
0000
0033
,
0220
0000
0000
0330
,
1001
0000
0101
0000
,
1001
0000
1100
0000
,
1001
0000
0011
0000
,
1001
0000
1010
0000
,
0010
1000
0001
0010
,
0100
0010
0002
0003
,
0100
0001
1000
0100
,
2000
3000
0002
0003
,
0100
0010
0100
0001
,
0010
0100
2000
3000
,
0010
1000
0100
0010
,
0100
1000
0100
0010
,
0002
0003
0200
0300
,
0020
0030
0200
0300
,
0001
1000
0100
0010
,
0100
1000
0010
0100
,
0020
0030
0200
0300
,
0001
0010
0001
0000
,
2000
3000
0200
0300
,
0010
0100
1000
0010
,
0200
0000
0000
0000
,
0000
0310
0100
0001
,
0020
0030
0200
0300
,
2000
3000
0020
0030
,
0000
0100
0020
0030
,
0000
0100
0001
0000
,
0010
0100
0010
0000
,
0002
0003
2000
3000
,
0220
0000
0000
0330
,
2002
0000
0000
3003
,
0022
0000
0000
0033
,
2200
0000
0000
3300
,
0010
0000
0110
0000
,
1000
0000
1001
0000
,
0001
0001
0010
0010
,
0100
0100
1000
0100
,
0010
0010
0001
0001
,
0010
0001
0100
0000
,
0010
0010
0100
0100
,
0001
1000
0100
1000
,
0010
0010
1000
1000
,
0100
0010
0100
0000
,
0010
0010
0001
0001
,
0100
0100
0010
0010
,
0100
0001
1000
0000
,
0100
0100
1000
1000
,
0010
1000
0100
0000
,
0010
0010
0100
0100
,
1000
0001
0100
0000
,
0001
0001
1000
1000
,
2002
0000
0000
3003
,
2002
0000
0000
3003
,
1001
0000
1001
0000
,
1001
1001
1001
1001
;

//---------------dance-single - ----------------
#NOTES:
     dance-single:
     :
     Medium:
     6:
     0.463,0.514,0.238,0.415,0.009:
2000
0000
3020
0000
,
0230
0000
0320
0000
,
2030
0000
3200
0320
,
0230
0000
0000
0000
1300
0010
0100
0001
,
0020
0000
0000
0000
,
0230
0000
0320
0032
,
0203
0000
0000
0000
,
0010
0010
0310
0110
,
1000
0000
1000
0000
1000
0100
0000
0010
,
0010
0100
0010
0000
,
0001
0100
0001
0000
1000
0000
0000
0000
,
0010
0100
0000
0100
0010
0000
1000
0000
,
0001
0000
0001
0000
0001
0010
0010
0000
,
0100
0010
0100
0000
0110
0000
0000
0000
,
1000
0001
1000
0000
0001
0000
0100
0000
,
0110
0000
0000
0000
,
1010
0000
0000
0000
,
1001
0000
0000
0000
,
0011
0000
0000
0000
,
0110
0000
0011
0000
,
1100
0000
1001
0000
,
0101
0101
1010
1010
,
0001
1000
0001
1000
0001
1000
1001
0000
,
1000
0000
0010
0000
0100
0010
0100
0010
,
0000
1000
0001
1000
0000
0000
1001
0000
,
0001
0010
0001
0000
1000
0010
1000
0010
,
0000
0100
0010
0100
0000
0000
0110
0000
,
0001
0010
0001
0000
1000
0100
1000
0100
,
0000
0010
0100
0010
0000
0000
0100
0000
,
0010
0100
0010
0000
0010
0001
0010
0000
,
0001
0100
0001
0000
0100
0010
0100
0000
,
0002
0010
0100
0010
,
2003
0100
0010
0001
,
3200
0001
0010
1000
,
0320
1000
0001
0100
,
0032
0100
0010
0100
,
2003
0100
0010
0100
,
3002
0100
0100
0100
,
0100
0000
0103
0000
0001
0010
0100
1000
,
0020
0100
0100
0100
,
0100
0000
0230
0000
0301
0010
0001
0020
,
0000
0100
0130
0000
0010
0000
0001
0000
,
0100
0010
0100
0000
0001
1000
0001
0000
,
0000
2200
3300
0020
,
0001
0000
0032
0000
0103
0010
0100
0002
,
0000
1000
1003
0000
0100
0000
0110
0000
,
0100
1000
0100
0000
0010
0001
0010
0000
,
0002
0000
0000
0000
,
2003
0000
0000
0000
,
3020
0000
0000
0000
,
2030
0000
0000
0000
,
3100
0000
0000
0100
0000
0000
0100
0000
0000
0000
0000
0000
0000
0000
0000
0000
,
0010
0000
0000
0010
0000
0000
0010
0000
0000
0000
0000
0000
0000
0000
0000
0000
,
0001
0001
1000
1000
,
1010
1010
0101
0101
,
0010
0000
0010
0000
0100
0010
0100
0000
,
0001
0010
0001
0010
0002
0000
1000
0003
,
0001
0100
0001
0100
0002
0000
0103
0000
,
0010
0100
0010
0000
2000
0000
3001
0000
,
0010
0000
0010
0000
0100
0010
0100
0010
,
0200
1300
0020
0130
,
0001
1000
0001
0000
1000
0100
1000
0000
,
0011
0000
1100
0000
0001
0100
0001
0000
,
1000
0010
1000
0010
2000
0000
3100
0000
,
0010
0100
0010
0100
0020
0000
0130
0000
,
1000
0100
1000
0100
2000
0000
3001
0000
,
0101
0000
1010
0000
0001
0100
0001
0000
,
0010
0100
0010
0100
0020
0000
0130
0000
,
0010
0001
0010
0000
0001
1000
0001
0000
,
0200
0000
0000
0300
,
0200
0000
0000
0300
,
0200
0300
0200
0300
,
0200
0300
0200
0300
0100
0100
0100
0100
;

//---------------dance-single - ----------------
#NOTES:
     dance-single:
     :
     Hard:
     9:
     0.635,0.546,0.212,0.318,0.410: // measure 1
2010
0000
0200
3000
,  // measure 2
0020
0300
0200
0030
,  // measure 3
2000
0300
3002
0203
,  // measure 4
0020
0000
0330
0000
1000
0010
0100
0001
,  // measure 5
0020
0100
0000
0100
,  // measure 6
0032
0100
2003
3200
,  // measure 7
0320
0100
0000
0130
,  // measure 8
0010
0001
0100
0010
1000
0100
0001
0100
,  // measure 9
0010
0000
0000
0010
0001
0000
0000
0001
0100
0000
0000
0100
1000
0000
0000
1000
,  // measure 10
0100
0010
1000
0100
0010
0000
0110
0000
,  // measure 11
0100
0000
0000
0100
1000
0000
0010
0000
0100
0000
0000
0000
0101
0000
0000
0000
,  // measure 12
1000
0000
0000
1000
0100
0000
0001
0000
0100
0000
0100
0000
0010
0000
0001
0000
,  // measure 13
0100
0000
0000
0100
0001
0000
0000
0001
1000
0000
0000
1000
0010
0000
0000
0010
,  // measure 14
0001
0010
0100
0001
0010
0000
0110
0000
,  // measure 15
0010
0000
0001
0000
0100
0000
0001
0000
1000
0000
0000
1000
0100
0000
0001
0000
,  // measure 16
0100
0000
0000
0010
0100
0000
0000
1000
0100
0000
0010
0000
0100
0000
0000
0000
,  // measure 17
1000
0000
0000
0010
0001
0000
0000
0010
1000
0000
0010
0000
0100
0000
0000
0000
,  // measure 18
0001
0010
0100
0010
0001
0100
1000
0100
,  // measure 19
0001
0000
0000
0001
1000
0000
0100
0000
0001
0000
0100
0000
0010
0000
0100
0000
,  // measure 20
1000
0000
0000
1000
0010
0000
0000
0000
0100
0000
0000
0100
0010
0000
0000
0000
,  // measure 21
1000
0000
0000
1000
0100
0000
0000
0000
0001
0000
0000
0001
0100
0000
0000
0000
,  // measure 22
0110
0011
0110
1100
,  // measure 23
1000
0010
0001
0010
0100
0001
1001
0000
,  // measure 24
1000
0000
0000
1000
0100
0000
0000
0100
0001
0000
0000
0001
0100
0000
0000
0100
,  // measure 25
0010
0000
0000
0010
0001
0000
0000
0001
0100
0000
0000
0000
0110
0000
0000
0000
,  // measure 26
1000
0000
0000
1000
0100
0000
0000
0100
0001
0000
0000
0001
0100
0000
0000
0100
,  // measure 27
0010
0000
0000
0010
0001
0000
0000
0001
0100
0000
1000
0000
0100
0000
0010
0000
,  // measure 28
1000
0000
0000
1000
0100
0000
0000
0100
0010
0000
0000
0010
1000
0000
0000
1000
,  // measure 29
0010
0000
0000
0010
0001
0000
0000
0001
0010
0000
0100
0000
1000
0000
0010
0000
,  // measure 30
0100
0000
0000
0100
1000
0000
0000
1000
0100
0000
0000
0100
0001
0000
0000
0001
,  // measure 31
0010
1000
0010
0100
0010
0001
0001
0100
,  // measure 32
0020
0000
0001
0000
1030
0100
0001
0100
,  // measure 33
0020
0000
1000
0000
0031
0010
0100
0010
,  // measure 34
0001
0100
0020
0000
1000
0000
0001
0000
,  // measure 35
0100
0100
1000
1030
,  // measure 36
0100
0010
0200
0000
1000
0000
0301
0000
,  // measure 37
0010
1000
0100
0000
0001
0100
1000
0010
,  // measure 38
0200
1000
0010
0001
,  // measure 39
0010
0000
0310
0100
0001
0010
0100
1000
,  // measure 40
0200
0001
0010
1000
,  // measure 41
0010
0000
0320
0000
0031
0100
0010
1000
,  // measure 42
0002
0023
0100
1000
,  // measure 43
0001
0000
0001
0000
0130
0010
0001
0200
,  // measure 44
0000
0310
0000
2100
,  // measure 45
0010
0000
3020
0000
0130
0010
1000
0100
,  // measure 46
0002
0000
0203
0000
1300
0010
0100
0010
,  // measure 47
2000
0000
3002
0000
0013
0001
0100
0010
,  // measure 48
0100
0000
0000
0100
0001
0000
0000
0000
0010
0000
0100
0000
0010
0000
0000
0000
,  // measure 49
0001
0000
0000
0001
1000
0000
0000
0000
0010
0000
1000
0000
0100
0000
0000
0000
,  // measure 50
1000
0000
0000
1000
0010
0000
0000
0000
1000
0000
0000
1000
0100
0000
0000
0000
,  // measure 51
1000
0000
0000
1000
0001
0000
0000
0000
1000
0000
0010
0000
0001
0000
0010
0000
,  // measure 52
0100
0000
0000
0100
0000
0000
0110
0000
0000
0000
0000
0000
0001
0000
0000
0000
,  // measure 53
1000
0000
0000
1000
0000
0000
1001
0000
0000
0000
0000
0000
0001
0000
0000
0000
,  // measure 54
0010
0001
0010
0000
0100
1000
0100
0000
,  // measure 55
1010
0101
0011
1100
,  // measure 56
0001
0000
0000
0001
0010
0000
0000
0010
1000
0000
0000
1000
0010
0000
0000
0010
,  // measure 57
0001
0000
0000
0001
0100
0000
0000
0100
1000
0000
0000
1000
0100
0000
0000
0100
,  // measure 58
0010
0000
0000
0010
1000
0000
0000
1000
0010
0000
0000
0010
0001
0000
0000
0001
,  // measure 59
0010
0000
0000
0010
1000
0000
0000
1000
0100
0000
0100
0000
0010
0000
0100
0000
,  // measure 60
1000
0000
0000
1000
0100
0000
0000
0100
0001
0000
0000
0001
0100
0000
0000
0100
,  // measure 61
0010
0000
0000
0010
0001
0000
0000
0001
1000
0000
0000
1000
0010
0000
0100
0000
,  // measure 62
0010
0000
0000
0010
1000
0000
0000
1000
0010
0000
0000
0010
0100
0000
0001
0000
,  // measure 63
0010
0000
0000
0010
0100
0000
0000
0100
0010
0000
0000
0010
0001
0000
0000
0001
,  // measure 64
0100
0000
1000
0000
0100
0000
0010
0000
1000
0000
0000
1000
0100
0000
0000
0100
,  // measure 65
0001
0000
0000
0001
0100
0000
0000
0100
0010
0000
0000
0010
0001
0000
0000
0001
,  // measure 66
0100
0000
0010
0000
0010
0000
0100
0000
0001
0000
0000
0001
0010
0000
1000
0000
,  // measure 67
0010
0000
0000
0010
0001
0000
0000
0001
0100
0000
0000
0100
1000
0000
0000
1000
,  // measure 68
0100
0000
0000
0100
0010
0000
0000
0010
1000
0000
0000
1000
0010
0000
0000
0010
,  // measure 69
0001
0000
0010
0000
0100
0000
0001
0000
0010
0000
0000
0010
1000
0000
0010
0000
,  // measure 70
0002
0000
0000
0003
,  // measure 71
0202
0000
0000
0303
,  // measure 72
2200
3300
0022
0033
,  // measure 73
1100
0000
1010
0000
0101
0010
1100
0010
;
