#TITLE:Glitter Flatter Scatter;
#SUBTITLE:;
#ARTIST:Project B-;
#TITLETRANSLIT:;
#SUBTITLETRANSLIT:;
#ARTISTTRANSLIT:;
#CREDIT:Grithokskulk;
#BANNER:Glitter Flatter Scatter.png;
#BACKGROUND:Glitter Flatter Scatter-bg.png;
#LYRICSPATH:;
#CDTITLE:jubeat.png;
#MUSIC:Glitter Flatter Scatter.mp3;
#OFFSET:-4.935;
#SAMPLESTART:79.035;
#SAMPLELENGTH:15.000;
#SELECTABLE:YES;
#BPMS:0.000=197.000,16.000=394.000,17.000=197.000,171.000=98.500,187.000=197.000,211.000=98.500,215.000=197.000;
#STOPS:16.000=0.160
,44.000=0.060
,44.500=0.060
,45.000=0.060
,45.500=0.060
,46.000=0.060
,46.500=0.060
,111.500=0.160
,112.500=0.140
,113.500=0.140
,114.500=0.160
,133.500=0.140
,134.500=0.160
,135.500=0.140
,136.500=0.160
,155.500=0.140
,156.500=0.160
,157.500=0.140
,158.500=0.160
,159.500=0.140
,160.500=0.160
,161.500=0.140
,162.500=0.160
,307.000=0.060
,307.500=0.060
,308.000=0.060
,308.500=0.060
,309.000=0.060
,309.500=0.060
,342.000=0.140
;
#BGCHANGES:;

//---------------dance-single - ----------------
#NOTES:
     dance-single:
     :
     Easy:
     4:
     0.347,0.352,0.107,0.107,0.000: // measure 1
1000
0000
0100
0000
,  // measure 2
1000
0000
0010
0010
,  // measure 3
0100
0000
0001
0000
,  // measure 4
0100
0001
0010
0100
,  // measure 5
0110
0100
1000
0100
,  // measure 6
1000
0100
1000
0100
,  // measure 7
0010
0001
0010
0001
,  // measure 8
0010
0001
0010
0001
,  // measure 9
0100
0001
0100
0001
,  // measure 10
0100
0001
0100
0001
,  // measure 11
1000
0010
1000
0010
,  // measure 12
0200
0000
0000
0310
,  // measure 13
0010
0010
0010
0010
,  // measure 14
0010
0010
0010
0010
,  // measure 15
0010
0010
0010
0010
,  // measure 16
0010
0010
0010
0100
,  // measure 17
0100
0100
0100
0100
,  // measure 18
0100
0100
0100
0100
,  // measure 19
0100
0100
0100
0001
,  // measure 20
1000
0001
1000
0001
,  // measure 21
0001
0001
0001
0001
,  // measure 22
0001
0001
0001
0001
,  // measure 23
0001
0001
0001
0001
,  // measure 24
0010
0001
0010
0100
,  // measure 25
0100
0100
0100
0100
,  // measure 26
0100
0100
0100
0100
,  // measure 27
0010
0100
1000
0001
,  // measure 28
1000
0001
1000
0020
,  // measure 29
0000
0000
0000
0030
,  // measure 30
0000
0100
0000
0010
,  // measure 31
0000
1000
0001
1000
,  // measure 32
0000
0001
0000
0010
,  // measure 33
0000
0100
0010
0100
,  // measure 34
0000
0020
0000
0000
,  // measure 35
0000
0000
0030
0100
,  // measure 36
0001
0100
0001
0010
,  // measure 37
0001
0100
0001
1000
,  // measure 38
0100
1000
0000
0001
,  // measure 39
0100
0001
0000
0220
,  // measure 40
0000
0000
0000
0000
,  // measure 41
0000
0000
0330
2002
,  // measure 42
0000
0000
3003
0220
,  // measure 43
0000
0000
0330
1000
,  // measure 44
0000
0100
0000
0010
,  // measure 45
0001
0010
0001
0100
,  // measure 46
0000
0010
0000
0100
,  // measure 47
0001
0010
0001
0100
,  // measure 48
0000
0000
0000
0010
,  // measure 49
0000
0000
0000
0100
,  // measure 50
0000
0001
0000
1000
,  // measure 51
0000
0100
0000
1000
,  // measure 52
0000
0000
0000
0010
,  // measure 53
0000
0000
0000
0200
,  // measure 54
0000
0000
0000
0310
,  // measure 55
0010
0110
0000
1000
,  // measure 56
1000
1001
0000
0001
,  // measure 57
0010
0001
0010
0001
,  // measure 58
0100
0001
0100
0001
,  // measure 59
0001
1001
0000
1000
,  // measure 60
1000
1100
0000
1000
,  // measure 61
0010
1000
0010
0100
,  // measure 62
0010
0100
0010
1000
,  // measure 63
1000
1001
0000
0001
,  // measure 64
0001
0011
0000
0001
,  // measure 65
0100
0010
0100
0001
,  // measure 66
0001
1000
1000
0100
,  // measure 67
0100
0110
0000
0010
,  // measure 68
0010
0011
0000
0001
,  // measure 69
0100
0010
0100
0001
,  // measure 70
0010
0100
0010
0001
,  // measure 71
0001
1000
1000
0001
,  // measure 72
1000
0001
0001
0100
,  // measure 73
0010
0100
0100
0010
,  // measure 74
0010
0100
0010
1000
,  // measure 75
1000
0100
0100
1000
,  // measure 76
0100
1000
0100
1000
,  // measure 77
1000
0001
0001
0200
,  // measure 78
0000
0300
0010
0100
,  // measure 79
0010
0100
0010
0010
,  // measure 80
0100
0100
0001
1000
,  // measure 81
0001
1000
0001
0001
,  // measure 82
1000
1000
0100
1000
,  // measure 83
0100
1000
0100
0100
,  // measure 84
1000
1000
0010
0100
,  // measure 85
0010
1000
0002
0000
,  // measure 86
2000
0000
0000
0000
3003
1001
0000
0000
;

//---------------dance-single - ----------------
#NOTES:
     dance-single:
     :
     Medium:
     6:
     0.488,0.422,0.033,0.099,0.000:
1000
0000
1000
0010
0000
0010
0100
0000
,
0010
1000
0001
0010
,
0001
0000
0001
0010
0000
0010
0100
0000
,
0010
0000
0001
0000
1000
0001
1000
0001
,
0100
0000
0010
0100
0000
0100
0010
0000
,
1000
0100
1000
0001
,
0100
0000
0001
0010
0000
0010
0100
0000
,
0010
0001
0100
0010
,
0100
0000
0001
0010
0000
0010
0100
0000
,
0010
0001
1000
0010
,
0100
0000
0100
0010
0000
0010
1000
0000
,
0002
0000
0000
2000
0000
3003
0001
0000
,
0100
0000
0001
0010
0001
0000
0010
0100
,
0010
0000
0100
1000
0100
0000
1000
0000
,
0010
0000
1000
0010
1000
0000
0010
0100
,
0010
0000
0100
0001
0100
0000
0001
0000
,
0010
0000
0001
0100
0001
0000
0100
0010
,
0100
0000
0010
1000
0010
0000
1000
0000
,
0100
0000
0010
0100
0010
0000
0001
0000
,
1000
1001
0000
0001
,
0100
0000
0010
0100
0010
0000
0100
0001
,
0100
0000
0001
1000
0001
0000
0010
0000
,
0001
0000
0100
0010
0100
0000
0010
1000
,
0010
0000
1000
0100
1000
0000
0100
0000
,
1000
0000
0010
0100
0010
0000
0100
0001
,
0100
0000
0001
0010
0001
0000
0010
0000
,
0001
0000
0100
0010
0100
0000
0001
0000
,
1000
0000
0100
0010
0100
0000
0100
0000
,
0010
0100
0010
0100
,
0000
0000
0010
0000
1000
0000
0100
1000
,
0100
0000
1000
0000
0010
0000
0100
0001
,
0100
0001
0010
1000
,
0010
0001
0100
1000
,
0100
0001
1000
0100
,
0010
0100
0000
0010
,
0001
0000
0010
0001
0010
0000
0001
0000
,
0100
0000
0010
0100
0010
0000
0100
0000
,
0001
0000
1000
0100
0000
1000
0100
0000
,
1000
0000
0010
0100
0010
0000
1000
0000
,
0001
0010
0100
0010
,
0001
0100
0010
0220
,
0000
0000
0330
2002
,
0000
0000
3003
1000
,
0100
0010
0100
1000
,
0010
0000
0100
0001
0010
0001
0100
0000
,
0001
0000
0010
0000
0100
0000
0010
0100
,
1000
0100
0010
0001
0100
0010
0100
0000
,
0000
0100
0010
0000
0100
0000
0001
0000
,
0000
0001
1000
0000
0100
0000
1000
0000
,
0000
1000
0001
0000
0000
0001
0010
0000
,
0001
0100
0010
0100
,
0000
0100
0010
0000
1000
0000
0001
0000
,
0000
0001
1000
0000
0100
0000
0020
0000
,
0230
2300
3020
0130
,
0000
0100
0010
0100
0010
0000
1000
0000
,
0000
1000
0001
1000
0001
0000
0010
0000
,
0001
0000
0100
0010
0100
0000
0001
0000
,
1000
0000
0100
1000
0100
0000
1000
0000
,
0000
1000
0010
1000
0010
0000
0100
0000
,
0000
0100
0010
0100
0010
0000
1000
0000
,
0001
0010
1000
0010
,
0001
0000
0100
0001
0100
0000
0001
0000
,
0000
0001
0010
0001
0010
0000
0001
0000
,
0000
0001
0100
0001
0100
0000
0010
0000
,
0100
0001
0010
0100
,
0010
0000
0100
0010
0100
0000
0010
0000
,
0000
0010
0001
0010
0001
0000
0100
0000
,
0000
0100
0010
0100
0010
0000
1000
0000
,
0100
0010
0001
1000
,
0010
0000
0100
0001
0100
0000
0001
0000
,
0010
0010
0000
0001
0001
0000
0100
0100
,
0000
0010
0010
0000
0100
0000
0001
0000
,
1000
1000
0000
0100
0100
0000
1000
0000
,
0010
0100
0010
1000
,
0001
0001
0000
0010
0010
0000
0001
0000
,
0100
0010
0100
0001
,
1000
1000
0000
0100
0100
0000
0020
0000
,
0000
0230
0000
0300
0010
0000
0001
0000
,
0010
0001
0010
0000
0001
0000
0100
0000
,
0010
0100
0010
0000
1000
0000
0100
0000
,
1000
0010
1000
0000
0010
0000
0100
0000
,
0001
0000
0010
0001
0010
0000
0010
0001
,
0000
0001
0100
0000
0001
0000
0010
0100
,
0000
0100
1000
0000
0010
0000
0100
0000
,
0010
0100
0010
0000
1000
0000
0001
0000
,
0010
0100
0010
0100
0000
0110
0000
0000
;

//---------------dance-single - ----------------
#NOTES:
     dance-single:
     :
     Hard:
     10:
     0.907,0.985,0.304,0.099,0.678:
1000
0000
1000
0100
0000
0100
0020
0000
,
1000
0000
0000
0000
0001
0000
0000
0000
0130
0000
0000
0000
1000
0001
1000
0000
,
0010
0000
0010
0100
0000
0100
0001
0000
,
0020
0000
1000
0000
0031
0100
0010
1000
,
1002
0000
0103
0010
0000
0010
0200
0000
,
1000
0000
0000
0000
0001
0000
0000
0000
0310
0000
0000
0000
0100
0010
0100
0000
,
0001
0000
0001
0010
0000
0010
0200
0000
,
0001
0000
0000
0000
1000
0000
0000
0000
0310
0100
0010
0000
0100
0000
1000
0000
,
0010
0000
0010
1000
0000
1000
0200
0000
,
0001
0000
0000
0000
0010
0000
0000
0000
1300
0000
0000
0000
0010
1000
0010
0000
,
0100
0000
0100
0001
0000
0001
0010
0000
,
0110
1100
1001
0110
0101
0011
0010
0001
,
0100
0010
1000
0100
0001
1000
0010
0001
,
1000
0010
0001
0010
1000
0100
0010
0001
,
0100
0010
0100
0001
0010
1000
0010
0001
,
0100
0010
0100
0001
0010
0100
0010
0001
,
1000
0010
0001
0010
1000
0100
0010
0100
,
1000
0010
0100
0010
1000
0100
0010
0100
,
1000
0010
0100
1000
0100
0001
0010
1000
,
0010
0001
0100
0010
0100
0001
0010
0001
,
0100
1000
0100
0010
1000
0100
0001
0100
,
1000
0001
0010
1000
0010
0001
0100
0010
,
0100
0001
0010
1000
0010
0001
0100
1000
,
0100
0001
0010
0100
0010
0001
0100
0010
,
1000
0100
0001
0100
0010
0001
0100
1000
,
0100
0001
0010
0100
0010
0001
1000
0010
,
0100
0010
1000
0100
0010
0001
0100
1000
,
0100
0000
0001
0000
0010
0000
0100
0000
0010
0000
1000
0000
0010
0100
0010
0000
,
0100
1000
0100
0000
0010
0100
0010
0000
1000
0001
1000
0000
0001
0010
0100
1000
,
0010
0100
0001
0000
0100
0000
0010
0000
0100
0000
1000
0000
0100
0000
0001
0000
,
0010
1000
0010
0001
0010
0100
0010
0001
,
0010
0100
1000
0010
0100
1000
0100
0001
,
0010
0100
0010
0001
0100
1000
0100
0010
,
1000
0000
0100
0000
0010
0100
0010
0000
1000
0001
1000
0000
0100
1000
0100
0000
,
0010
0001
0010
0000
0001
0100
0001
0010
0001
0100
0010
0000
0100
0000
0001
0000
,
0010
0001
0100
0010
1000
0100
0001
0100
,
1000
0010
0001
0010
1000
0100
0010
0100
,
1000
0010
0100
0001
0010
1000
0001
0100
,
1000
0000
0010
0000
0100
0000
0010
0000
1000
0000
0100
0000
0010
0100
0010
0000
,
1000
0100
1000
0000
0001
0100
0001
0000
0010
0100
0010
0000
0001
0010
0001
0000
,
1000
0010
1000
0000
0100
1000
0100
0000
0010
0100
0010
0000
0200
0000
0000
0000
,
0000
0000
0000
0020
,
0000
0000
0000
0000
0000
0000
0000
0000
0000
0000
0000
0000
0000
0000
0000
0000
0330
0000
0000
0000
0000
0000
0000
0000
1000
0000
0000
0100
0000
0000
0010
0000
,
0000
0100
0000
0000
2000
0000
0000
0000
3010
0000
0000
0100
0000
0000
0001
0000
0000
0010
0000
0000
0002
0000
0000
0000
0103
0000
0000
1000
0000
0000
0100
0000
,
0000
0001
0000
0000
0010
0000
0000
1000
0000
0000
0010
0000
0000
0001
0000
0000
0100
0000
0000
0010
0000
0000
0100
0000
0001
0000
0000
0010
0000
0000
0100
0000
,
0000
0010
0000
0000
0002
0000
0000
0000
0103
0000
0000
0010
0000
0000
0100
0000
0000
0001
0000
0000
0020
0000
0000
0000
1030
0000
0000
0010
0000
0000
0001
0000
,
0000
1000
0000
0000
0100
0000
0000
0001
0000
0000
0100
0000
0000
1000
0000
0000
0010
0000
0000
0000
0001
0000
0010
0000
1000
0000
0000
0000
0000
0000
1010
0000
,
0000
0000
0010
0000
0000
0110
0000
0000
1001
0000
0000
0000
1000
0000
0000
1100
,
0000
0000
0100
0000
0000
0110
0000
0000
1001
0000
0000
0000
0001
0000
0000
0011
,
0000
0000
0001
0000
0000
0101
0000
0000
0100
0000
0000
0110
0000
0000
0010
0000
,
0000
0110
0000
0000
0100
0000
0001
0000
0010
0000
0100
0000
0010
0000
0000
0011
,
0000
0000
0001
0000
0000
0101
0000
0000
0100
0000
0000
0000
0010
0000
0000
0110
,
0000
0000
0000
0000
0100
0000
0000
0000
0000
0000
0101
0000
0000
0000
0000
0000
0001
0000
0000
0000
0000
0000
0000
0000
1001
0000
0000
1100
0000
0000
1010
0000
,
0000
0110
0000
0000
0101
0000
0000
0011
0000
0000
1001
0000
0000
0110
0000
0000
1001
0000
0000
0000
0001
0000
1000
0000
0001
0000
0100
0000
0000
0000
0001
0000
,
1000
0000
0001
0010
0000
0001
0100
0000
0001
0000
0010
0000
0100
0001
0000
0100
,
1000
0000
0100
0010
0000
0100
1000
0000
0100
0000
1000
0000
0010
0100
0000
0010
,
1000
0000
0010
0100
0000
0010
0001
0000
0010
0100
0000
0010
1000
0000
0010
0100
,
0000
0010
1000
0000
0100
0000
0010
0000
0001
0000
0100
0000
0001
0010
0000
0001
,
0100
0000
0001
0010
0000
0001
1000
0000
0001
0000
0100
0000
1000
0100
0000
0010
,
0100
0000
0001
0100
0000
0010
0100
0000
0001
0000
0010
0000
0100
0001
0000
0100
,
0010
0000
0100
1000
0000
0100
0010
0000
0100
0001
0000
0100
1000
0000
0100
0010
,
0000
0100
1000
0000
0010
0000
0100
0000
0001
0000
0000
0000
0010
0100
0000
0010
,
0001
0000
0010
0100
0000
0010
1000
0000
0010
0001
0010
0000
0001
0100
0000
0001
,
1000
0000
0001
0010
0000
0001
0100
0000
0001
0010
0001
0000
0010
0100
0000
0010
,
0001
0000
0010
1000
0000
0010
0001
0000
0010
0100
0000
0010
0001
0000
0010
1000
,
0000
0010
0001
0000
0010
0100
0010
0000
0001
0000
0100
0000
0010
0100
0000
0010
,
1000
0000
0010
0100
0000
0010
0001
0000
0010
0100
0010
0100
0001
0010
0000
0001
,
0100
0000
0001
1000
0000
0001
0100
0000
0001
0010
0001
0010
0100
1000
0000
1000
,
0010
0000
0010
0100
0000
0100
0001
0000
0001
0010
0000
0010
0100
0000
0100
0010
,
0000
0010
0001
0000
1000
0001
1000
0001
0010
0100
0010
0100
0010
0000
0001
0000
,
0001
0100
0010
0010
0100
1000
1000
0100
,
0001
0000
0001
0000
0010
0000
0100
0000
0010
0001
0100
0001
0010
0000
0100
0000
,
0100
1000
0010
0010
1000
0100
0100
0001
,
0100
0000
0100
0000
0010
0000
0001
0000
0001
1000
0010
1000
0001
0000
0100
0000
,
0100
0010
0100
0100
0001
1000
1000
0100
,
0010
0000
0010
0000
0100
0000
1000
0000
1000
0001
0100
0001
1000
0000
0010
0000
,
0010
0100
0001
0001
0010
0100
0011
1100
,
1010
0101
0110
1001
1000
0100
0100
0001
,
0100
0100
1000
0010
0010
0100
0010
0010
,
1000
0001
1000
0000
0001
1000
0001
0000
0001
0000
0100
0000
0100
0000
1000
0000
,
0100
0100
0010
0100
0100
1000
0100
0100
,
0001
0100
0001
0000
1000
0100
1000
0000
0001
0000
0010
0000
0010
0000
1000
0000
,
0010
0010
0001
0010
0010
0100
0010
0010
,
0001
1000
0001
0000
0010
0100
0010
0000
0001
0000
0010
0000
0010
0000
0001
0000
,
0100
0000
0100
0000
0001
0000
1000
0000
1000
0010
0100
0000
0001
0010
0100
0000
,
1000
0001
0010
0001
1000
0010
0100
0010
1000
0000
1001
0000
0000
0000
0000
0000
;

//---------------dance-single - ----------------
#NOTES:
     dance-single:
     :
     Challenge:
     9:
     0.627,0.739,0.058,0.131,0.325:
1000
0000
1000
0001
0000
0001
2000
0000
,
0100
0000
0010
0000
3100
0000
0010
0100
,
0010
0000
0010
1000
0000
1000
0100
0000
,
2000
0000
0001
0000
3010
1000
0100
0010
,
0110
0100
0010
1000
,
0100
0000
0001
0000
0100
1000
0010
0100
,
0010
1000
0001
0010
,
0001
0000
0001
0000
0100
0001
0010
0001
,
0100
0010
0100
0001
,
1000
0000
1000
0000
0100
1000
0010
0100
,
0010
0000
1000
0000
0001
0010
0001
0000
,
1000
0010
0100
0010
1000
0001
0010
0000
,
0001
0010
0100
0000
0010
0001
0100
0000
,
0010
0000
0100
0001
0100
0010
0100
0000
,
0001
0000
1000
0100
0010
0000
0100
0000
,
1000
0010
0100
0010
1000
0001
0010
0000
,
0001
0000
0100
0010
1000
0000
0001
0010
,
1000
0010
0001
0100
0010
1000
0100
0000
,
0010
0000
0100
1000
0100
0000
1000
0010
,
1000
0010
0100
0010
0100
0010
1000
0000
,
1001
0000
0001
0010
0001
0000
0100
0001
,
0100
0010
0100
0001
0100
0000
0001
0000
,
0010
0100
0010
0000
0001
0000
0100
0010
,
0100
0001
0100
0000
0001
0000
1000
0000
,
0100
0010
0100
0000
1000
0000
0010
0100
,
0010
1000
0010
0000
0100
0000
0001
0010
,
0001
0000
1000
0010
1000
0000
0001
0010
,
0100
1000
0010
0100
0001
1000
0001
0001
,
1000
1000
0100
0100
0010
0010
0100
1000
,
0100
0010
0001
0000
0010
0001
0010
0000
,
0002
0100
0010
0100
,
0103
0000
0001
0010
0001
0000
1000
0010
,
1000
0000
0001
0010
0100
1000
0010
0000
,
0110
0000
1000
1000
0001
0001
0010
0010
,
0100
0100
0010
0001
0100
0010
0100
0000
,
0001
0010
0001
0000
0200
0000
1000
0000
,
0001
0000
0010
0000
0310
0000
0100
0001
,
0010
0000
0010
0001
0100
0000
0100
0010
,
1000
0100
0010
0100
1000
0010
0100
0100
,
0001
0001
1000
1000
0100
0100
1000
1000
,
0001
0001
0100
0100
0010
0010
2002
0000
,
0000
0000
3003
0220
,
0000
0000
0000
0000
0000
0000
0000
0000
0000
0000
0000
0000
0000
0000
0000
0000
0330
0000
0000
0000
0000
0000
0000
0000
1000
0000
0000
1000
0000
0000
1000
0000
,
0000
1000
0000
0000
1000
0000
0000
0000
0001
0000
0000
0001
0000
0000
0001
0000
0000
0001
0000
0000
0001
0000
0000
0000
0100
0000
0000
0010
0000
0000
0100
0000
,
0000
0001
0000
0000
0010
0000
0000
0100
0000
0000
0010
0000
0000
0001
0000
0000
0100
0000
0000
0010
0000
0000
0100
0000
0001
0000
0000
0010
0000
0000
0100
0000
,
0000
0010
0000
0000
0001
0000
0000
0000
0100
0000
0000
0010
0000
0000
1000
0000
0000
0100
0000
0000
0010
0000
0000
0000
0100
0000
0000
1000
0000
0000
0010
0000
,
0000
0100
0000
0000
0010
0000
0000
1000
0000
0000
0100
0000
0000
0010
0000
0000
0001
0000
0000
0000
0100
0000
0010
0000
0100
0000
0000
0000
0000
0000
0100
0000
,
0000
0000
0100
0000
0000
0100
0000
0000
0100
0000
0000
0000
0001
0000
0000
0001
,
0000
0000
0001
0000
0000
0001
0000
0000
0001
0000
0000
0000
1000
0000
0000
0100
,
0000
0000
1000
0000
0000
0010
0000
0000
0100
0000
0000
0010
0000
0000
1000
0000
,
0000
0100
0000
0000
0010
0000
0000
0000
0001
0000
0010
0000
0001
0000
0000
0001
,
0000
0000
0100
0000
0000
0010
0000
0000
0100
0000
0000
0000
0001
0000
0000
0001
,
0000
0000
0000
0000
1000
0000
0000
0000
0000
0000
0100
0000
0000
0000
0000
0000
0010
0000
0000
0000
0000
0000
0000
0000
0100
0000
0000
1000
0000
0000
0010
0000
,
0000
0100
0000
0000
0010
0000
0000
1000
0000
0000
0001
0000
0000
0010
0000
0000
0001
0000
0000
0000
0100
0000
0010
0000
0100
0000
0000
0000
0000
0000
0001
0000
,
0000
0000
0010
0000
0000
0100
0000
0000
0010
0000
0001
0000
0100
0000
0000
0001
,
0000
0000
1000
0000
0000
0100
0000
0000
0001
0000
0100
0000
1000
0000
0000
0010
,
0000
0000
0100
0000
0000
0010
0000
0000
1000
0000
0000
0100
0000
0000
0010
0000
,
0000
0000
0100
0000
1000
0000
0010
0000
0100
0000
0010
0000
1000
0000
0000
0001
,
0000
0000
0010
0000
0000
0001
0000
0000
0100
0000
0000
0000
0001
0000
0000
0010
,
0000
0000
0001
0000
0000
0100
0000
0000
0010
0000
0000
0000
1000
0000
0000
0100
,
0000
0000
0010
0000
0000
0100
0000
0000
1000
0000
0000
0010
0000
0000
0100
0000
,
0000
0010
0000
0000
1000
0000
0100
0000
0010
0000
0100
0000
1000
0000
0000
0001
,
0000
0000
0010
0000
0000
0001
0000
0000
0100
0000
0000
0100
0010
0000
0000
0100
,
0000
0000
0001
0000
0000
0010
0000
0000
0100
0000
0000
0100
0010
0000
0000
0001
,
0000
0000
0100
0000
0000
0010
0000
0000
0100
0000
0000
0001
0000
0000
0010
0000
,
0000
0001
0000
0000
1000
0000
0010
0000
0001
0000
0010
0000
1000
0000
0000
1000
,
0100
0000
0010
0000
0000
0100
0000
0000
1000
0000
0000
0000
0010
0000
0000
0010
,
0100
0000
0010
0000
0000
1000
0000
0000
0100
0000
0000
0000
0010
0000
0000
0100
,
0000
0000
1000
0000
0000
0010
0000
0000
0100
0000
0000
0001
0000
0000
1000
0000
,
0000
0010
0000
0000
0220
0000
0000
0000
0330
0000
0000
0000
1000
0000
0100
0000
,
1000
0000
0001
0100
0001
0000
0020
0000
,
1000
0000
0001
0000
0130
0000
0010
0001
,
0100
0000
0010
1000
0100
0000
0020
0000
,
1000
0000
0001
0000
0130
0000
1000
0010
,
0100
0000
0010
1000
0001
0000
0020
0000
,
1000
0000
0001
0000
0130
0000
1000
0001
,
1000
0000
0001
0100
0001
0000
1000
0100
,
0100
0001
0100
0100
1000
0010
0100
0000
,
0001
0010
1000
0010
0002
0000
0100
0000
,
1000
0000
0013
0000
0100
1000
0010
0000
,
0100
0001
1000
0100
0020
0000
1000
0000
,
0001
0000
0130
0000
1000
0001
0100
0000
,
0100
0001
0010
0001
0200
0000
1000
0000
,
0001
0000
0310
0000
1000
0010
1000
0000
,
0001
0010
0001
0000
1000
0010
0100
0010
,
1000
0001
0010
0100
MMMM
0110
0000
0000
;
