#TITLE:Genesis At Oasis;
#SUBTITLE:;
#ARTIST:Hakuryu;
#TITLETRANSLIT:;
#SUBTITLETRANSLIT:;
#ARTISTTRANSLIT:;
#CREDIT:Grithokskulk;
#BANNER:Genesis At Oasis.png;
#BACKGROUND:Genesis At Oasis-bg.png;
#LYRICSPATH:;
#CDTITLE:REFLEC BEAT.png;
#MUSIC:Genesis At Oasis.mp3;
#OFFSET:-3.928;
#SAMPLESTART:21.995;
#SAMPLELENGTH:15.000;
#SELECTABLE:YES;
#BPMS:0.000=212.000;
#STOPS:;
#BGCHANGES:;

//---------------dance-single - ----------------
#NOTES:
     dance-single:
     :
     Easy:
     4:
     0.319,0.331,0.151,0.179,0.000: // measure 1
1000
0000
0001
0000
,  // measure 2
0100
0000
1000
0000
,  // measure 3
0100
0000
0010
0000
,  // measure 4
1000
0000
0100
0000
,  // measure 5
0100
0000
1000
0000
,  // measure 6
0001
0000
0100
0000
,  // measure 7
0100
0000
0010
0000
,  // measure 8
0100
0000
0001
0000
,  // measure 9
1000
1000
0100
0000
,  // measure 10
0010
0010
0100
0000
,  // measure 11
0001
0001
0100
0000
,  // measure 12
0010
0010
0100
0000
,  // measure 13
1000
1000
0010
0000
,  // measure 14
0100
0100
0010
0000
,  // measure 15
0001
0001
0010
0000
,  // measure 16
0100
0100
0010
0000
,  // measure 17
1000
0000
1001
0000
,  // measure 18
0001
0010
0001
0100
,  // measure 19
0010
0000
0110
0000
,  // measure 20
1000
0100
0010
0100
,  // measure 21
1000
0000
1001
0000
,  // measure 22
0001
0100
0010
0100
,  // measure 23
0001
0000
0011
0000
,  // measure 24
0010
0100
1000
0100
,  // measure 25
0010
0000
0110
0000
,  // measure 26
0100
1000
0001
0100
,  // measure 27
0010
0000
0101
0000
,  // measure 28
1000
0100
0010
0001
,  // measure 29
0010
0000
1100
0000
,  // measure 30
0001
1000
0010
0100
,  // measure 31
0010
0000
1001
0000
,  // measure 32
1000
0100
0010
0000
,  // measure 33
0200
0000
0000
0000
,  // measure 34
0000
0000
0000
0300
,  // measure 35
0020
0000
0000
0000
,  // measure 36
0000
0000
0000
0030
,  // measure 37
0002
0000
0000
0000
,  // measure 38
0000
0000
0000
0003
,  // measure 39
2000
0000
0000
0000
,  // measure 40
0000
0000
0000
3000
,  // measure 41
0010
0000
0110
0000
,  // measure 42
1000
0001
0010
0001
,  // measure 43
1000
0000
0110
0000
,  // measure 44
0001
1000
0100
0010
,  // measure 45
0100
0000
1100
0000
,  // measure 46
1000
0001
0100
0010
,  // measure 47
0100
0000
0101
0000
,  // measure 48
0001
0010
0100
0100
,  // measure 49
0010
0000
0011
0000
,  // measure 50
0001
0010
0100
1000
,  // measure 51
0010
0000
1001
0000
,  // measure 52
0100
1000
0010
1000
,  // measure 53
0001
0000
0110
0000
,  // measure 54
1000
0001
0010
0001
,  // measure 55
0100
0000
0110
0000
,  // measure 56
0001
1000
0100
0000
,  // measure 57
0020
0030
0200
0000
,  // measure 58
0000
0000
0000
0000
,  // measure 59
0000
0000
0000
0300
,  // measure 60
0020
0030
0002
0003
,  // measure 61
0200
0300
0020
0000
,  // measure 62
0000
0000
0000
0000
,  // measure 63
0000
0000
0000
0030
,  // measure 64
0200
0300
0002
0003
,  // measure 65
2000
3000
0200
0000
,  // measure 66
0000
0000
0000
0000
,  // measure 67
0000
0000
0000
0300
,  // measure 68
0020
0030
0200
0300
,  // measure 69
2000
3000
0020
0000
,  // measure 70
0000
0000
0000
0000
,  // measure 71
0030
0000
0000
0000
,  // measure 72
0002
0000
0003
0000
,  // measure 73
1000
0000
0001
0010
,  // measure 74
0100
0010
0001
0100
,  // measure 75
0010
0000
0100
0000
,  // measure 76
0001
1000
0100
0010
,  // measure 77
0001
0000
1000
0000
,  // measure 78
0001
0100
0010
0100
,  // measure 79
0001
0000
1000
0000
,  // measure 80
0100
1000
0010
0010
,  // measure 81
1000
0000
0001
0000
,  // measure 82
0010
0100
1000
0100
,  // measure 83
0010
0000
0001
0000
,  // measure 84
1000
0010
0100
0010
,  // measure 85
1000
0000
0001
0000
,  // measure 86
0010
0100
1000
0001
,  // measure 87
0100
0000
0010
0000
,  // measure 88
0100
0100
0001
0001
;

//---------------dance-single - ----------------
#NOTES:
     dance-single:
     :
     Medium:
     7:
     0.518,0.539,0.066,0.236,0.000:
0010
0010
0100
0100
,
1000
1000
0001
0001
,
1000
1000
0010
0010
,
1000
1000
0001
0001
,
1000
1000
0100
0100
,
0010
0010
0001
0001
,
0010
0010
0001
0001
,
0010
0010
0100
0100
,
1000
1000
0010
0010
,
0100
0100
0001
0001
,
0010
0010
0100
0100
,
0010
0010
0001
0001
,
0100
0100
0010
0010
,
1000
1000
0100
0100
,
0010
0010
0100
0100
,
1000
1000
0001
0001
,
0100
0000
0001
0010
0000
0000
0100
0000
,
0010
0000
0001
0100
0001
0000
1001
0000
,
1000
0000
0100
0010
0000
0000
0100
0000
,
1000
0000
0010
0100
0010
0000
1001
0000
,
0010
0000
0100
1000
0000
1000
0010
0000
,
0100
0000
0010
0100
0010
0000
1001
0000
,
0010
0000
0100
0010
0000
0000
0001
0000
,
0100
0000
0010
0100
0010
0000
1001
0000
,
0010
0000
0100
1000
0000
1000
0100
0000
,
0010
0000
0100
1000
0100
0000
1001
0000
,
0001
0000
0100
0010
0000
0010
0100
0000
,
0001
0000
0010
0001
0010
0000
1001
0000
,
0001
0000
0100
0010
0000
0010
0100
0000
,
0001
0000
1000
0100
1000
0000
0011
0000
,
0001
0000
0100
0010
0000
0010
0100
0000
,
0002
0000
1000
1003
,
0200
0000
0000
0000
,
0320
0000
0000
0000
,
2030
0000
0000
0000
,
3200
0000
0000
0000
,
0302
0000
0000
0000
,
0203
0000
0000
0000
,
0320
0000
0000
0000
,
0032
0000
1000
1003
,
1000
0000
0010
0100
0000
0100
0010
0000
,
1000
0000
0001
0010
0001
0000
1000
0010
,
1000
0000
0100
0010
0000
0010
0100
0000
,
1000
0000
0001
0100
0001
0000
1000
0100
,
1000
0000
0001
0010
0000
0010
0001
0000
,
1000
0000
0010
0100
0010
0000
1000
0010
,
1000
0000
0001
0010
0000
0010
0100
0000
,
0010
0000
0001
1000
0001
0000
0100
0000
,
0010
0000
1000
0010
1000
0000
0010
0000
,
0100
0000
0001
0010
0001
0000
0010
0000
,
0100
0000
0010
0001
0010
0000
0001
0000
,
1000
0000
0010
0100
0010
0000
1000
0000
,
0100
0000
0010
0100
0010
0000
0100
0000
,
1000
0000
0010
0100
0010
0000
1000
0000
,
0001
0000
0010
0100
0000
0100
0010
0000
,
0001
0000
1000
0010
1000
0000
0001
0000
,
2000
0000
0000
3100
0000
0020
0000
0000
,
0000
0000
0000
0000
,
0000
0000
0000
0000
0000
0000
0000
0230
,
0000
0000
0000
0320
0000
0000
0030
0000
,
0002
0000
0000
0103
0000
0020
0000
0000
,
0000
0000
0000
0000
,
0000
0000
0000
0000
0000
0000
0000
0230
,
0000
0000
0000
0302
0000
0000
0003
0000
,
0020
0000
0030
0100
0000
0020
0000
0000
,
0000
0000
0000
0000
,
0000
0000
0000
0000
0000
0000
0000
0032
,
0000
0000
0000
2003
0000
0000
3000
0000
,
0020
0000
0000
0230
0000
0302
0000
0000
,
0000
0000
0000
0000
,
0010
0000
0010
0000
,
0100
0100
0200
0303
,
0100
0001
0100
0000
0001
1000
0001
0000
,
1000
0100
1000
0000
0001
0010
0001
0000
,
1000
0010
1000
0000
0001
0100
0001
0000
,
1000
0100
1000
0000
0001
0010
0001
0000
,
0100
0010
0100
0000
0001
1000
0001
0000
,
0010
0100
0010
0000
0001
0010
0001
0000
,
1000
0010
1000
0000
0001
0100
0001
0000
,
1000
0100
1000
0000
0010
0100
0010
0000
,
1000
0010
1000
0000
0001
0100
0001
0000
,
0010
0001
0010
0000
0100
1000
0100
0000
,
1000
0010
1000
0000
0001
0010
0001
0000
,
1000
0100
1000
0000
0001
0100
0001
0000
,
1000
0010
1000
0000
0100
1000
0100
0000
,
0010
0100
0010
0000
0100
1000
0100
0000
,
1000
0001
1000
0000
0001
0100
0001
0000
,
0010
0001
0010
0000
0100
1000
0100
1000
;

//---------------dance-single - ----------------
#NOTES:
     dance-single:
     :
     Hard:
     9:
     0.787,0.788,0.019,0.198,0.217:
1000
0010
1000
0010
0100
0010
0100
0010
,
0100
0001
0100
0001
0010
0001
0010
0001
,
0100
0001
0100
0001
0100
0010
0100
0010
,
0100
0001
0100
0001
1000
0001
1000
0001
,
1000
0100
1000
0100
1000
0010
1000
0010
,
0100
0010
0100
0010
0100
0001
0100
0001
,
0010
0001
0010
0001
0100
0001
0100
0001
,
0100
0010
0100
0010
1000
0010
1000
0010
,
0100
0001
0100
0001
1000
0001
1000
0001
,
1000
0100
1000
0100
0010
0100
0010
0100
,
0010
0001
0010
0001
0100
0001
0100
0001
,
0100
0010
0100
0010
1000
0010
1000
0010
,
1000
0100
1000
0100
0010
0100
0010
0100
,
1000
0100
1000
0100
1000
0001
1000
0001
,
0100
0001
0100
0001
0100
0010
0100
0010
,
1000
0010
1000
0010
1000
0001
1000
0001
,
1001
0000
0001
0001
0000
0100
0100
0000
,
0010
0000
0000
0000
0100
0001
0100
0000
0001
0000
0010
0000
0100
0010
0001
0100
,
0010
0000
1000
1000
0000
0100
0100
0000
,
0010
0000
0000
0000
0100
1000
0100
0000
1000
0000
0010
0000
0100
0010
1000
0100
,
0010
0000
0100
0100
0000
0010
0010
0000
,
0001
0000
0000
0000
0100
0001
0100
0000
0010
0000
1000
0000
0100
0010
0100
1000
,
0010
0000
0100
0100
0000
0010
0010
0000
,
1000
0000
0000
0000
0001
0010
0001
0000
0100
0000
0010
0000
0001
1000
0010
0100
,
0001
0010
0100
0010
0001
0100
0010
0000
,
0010
1000
0100
0001
0100
1000
0010
0001
,
0010
0100
0010
1000
0010
0100
0001
0000
,
0010
1000
0010
0001
0100
0010
1000
0100
,
0001
0100
1000
0010
0100
0010
1000
0000
,
0001
0010
1000
0010
0001
0100
0010
1000
,
0010
0001
0010
0100
1000
0100
0001
1000
,
0010
0100
0010
1000
0100
0010
0100
0000
,
2000
0000
0000
0000
,
3002
0000
0000
0000
,
0203
0000
0000
0000
,
0320
0000
0000
0000
,
0230
0000
0000
0000
,
0302
0000
0000
0000
,
0023
0000
0000
0000
,
0230
0000
0000
0310
,
0011
0000
0001
0001
0000
0100
0100
0000
,
0010
0000
0000
0000
0100
0001
0100
0000
0001
0000
1000
0000
0100
0010
0100
1000
,
0010
0000
0100
0100
0000
1000
1000
0000
,
0010
0000
0000
0000
0100
0001
0100
0000
0001
0000
0010
0000
0100
0010
0001
0100
,
0010
0000
0100
0100
0000
0001
0001
0000
,
0010
0000
0000
0000
0100
0010
0100
0000
1000
0000
0001
0000
0100
0010
0100
0001
,
0010
0000
0100
0100
0000
0010
0010
0000
,
0001
0000
0000
0000
1000
0010
1000
0000
0001
0000
0010
0000
1000
0010
0001
0100
,
0010
0100
0010
0100
0001
1000
0001
1000
,
0100
0000
0000
0000
0010
0001
0010
0000
0100
0000
0010
0000
0001
0100
0010
1000
,
0100
1000
0100
1000
0001
0010
0001
0010
,
0100
0000
0000
0000
0010
0001
0010
0000
0001
0000
0100
0000
0010
0100
0001
1000
,
0100
0010
0100
0010
0001
1000
0001
1000
,
0010
0000
0000
0000
0100
0001
0100
0000
0010
0000
0100
0000
0001
1000
0100
0001
,
0100
1000
0010
0100
0000
0010
0010
0000
,
0100
0000
0100
0000
0001
0010
0001
0000
0100
0000
0010
0000
1000
0010
0001
0010
,
2000
0000
0000
3020
0000
0200
0000
0000
,
0000
0000
0000
0000
,
0000
0000
0000
0000
0000
0330
0000
0001
,
0020
0000
0000
0230
0000
0000
0300
0010
,
0002
0000
0000
0203
0000
0020
0000
0000
,
0000
0000
0000
0000
,
0000
0000
0000
0000
0000
0330
0000
0200
,
0000
0000
0000
0002
0000
0000
0303
0000
,
0002
1000
0000
1000
,
0000
0010
0000
0010
,
0000
0100
0000
0100
,
0000
0000
0010
0000
0000
0000
0013
0100
,
2000
0010
0000
0100
,
0000
0001
0000
0010
,
3001
0001
0010
0010
,
0100
0100
0020
0130
,
1000
0100
1000
0100
1000
0001
1000
0001
,
0100
0001
0010
0100
1000
0000
0010
0000
0100
0000
0010
0000
0100
0000
0010
0000
,
0100
0001
0100
0001
0010
0001
0010
0001
,
0010
0000
0100
0000
0010
0000
0100
0000
1000
0000
0100
0000
1000
0100
0010
0001
,
0010
0100
0010
0100
0010
0001
0010
0001
,
0100
0001
0100
0001
0100
0010
0100
0010
,
0100
0001
0100
0001
0010
0001
0010
0001
,
0010
0100
0010
0100
1000
0100
1000
0100
,
1000
0010
1000
0010
0100
0010
0100
0010
,
1000
0100
0010
0001
1000
0000
0010
0000
0100
0000
0001
0000
0100
0000
0001
0000
,
0010
0001
0010
0001
0010
0100
0010
0100
,
1000
0000
0100
0000
1000
0000
0100
0000
1000
0000
0010
0000
1000
0010
0100
0001
,
0010
0001
0010
0001
0100
0001
0100
0001
,
0100
0010
0100
0010
1000
0010
1000
0010
,
1000
0001
1000
0001
0010
0001
0010
0001
,
0010
0000
0100
0000
0010
0000
0100
0000
1000
0010
0100
0001
0010
0000
0100
0000
;
