#TITLE:Fxxk Boyz Get Money;
#SUBTITLE:;
#ARTIST:FAR EAST MENTION MANNEQUINS;
#TITLETRANSLIT:;
#SUBTITLETRANSLIT:;
#ARTISTTRANSLIT:;
#CREDIT:;
#BANNER:Fxxk Boys Get Money-bn.png;
#BACKGROUND:Fxxk Boys Get Money-bg.png;
#LYRICSPATH:;
#CDTITLE:grithokskulk.png;
#MUSIC:Fxxk Boyz Get Money.mp3;
#OFFSET:-0.087;
#SAMPLESTART:32.629;
#SAMPLELENGTH:18.766;
#SELECTABLE:YES;
#BPMS:0.000=103.000;
#STOPS:;
#BGCHANGES:0.000=Fxxk Boyz Get Money.avi=1.000=1=0=1,
99999=-nosongbg-=1.000=0=0=0 // don't automatically add -songbackground-
;

//---------------dance-single - ----------------
#NOTES:
     dance-single:
     :
     Challenge:
     9:
     0.681,0.719,0.848,0.034,0.630: // measure 1
0000
0000
0000
0000
,  // measure 2
0000
0000
0000
0000
,  // measure 3
1000
0100
0000
0100
0010
0100
1000
0010
0000
0010
0100
0000
0110
0000
0000
0000
,  // measure 4
0001
0001
0000
0001
0100
0000
0100
0010
0000
1000
0100
0000
1100
0000
0000
0000
,  // measure 5
1000
0100
0000
0001
0000
0100
0000
0010
0001
0000
0100
0000
0010
0000
0010
0000
,  // measure 6
1000
0100
0000
0100
0000
0010
0000
0100
1000
0000
0010
0000
0001
0000
0010
0000
,  // measure 7
1000
0010
1000
0010
0100
0001
0100
0001
0010
0001
0010
0001
1000
0000
0010
0000
,  // measure 8
0100
0001
0100
0001
1000
0001
1000
0001
0010
0001
0010
0001
0100
0000
0010
0000
,  // measure 9
0000
0000
0100
0000
0010
1000
0000
0000
0100
0000
0010
0000
0001
0100
0000
0000
,  // measure 10
0010
0000
1000
0000
0100
1000
0000
0010
0100
0000
0001
0000
0010
0001
0000
0000
,  // measure 11
0100
0010
0000
0100
0010
0000
1000
0100
0001
0000
0100
0000
1000
0000
1000
0000
,  // measure 12
0010
0100
0000
0100
0010
0100
0010
1000
0100
0001
0100
1000
0010
0000
0100
0000
,  // measure 13
0010
1000
0000
0010
1000
0000
0010
0001
0010
0000
1000
0001
0100
0000
0010
0000
,  // measure 14
2000
0000
0000
0000
,  // measure 15
3100
0000
0000
0100
1000
0000
1010
0000
0101
0000
0011
0000
0101
0001
0100
0010
,  // measure 16
1000
0000
0000
1000
0100
0000
1100
0000
0011
0000
0101
0000
1010
0010
0100
0010
,  // measure 17
1000
0000
0000
1000
0100
0000
0101
0000
1100
0000
1010
0000
0110
0010
1000
0000
,  // measure 18
1100
0100
0000
0000
0110
0010
0000
0000
0011
0001
0000
0000
0101
0001
0000
0000
,  // measure 19
0110
0000
0000
0010
0100
0000
0110
0000
1010
0000
1100
0000
0110
0010
0001
0000
,  // measure 20
0001
0000
0000
0001
0100
0000
0110
0000
1010
0000
1100
0000
0110
0010
0001
0000
,  // measure 21
0100
0000
0000
0100
0010
0000
1010
0000
0110
0000
1010
0000
1100
0100
0010
0001
,  // measure 22
0010
0000
0000
0000
0000
0000
0001
0000
0000
0000
0000
0000
0110
0000
0000
0000
0000
0000
0010
0000
0000
0001
0000
0000
0100
0000
0000
0000
0010
0000
0000
0000
1000
0000
0000
0000
0100
0000
0000
0000
0000
0000
0000
0000
0000
0000
0000
0000
,  // measure 23
0010
0000
0000
0010
0001
0000
0200
0000
0000
0000
0010
0000
0310
0000
0000
0000
,  // measure 24
1000
0000
0000
1000
0200
0000
0001
0000
0000
0000
0010
0000
0310
0000
0000
0000
,  // measure 25
0100
0000
1000
0000
1000
0000
0010
0100
0000
0100
0001
0010
0001
0000
0000
0000
,  // measure 26
0001
0100
0000
0100
0010
1000
0100
0010
0100
1000
0010
0000
1010
0000
0000
0000
,  // measure 27
1000
0010
0000
0100
0000
0001
0000
0010
0001
0000
0100
0000
1000
0000
0100
0000
,  // measure 28
0001
0010
0000
1000
0000
0010
0000
0001
0100
0000
0010
0000
1000
0000
0100
0000
,  // measure 29
1000
1000
0100
0100
0010
0000
0001
0100
0010
0100
0010
1000
0100
0000
0001
0000
,  // measure 30
0100
1000
0100
1000
0010
1000
0010
1000
0010
0100
0010
0100
0010
0000
0100
0000
,  // measure 31
0001
0000
1001
0000
1001
0000
1000
0000
0100
0010
0001
0000
0011
0000
0011
0000
,  // measure 32
0001
0100
0010
0000
0110
0000
0000
0000
0010
0000
1010
0000
1010
0100
0000
0000
,  // measure 33
0010
0001
0000
0010
0001
0000
0010
0001
0100
0000
0010
0000
0010
0000
0010
0000
,  // measure 34
1000
0100
0000
0100
1000
0010
0001
0010
1000
0010
0100
0010
1000
0000
0100
0000
,  // measure 35
0010
0001
0000
0010
0001
0000
0010
0001
0100
0000
0010
1000
0100
0000
0010
0000
,  // measure 36
0100
0000
0000
0000
0000
0000
0000
0000
0000
0100
0000
0000
1000
0000
0000
0000
0000
0000
0010
0000
0000
0000
0000
0000
0100
0000
0000
0000
0100
0000
0000
0000
0100
0000
0000
0000
0010
0000
0000
0000
0010
0000
0000
0000
0010
0000
0000
0000
,  // measure 37
1000
0000
0000
0000
0100
0000
0000
0000
0001
0000
0000
0000
0100
0000
0000
0000
1000
0000
0000
0000
0010
0000
0000
0000
0100
0000
0000
0000
0000
0000
0000
0000
0000
0100
0000
0000
0010
0000
0000
0000
0000
0000
1010
0000
0000
0000
0000
0000
,  // measure 38
0101
0000
1001
0000
1100
0100
0010
0001
0100
0000
0000
0100
0001
0000
0011
0000
,  // measure 39
1100
0000
0011
0000
0101
0001
1000
0100
0010
0000
0000
0010
0100
0000
1100
0000
,  // measure 40
1010
0000
0110
0000
0101
0001
0010
0000
1100
1000
0000
0000
1010
0010
0000
0000
,  // measure 41
0110
0100
0000
0000
0101
0001
0000
0000
0010
0000
0110
0000
0100
0000
1100
0000
,  // measure 42
1000
1010
0010
0110
0100
0101
0001
0011
,  // measure 43
0110
0000
1100
0000
1010
0010
0100
0000
0001
0000
0101
0000
0100
0000
0110
0000
,  // measure 44
0010
1010
1000
1100
0100
0110
0010
0011
,  // measure 45
1001
0000
1010
0000
0110
0100
0001
0000
0011
0000
1100
0000
1010
0000
0110
0000
,  // measure 46
0101
0110
1010
1100
1001
0011
0101
0110
,  // measure 47
1010
0000
0100
0000
0001
1000
0001
0000
0011
0000
1100
0000
1010
0000
0101
0000
,  // measure 48
0110
0000
1001
0000
1100
0000
0011
0000
0101
0000
0110
0000
1010
0000
0010
0100
,  // measure 49
0001
0000
0000
0000
0010
0000
0000
0000
0100
0000
0000
0000
2000
0000
0000
0000
0000
0000
3000
0000
0000
0000
0000
0000
0001
0000
0000
0010
0000
0000
0001
0000
0000
0010
0000
0000
0001
0000
0000
1000
0000
0000
0001
0000
0000
1000
0000
0000
,  // measure 50
0010
1000
0010
1000
0010
0000
0110
0000
0000
0000
0000
0000
0000
0000
0000
0000
;

//---------------dance-single - ----------------
#NOTES:
     dance-single:
     :
     Hard:
     7:
     0.427,0.402,0.069,0.154,0.326:
0000
0000
0000
0000
,
0000
0000
0000
0000
,
1000
0000
0000
0000
0100
0000
1000
0100
0000
0100
0010
0000
0001
0000
0000
0000
,
0001
0000
0100
0000
0010
0000
0100
0010
0000
0010
1000
0000
0100
0000
0000
0000
,
1000
0100
0000
0010
0000
0001
0000
0100
0010
0000
0010
0000
0100
0000
0100
0000
,
0001
1000
0000
0100
0000
0010
0000
0100
1000
0000
1000
0000
0001
0000
0001
0000
,
1000
0100
1000
0000
0001
0000
0010
0000
0100
0000
1000
0000
0010
0000
0010
0000
,
0100
0001
0100
0000
0001
0000
0010
0000
0100
0000
1000
0000
0010
0000
0010
0000
,
0000
0000
0100
0000
0100
0010
0000
0000
0000
0000
0010
0000
0010
1000
0000
0000
,
0000
0000
1000
0000
1000
0001
0000
0000
0000
0000
0001
0000
0001
0010
0000
0000
,
0200
0000
0000
1000
0000
0000
2300
0000
0000
0000
0100
0000
3100
0000
0000
0000
,
0020
0000
0000
0100
0000
0000
0230
0000
0000
0000
0010
0000
0310
0000
0000
0000
,
0002
0000
0000
1000
0000
0000
2003
0000
0000
0000
0001
0000
3001
0000
0000
0000
,
0000
0000
0000
0000
,
0100
0000
0000
0100
0010
0000
1000
0000
0100
0000
0010
0000
0001
0001
0000
0000
,
0001
0000
0000
0001
1000
0000
0010
0000
0100
0000
0001
0000
1000
1000
0000
0000
,
0100
0000
0000
0100
1000
0000
0010
0000
0100
0000
0001
0000
0010
0010
0000
0000
,
0001
0001
0000
0000
0100
0100
0000
0000
0010
0010
0000
0000
1000
1000
0000
0000
,
0100
0000
0000
0100
1000
0000
0010
0000
0100
0000
0001
0000
0010
0010
0000
0000
,
0100
0000
0000
0100
0010
0000
0001
0000
0100
0000
0010
0000
1000
1000
0000
0000
,
0100
0000
0000
0100
1000
0000
0010
0000
0001
0000
0010
0000
0100
0100
0000
0000
,
0001
0001
0001
0001
0010
0100
2000
0000
,
3000
0000
0000
0000
,
0000
2200
0000
3300
,
0001
0000
0001
0000
0001
0000
0010
0001
0000
0001
0100
0000
0010
0000
0000
0000
,
1000
0010
0000
0010
1000
0000
0100
0000
0010
0000
0001
0000
0100
0000
0000
0000
,
0001
0100
0000
1000
0000
0100
0000
0010
1000
0000
0100
0000
0010
0000
0001
0000
,
1000
0010
0000
0100
0000
0010
0000
1000
0100
0000
0010
0000
0001
0000
0001
0000
,
1000
0100
0010
0001
1000
0100
0010
0010
,
0001
0010
0100
1000
0001
0010
0100
0100
,
0000
0000
1000
0000
1000
0000
0000
0000
0000
0001
0100
0000
0100
0000
0000
0000
,
0000
0000
0010
0000
0010
0100
0000
0000
0000
0000
0100
0000
0100
0001
0000
0000
,
1002
0000
0000
1000
0000
0000
2003
0000
0000
0000
0001
0000
3001
0000
0000
0000
,
0210
0000
0000
0010
0000
0000
0320
0000
0000
0000
0100
0000
0130
0000
0000
0000
,
2100
0000
0000
0100
0000
0000
3200
0000
0000
0000
1000
0000
1300
0000
0000
0000
,
2001
0000
0000
0001
0000
0000
3002
0000
0000
0000
1000
0000
1003
0000
0000
0000
,
1000
0000
0000
0000
0100
0000
0000
0000
0010
0000
0000
0000
0001
0000
0000
0000
0100
0000
0000
0000
0010
0000
0000
0000
1000
0000
0000
0000
0000
0000
0000
0000
0000
1000
0000
0000
0100
0000
0000
0000
0000
0000
0010
0000
0000
0000
0000
0000
,
0001
0000
0100
0000
0010
0010
0000
0000
0100
0000
0000
0100
0001
0000
0010
0000
,
0001
0000
0100
0000
0010
1000
0000
0000
0100
0000
0000
0100
0001
0000
0100
0000
,
1000
0000
0010
0000
0100
0100
0000
0000
0001
0001
0000
0000
0010
0010
0000
0000
,
0001
0001
0000
0000
1000
1000
0000
0000
0010
0000
0000
0010
0100
0000
0010
0000
,
1000
0000
0100
0000
0010
0000
0001
0000
0100
0000
0000
0100
0010
0000
1000
0000
,
0100
0000
0100
0000
0100
0010
0000
0000
0001
0000
0000
0001
0100
0000
0010
0000
,
1000
0000
0000
1000
0100
0000
0010
0000
0001
0000
0000
0001
0100
0000
0010
0000
,
0100
0100
0100
0000
0010
0010
0010
0010
,
0010
0010
0010
0010
0010
0010
0010
0010
,
1010
0011
1010
0000
0100
0100
0100
0100
,
0100
0100
0100
0100
0100
0100
0100
0001
,
0010
0100
1000
0000
0002
0000
0000
0000
,
0000
0000
0000
0003
0000
0000
0000
0000
;

//---------------dance-single - ----------------
#NOTES:
     dance-single:
     :
     Medium:
     6:
     0.302,0.381,0.111,0.248,0.030:
0000
0000
0000
0000
,
0000
0000
0000
0000
,
1000
0000
1000
0010
0000
0010
0100
0000
,
0001
0000
0001
0010
0000
0010
0100
0000
,
1000
0000
1000
0010
0000
0010
1000
0000
,
0001
0000
0001
0010
0000
0010
0001
0000
,
1000
0100
0010
0000
0001
0000
0001
0000
,
0001
0100
0010
0000
1000
0000
1000
0000
,
0000
0010
0010
0000
0000
0100
0100
0000
,
0000
0001
0001
0000
0000
0010
0010
0000
,
0100
0000
0000
0100
0000
0000
0200
0000
0000
0000
0000
0000
0300
0000
0000
0000
,
0010
0000
0000
0010
0000
0000
0020
0000
0000
0000
0000
0000
0030
0000
0000
0000
,
0001
0000
0000
0001
0000
0000
0002
0000
0000
0000
0000
0000
0003
0000
0000
0000
,
1001
0000
0000
0000
,
0000
0000
0000
1000
0010
0100
0001
0000
,
0000
0000
0000
0001
0010
0100
1000
0000
,
0000
0000
0000
1000
0010
0100
0001
0000
,
0011
0110
1100
1001
,
2002
0000
3003
1000
0010
0100
0001
0000
,
2002
0000
3003
1000
0100
0010
0001
0000
,
2002
0000
3003
0001
0100
0010
1000
0000
,
0100
0100
0100
0100
0100
0100
0020
0000
,
0030
0000
0000
0000
,
0000
0200
0000
0300
,
0100
0000
1000
0010
0000
0010
0100
0000
,
0001
0000
1000
0001
0000
0001
0010
0000
,
0001
0000
0100
0010
0000
0010
1000
0000
,
0001
0000
1000
0100
0000
0100
1000
0000
,
0001
0010
0100
1000
0001
0000
0001
0000
,
1000
0100
0010
0001
1000
0000
1000
0000
,
0000
0010
0010
0000
0000
0100
0100
0000
,
0000
0001
0001
0000
0000
1000
1001
0000
,
0100
0000
0000
0100
0000
0000
0200
0000
0000
0000
0000
0000
0300
0000
0000
0000
,
1000
0000
0000
1000
0000
0000
2000
0000
0000
0000
0000
0000
3000
0000
0000
0000
,
0010
0000
0000
0010
0000
0000
0020
0000
0000
0000
0000
0000
0030
0000
0000
0000
,
0100
0000
0000
0100
0000
0000
0200
0000
0000
0000
0000
0000
0300
0000
0000
0000
,
0002
0000
0000
0000
0003
0000
0000
1000
,
0100
0010
0001
0000
0000
0000
0000
0001
,
0100
0010
1000
0000
0000
0000
0000
0100
,
1000
0010
0100
0000
0101
0000
1010
0000
,
1100
0000
0011
0000
0000
0200
0300
0020
,
0030
2000
3000
0200
0300
0020
0030
0002
,
0103
0100
0100
0000
0000
0020
0030
2000
,
3000
0200
0300
2000
3000
0020
0030
0200
,
0301
0001
0001
0000
0010
0100
0010
0100
,
0010
0100
0010
0100
1000
0001
1000
0001
,
1000
1000
1000
0000
0010
0100
0010
0100
,
0010
0100
0010
0100
0001
1000
0001
0010
,
0100
1000
0010
0000
0200
0000
0000
0000
,
0000
0000
0000
0300
0000
0000
0000
0000
;

//---------------dance-single - ----------------
#NOTES:
     dance-single:
     :
     Easy:
     4:
     0.218,0.233,0.000,0.086,0.000:
0000
0000
0000
0000
,
0000
0000
0000
0000
,
1000
0000
1000
0000
1000
0010
0010
0000
,
0001
0000
0001
0000
0001
0010
0010
0000
,
1000
0000
1000
0000
1000
0010
0010
0000
,
0001
0000
0001
0000
0001
0010
0010
0000
,
1000
0100
0010
0001
,
1000
0100
0010
0001
,
0000
0100
0100
0000
0000
0100
0100
0000
,
0000
0100
0100
0000
0000
0100
0010
0000
,
0002
0000
0000
0003
,
2000
0000
0000
3000
,
0200
0000
0000
0300
,
0010
0000
0000
0000
,
0100
0100
0100
0100
,
1000
1000
1000
1000
,
0010
0010
0010
0010
,
0100
0100
0100
0100
,
0001
0001
0001
0001
,
0010
0010
0010
0010
,
0100
0100
0100
0100
,
1000
1000
1000
1000
,
0002
0000
0000
0003
,
0200
0000
0000
0300
,
0010
0000
0010
0000
0010
0100
0100
0000
,
0001
0000
0001
0000
0001
0100
0100
0000
,
0010
0000
1000
0000
0100
0010
0010
0000
,
0001
0000
0100
0000
0010
1000
1000
0000
,
0001
0010
0100
1000
,
0001
0010
0100
1000
,
0000
0010
0010
0000
0000
0010
0010
0000
,
0000
0010
0010
0000
0000
0010
0100
0000
,
0020
0000
0000
0030
,
2000
0000
0000
3000
,
0200
0000
0000
0300
,
0020
0000
0000
0030
,
0001
0000
1000
1000
,
1000
1000
0001
0001
,
0001
0001
0100
0100
,
0100
0100
0010
0010
,
0010
0010
0100
0001
,
0100
0001
0100
0001
,
0100
0100
0100
0000
0010
0000
1000
0000
,
0010
1000
0010
1000
,
0010
0010
0010
0000
0100
0000
0100
0000
,
0100
0100
0100
0100
,
0010
0010
0010
0000
0100
0000
0100
0000
,
0100
0100
0100
0100
,
0010
0010
0010
0000
2000
0000
0000
0000
,
0000
0000
0000
3000
0000
0000
0000
0000
;
