#TITLE:Fallin' For You;
#SUBTITLE:;
#ARTIST:Atrie featuring Shihoko Hirata;
#TITLETRANSLIT:;
#SUBTITLETRANSLIT:;
#ARTISTTRANSLIT:;
#CREDIT:Grithokskulk;
#BANNER:Fallin For You.png;
#BACKGROUND:Fallin For You-bg.png;
#LYRICSPATH:;
#CDTITLE:grithokskulk.png;
#MUSIC:Fallin For You.mp3;
#OFFSET:-2.037;
#SAMPLESTART:91.680;
#SAMPLELENGTH:15.000;
#SELECTABLE:YES;
#BPMS:0.000=130.000;
#STOPS:;
#BGCHANGES:;

//---------------dance-single - ----------------
#NOTES:
     dance-single:
     :
     Easy:
     3:
     0.206,0.229,0.049,0.169,0.000: // measure 1
1000
0000
0010
0000
,  // measure 2
1000
0100
1000
0000
,  // measure 3
0001
0000
0010
0000
,  // measure 4
0001
0100
0001
0000
,  // measure 5
0010
0000
0100
0000
,  // measure 6
1000
0001
1000
0000
,  // measure 7
0010
0000
0100
0000
,  // measure 8
0001
0010
0001
0000
,  // measure 9
0100
0000
0010
0000
,  // measure 10
1000
0100
0010
0000
,  // measure 11
0100
0000
0010
0000
,  // measure 12
0001
0100
0010
0000
,  // measure 13
0100
0000
0001
0000
,  // measure 14
1000
0100
0010
0000
,  // measure 15
0100
0000
1000
0000
,  // measure 16
0010
0100
0001
0000
,  // measure 17
0020
0000
0130
0010
,  // measure 18
0200
0300
1000
0001
,  // measure 19
0200
0300
0020
0030
,  // measure 20
1000
0001
0010
0001
,  // measure 21
0200
0300
0010
0000
,  // measure 22
2000
3000
0100
0000
,  // measure 23
0020
0030
0200
0300
,  // measure 24
0010
0001
0100
0001
,  // measure 25
0020
0000
0000
0030
,  // measure 26
0100
0100
0100
0000
,  // measure 27
2000
0000
0000
3000
,  // measure 28
0001
0100
0001
0000
,  // measure 29
0020
0000
0000
0030
,  // measure 30
0100
0010
0100
0000
,  // measure 31
2000
3000
0200
0300
,  // measure 32
0020
0030
0002
0003
,  // measure 33
0200
0000
0000
0300
,  // measure 34
0010
0100
0001
0000
,  // measure 35
2000
0000
0000
3000
,  // measure 36
0100
1000
0010
0100
,  // measure 37
0002
0000
0000
0003
,  // measure 38
0010
0001
0100
0000
,  // measure 39
0020
0030
0200
0300
,  // measure 40
2002
0000
3003
0000
,  // measure 41
1000
0100
1000
0000
,  // measure 42
0001
0100
0001
0000
,  // measure 43
0010
0001
0010
0000
,  // measure 44
0100
1000
0010
0010
,  // measure 45
0110
0000
1000
0010
,  // measure 46
1000
0000
0001
0000
,  // measure 47
1001
0000
0110
0000
,  // measure 48
0001
1000
1001
0000
,  // measure 49
0220
0000
0330
0000
,  // measure 50
0100
0001
1000
0100
,  // measure 51
0010
0010
0100
0000
,  // measure 52
0010
0001
0100
0010
,  // measure 53
1000
1000
0100
0000
,  // measure 54
1000
0001
0010
0001
,  // measure 55
0100
0100
0010
0000
,  // measure 56
0100
0010
1000
0001
,  // measure 57
0010
0010
0001
0000
,  // measure 58
0100
0001
1000
0100
,  // measure 59
1000
1000
0001
0000
,  // measure 60
1000
0010
1000
0001
,  // measure 61
0010
0010
0001
0000
,  // measure 62
0100
0010
1000
0100
,  // measure 63
0010
0010
0100
0000
,  // measure 64
1000
0001
0100
0000
,  // measure 65
0001
0010
0100
0000
,  // measure 66
0110
0000
0000
0000
;

//---------------dance-single - ----------------
#NOTES:
     dance-single:
     :
     Medium:
     5:
     0.350,0.320,0.084,0.141,0.000:
2000
0100
0010
3100
,
0002
0010
0100
0013
,
0100
0000
0010
0100
0010
0000
1000
0001
,
1000
0001
0110
1000
,
0020
0100
1000
0130
,
0200
0001
0010
0301
,
0010
0001
0010
0000
0100
1000
0100
0000
,
1002
0000
0100
0103
,
0002
0010
1000
0013
,
2000
0100
0001
3100
,
0001
0010
0001
0000
1000
0010
1000
0000
,
0120
0000
0100
0130
,
0002
0010
1000
0103
,
0200
1000
0010
0301
,
0010
0001
0100
0000
0010
1000
0100
0000
,
0220
0000
0000
0330
,
0010
0001
0010
0000
0001
0000
0001
0000
,
1000
0010
1000
0000
0010
0000
0010
0000
,
0100
0010
0100
0000
0001
1000
0001
0000
,
0010
0001
0100
0010
1000
0000
1001
0000
,
1000
0100
1000
0000
0010
0000
0010
0000
,
0100
0001
0100
0000
0001
0000
0001
0000
,
0010
0100
0010
0000
0001
1000
0001
0000
,
1000
0010
0100
0010
1000
0000
1001
0000
,
1000
0100
1000
0000
0100
0000
0100
0000
,
0010
0010
0100
0100
,
0010
0001
0010
0000
0001
0000
0001
0000
,
0100
0000
0100
0000
0010
0000
0100
0001
,
0010
0010
0100
0100
,
1000
0000
1000
0000
0010
1000
0010
0000
,
0100
0100
0001
0001
,
0010
0001
0100
0000
0010
1000
0100
0000
,
1000
1000
0001
0001
,
0100
0001
0010
0000
0100
1000
0010
0000
,
1000
1000
0001
0001
,
0010
0000
0100
0000
0010
0001
0100
0010
,
1000
0000
0000
0000
1000
0100
1000
0000
,
0001
0001
1000
1000
,
0100
0010
0100
0000
1000
0001
1000
0000
,
0001
0100
0010
1000
0001
0000
1001
0000
,
2000
0100
0010
3001
,
0020
1000
0100
0031
,
0200
1000
0001
0310
,
0001
0010
0001
0000
1000
0010
0100
0001
,
1000
0000
2000
3100
,
0020
0100
1000
0031
,
0100
0001
0100
0010
0000
0100
0000
0001
,
0000
1000
0200
0000
0010
0000
0310
0000
,
2002
0000
3003
0000
,
1000
0100
1000
0000
0001
0000
0001
0000
,
0100
0010
0100
0000
0001
0000
0001
0000
,
1000
0100
0010
0000
0001
0100
0010
0000
,
1000
0010
0100
0001
0010
0000
1001
0000
,
0001
0010
0001
0000
0100
0000
0100
0000
,
0010
1000
0010
0000
1000
0000
1000
0000
,
0100
1000
0010
0100
0000
0010
0000
1000
,
0000
0001
0001
0000
0010
0001
0010
0000
,
0100
0010
0001
0000
0100
0010
1000
0000
,
0001
1000
0001
1000
0001
0000
0110
0000
,
1000
0010
1000
0000
0001
0010
0001
0000
,
0100
0001
0010
0100
1000
0000
1100
0000
,
1000
0010
1000
0000
0001
0100
0001
0000
,
0010
0001
0010
0000
0100
1000
0100
0000
,
1000
0000
0001
0001
0000
0100
0000
0010
,
0000
0100
0100
0000
0001
1000
0001
0000
,
1100
0000
0000
0000
;

//---------------dance-single - ----------------
#NOTES:
     dance-single:
     :
     Hard:
     7:
     0.495,0.389,0.127,0.155,0.162:
1000
0000
0100
0000
0010
0000
0200
0000
1000
0000
0000
1000
0000
0000
1300
0000
,
0010
0000
0100
0000
0010
0000
2000
0000
0001
0000
0000
0001
0000
0000
3001
0000
,
0010
0001
0100
0000
0010
0100
0010
0000
,
1000
0000
0001
0000
0010
0000
0100
0000
0010
0000
0000
0010
0001
0000
0100
0000
,
0010
0000
0100
0000
0010
0000
2000
0000
0100
0000
0000
0100
0000
0000
3100
0000
,
0001
0000
0100
0000
1000
0000
0020
0000
0100
0000
0000
0100
0000
0000
0130
0000
,
0001
0010
0001
0000
1000
0010
1000
0000
,
0001
0000
0100
0000
0010
0000
0100
0000
0001
0000
0000
0001
0010
0000
0100
0000
,
0001
0000
0100
0000
0010
0000
0002
0000
0100
0000
0000
0100
0000
0000
0103
0000
,
1000
0000
0100
0000
0010
0000
2000
0000
0100
0000
0000
0100
0000
0000
3100
0000
,
0001
0100
0110
0000
0010
0001
0010
0000
,
0001
1000
1001
0000
0010
0100
0010
0000
,
0100
0000
0001
0000
0010
0000
0200
0000
0010
0000
0000
0010
0000
0000
0310
0000
,
0001
0000
0100
0000
0010
0000
2000
0000
0100
0000
0000
0100
0000
0000
3100
0000
,
0001
0000
0100
0000
1100
0000
0000
0000
1000
0000
0000
1000
0010
0000
1000
0000
,
0010
0000
0100
0000
0101
0000
0000
0000
1000
0000
0000
1000
0001
0000
0010
0000
,
0100
0000
0010
0000
0001
0100
0000
0000
0001
0000
0000
0001
0010
0000
0001
0000
,
0100
0000
0010
0000
1000
0010
0000
0000
1000
0000
0000
1000
0100
0000
0001
0000
,
0100
0000
0010
0000
0001
0100
0000
0000
0010
0000
0000
0010
0100
0000
0010
0000
,
1000
0000
0100
0000
0010
0000
0100
0000
1000
0000
0000
1000
0001
0000
0100
0000
,
0010
0000
0100
0000
0001
0010
0000
0000
0100
0000
0000
0100
0010
0000
0001
0000
,
0100
0000
1000
0000
0100
0010
0000
0000
1000
0000
0000
1000
0100
0000
0001
0000
,
0100
0000
0010
0000
0001
0010
0000
0000
0001
0000
0000
0001
0100
0000
0010
0000
,
0100
0000
0001
1000
0001
0000
1000
0000
0100
0000
0000
0000
1100
0000
0000
0000
,
1000
0100
0010
0000
0100
1000
0010
0001
,
0020
0000
1000
0000
0031
0010
0100
0001
,
0010
0100
0110
0000
0100
1000
0010
0100
,
0020
0000
1000
0000
0031
0010
0100
0001
,
0010
0100
0110
0000
0001
0010
1000
0010
,
0200
0000
0001
0000
0310
0100
1000
0010
,
0200
0000
0301
0100
2000
0000
3100
0001
,
0020
0000
0031
0010
0100
1000
0010
0000
,
1000
0001
1001
0000
1000
0100
0010
0100
,
2000
0000
0000
0000
3010
0000
0100
0000
0010
0000
0000
0010
0100
0000
0001
0000
,
0020
0000
0031
0000
0100
0001
0010
0001
,
0200
0000
0310
0000
1000
0100
0001
0100
,
0010
0001
0011
0000
0001
1000
0010
0100
,
0020
0000
1030
0100
1000
0100
0010
0100
,
2000
3001
0002
0103
,
0100
0000
0010
0000
0100
0000
0001
0000
0010
0000
0000
0010
0100
0000
0010
0000
,
0001
0100
1000
0100
0010
0100
1000
0100
,
0010
0100
0001
0100
0010
0100
0110
0000
,
0001
0010
1000
0010
0100
0010
0001
0010
,
0100
0000
0010
0000
0110
0000
0000
0000
0100
0000
0000
0100
1000
0000
0010
0000
,
0100
0010
0110
0000
0001
0010
0100
0010
,
0001
0100
1000
0100
0010
1000
0100
0000
,
1000
0000
0100
0001
0000
0100
0010
0001
,
0000
0100
0010
1000
0001
0100
0010
0000
,
0202
0000
0303
0000
,
1000
0000
0100
0000
0010
0000
0100
0000
1000
0000
0000
1000
0001
0000
0100
0000
,
0010
0000
0100
0000
0001
0010
0000
0000
0100
0000
0000
0100
0010
0000
0001
0000
,
0100
0010
0001
0010
1000
0100
0001
0100
,
0010
0001
0100
0010
0100
0000
0101
0000
,
1000
0000
0100
0000
0010
0100
0000
0000
1000
0000
0000
1000
0010
0000
0100
0000
,
0010
0000
1000
0000
0001
0010
0000
0000
0100
0000
0000
0100
0010
0000
0001
0000
,
0100
0000
0010
0000
1000
0100
0001
0100
,
1000
0010
0001
0010
0100
0000
0110
0000
,
1000
0000
0010
0000
0100
0010
0000
0000
1000
0000
0000
1000
0001
0000
0010
0000
,
0100
0000
0010
0000
0001
0010
0000
0000
0001
0000
0000
0001
0100
0000
0010
0000
,
0100
0001
0101
0000
0010
0100
0010
0000
,
1000
0000
0010
0000
0100
0000
0010
0000
1000
0000
0000
1000
0100
0000
0000
0000
,
0001
0000
0100
0000
0010
0000
0001
0000
0100
0000
0000
0100
0010
0000
0100
0000
,
0001
0000
0010
0000
0100
0010
0000
0000
0010
0000
0000
0010
0001
0000
0100
0000
,
0010
0000
0100
0000
0110
0000
0000
0000
1000
0000
0001
1000
0001
0000
0000
0000
,
0010
0000
0100
1000
0100
0000
0010
0000
0001
0000
0100
0000
0010
0000
0000
0000
,
0101
0000
0000
0000
;
