#TITLE:Fallen Heaven;
#SUBTITLE:(REDALiCE Remix);
#ARTIST:SoundOnline;
#TITLETRANSLIT:;
#SUBTITLETRANSLIT:;
#ARTISTTRANSLIT:;
#CREDIT:Grithokskulk;
#BANNER:Fallen Heaven (REDALiCE Remix).png;
#BACKGROUND:Fallen Heaven (REDALiCE Remix)-bg.png;
#LYRICSPATH:;
#CDTITLE:grithokskulk.png;
#MUSIC:Fallen Heaven (REDALiCE Remix).mp3;
#OFFSET:-4.363;
#SAMPLESTART:97.815;
#SAMPLELENGTH:15.000;
#SELECTABLE:YES;
#BPMS:0.000=170.000;
#STOPS:;
#BGCHANGES:;

//---------------dance-single - ----------------
#NOTES:
     dance-single:
     :
     Easy:
     3:
     0.249,0.264,0.080,0.377,0.000: // measure 1
2000
0000
3000
0200
,  // measure 2
0000
0300
0010
0100
,  // measure 3
1000
0020
0000
0030
,  // measure 4
0200
0000
0300
0002
,  // measure 5
0000
0003
0010
0100
,  // measure 6
0010
0002
0000
0003
,  // measure 7
2000
0000
3000
0020
,  // measure 8
0000
0030
0100
0010
,  // measure 9
1000
0200
0000
0300
,  // measure 10
2000
0000
3000
0002
,  // measure 11
0000
0003
0010
0100
,  // measure 12
0010
0002
0003
1000
,  // measure 13
2002
0000
0000
0000
,  // measure 14
0000
0000
3003
0000
,  // measure 15
0000
0000
0000
0000
,  // measure 16
0220
0000
0000
0000
,  // measure 17
0000
0000
0330
0000
,  // measure 18
0000
0000
0000
0000
,  // measure 19
0000
1000
1000
1000
,  // measure 20
0000
0001
0001
0001
,  // measure 21
0000
0010
0010
0010
,  // measure 22
0000
0001
0001
0001
,  // measure 23
0000
0100
0100
0100
,  // measure 24
0000
0010
0010
0010
,  // measure 25
0000
1000
1000
1000
,  // measure 26
0000
0100
0100
0100
,  // measure 27
0000
1000
1000
1000
,  // measure 28
0000
0001
0001
0001
,  // measure 29
0000
0010
0010
0010
,  // measure 30
0000
0001
0001
0001
,  // measure 31
0000
0100
0100
0100
,  // measure 32
0000
0010
0010
0010
,  // measure 33
0000
0100
0100
0100
,  // measure 34
0000
0001
0001
0001
,  // measure 35
0000
0010
0000
0100
,  // measure 36
0000
0010
0001
0010
,  // measure 37
0000
0002
0000
0000
,  // measure 38
0003
2000
0000
0000
,  // measure 39
3000
0010
0000
0100
,  // measure 40
0000
0010
1000
0010
,  // measure 41
0000
2000
0000
0000
,  // measure 42
3000
0002
0000
0000
,  // measure 43
0003
0010
0000
0100
,  // measure 44
0000
1000
0001
1000
,  // measure 45
0000
0020
0000
0000
,  // measure 46
0030
0200
0000
0000
,  // measure 47
0300
0010
0000
1000
,  // measure 48
0000
0001
0010
0001
,  // measure 49
0000
2000
0000
3000
,  // measure 50
0001
0002
0000
0003
,  // measure 51
0000
0200
0000
0000
,  // measure 52
0300
0020
0000
0000
,  // measure 53
0030
1000
0100
1000
,  // measure 54
0000
0001
0100
0001
,  // measure 55
0000
0020
0000
0000
,  // measure 56
0030
0200
0000
0000
,  // measure 57
0300
0010
0001
0100
,  // measure 58
0000
0010
1000
0100
,  // measure 59
0000
2000
0000
0000
,  // measure 60
3000
0002
0000
0000
,  // measure 61
0003
0100
0010
0100
,  // measure 62
0000
0001
1000
0001
,  // measure 63
0000
1000
0000
1001
,  // measure 64
0000
0001
0000
1001
,  // measure 65
0000
0220
0000
0330
,  // measure 66
0000
2002
0000
3003
,  // measure 67
0000
2000
0000
0000
,  // measure 68
3000
0100
0000
0010
,  // measure 69
0000
0200
0000
0000
,  // measure 70
0000
0300
0000
0010
,  // measure 71
0001
0020
0000
0030
,  // measure 72
0001
0100
0010
0100
,  // measure 73
0001
1000
0000
2002
,  // measure 74
0000
3003
0000
0000
,  // measure 75
0000
0002
0000
0000
,  // measure 76
0003
0200
0300
0010
,  // measure 77
0100
0002
0000
0000
,  // measure 78
0000
2000
0000
0000
,  // measure 79
3003
2002
0000
0000
,  // measure 80
3003
0100
0000
0010
,  // measure 81
0100
0220
0000
0000
,  // measure 82
0000
0330
0000
0000
,  // measure 83
0000
1001
0000
0000
;

//---------------dance-single - ----------------
#NOTES:
     dance-single:
     :
     Medium:
     6:
     0.385,0.462,0.153,0.209,0.000:
1000
0000
0100
0000
0010
0100
0010
0000
,
0100
1000
0010
0100
,
0001
0020
0000
0030
,
0001
0000
0100
0000
0010
0100
0010
0000
,
1000
0001
0020
0000
,
0030
0200
0000
0300
,
0010
0000
0001
0000
1000
0010
1000
0000
,
0001
0010
0001
0010
,
0100
2000
0000
3000
,
0010
0000
0100
0000
0010
1000
0010
0000
,
1000
0001
0020
0000
,
0030
0200
0300
0010
,
0002
0000
0000
0000
,
0000
0000
2000
0000
,
0000
0000
3003
0000
,
0200
0000
0000
0000
,
0000
0000
0020
0000
,
0000
0330
0000
0000
,
0000
0000
0000
1000
0000
0100
0000
0010
,
0000
0001
0000
0010
0000
0100
0000
0010
,
0000
0001
0000
1000
0000
0010
0000
0100
,
0000
0001
0000
0100
0000
0001
0000
0100
,
0000
0010
0000
0010
0000
1000
0000
0100
,
0000
0010
0000
0001
0000
0010
0000
0100
,
0000
1000
0000
0010
0000
1000
0000
0001
,
0000
1000
0000
0100
0000
1000
0000
0001
,
0000
1000
0000
0010
0000
1000
0000
0001
,
0000
0010
0000
0100
0000
0010
0000
0001
,
0000
1000
0000
0010
0000
1000
0000
0001
,
0000
0100
0000
1000
0000
0100
0000
0001
,
0000
0001
0000
0010
0000
0001
0000
0100
,
0000
0010
0000
1000
0000
0010
0000
0100
,
0000
0001
0000
0010
0000
0001
0000
1000
,
0000
0100
0000
0010
0000
0100
0000
1000
,
0000
0010
0100
0000
0001
0000
0010
0000
,
0001
0010
0100
0010
,
0001
0100
1000
0100
,
0010
0000
1000
0100
1000
0000
0001
0100
,
0001
0010
0001
1000
,
0100
0010
0010
0100
,
1000
0000
0010
1000
0010
0000
1001
0000
,
0000
0000
0010
0001
0010
0000
1001
0000
,
0000
0010
0100
0001
,
0010
0100
0100
0010
,
0001
1000
0010
0100
,
0100
0000
0010
1000
0010
0000
1000
0001
,
1000
0001
0010
0100
,
0010
0001
0001
0100
,
0010
2000
0100
0100
,
3100
0020
0000
0000
0000
0000
0030
0000
,
0000
0200
1000
0010
,
1300
0000
0010
1000
0010
0000
0100
0001
,
0100
0002
0010
0100
,
0003
2000
0100
0010
,
3000
0000
0100
0010
0100
0000
1000
0000
,
0001
0000
0100
0010
0100
0000
0001
0000
,
0010
0002
0010
1000
,
0003
2000
0100
0010
,
3000
0001
0010
0100
,
0010
0000
0001
0100
0001
0000
1000
0000
,
0010
2000
0001
0010
,
3000
0002
0010
1000
,
0003
0110
0000
1001
,
0000
0101
0000
1010
,
0000
0210
0000
0000
,
0010
0020
0000
0000
0000
0000
0330
0000
,
0000
1001
0000
0000
,
0000
0101
0000
1010
,
0000
0000
0001
0010
0100
0000
0010
0001
,
0100
0000
0010
1000
0100
0000
0100
1000
,
0010
2000
0100
0100
,
3100
0000
1000
0100
1000
0000
0010
0100
,
0010
0200
0010
0010
,
0310
0002
0010
0010
,
0013
0011
0000
0000
,
0000
1100
0000
1010
,
0101
0000
0011
0000
0001
0100
0001
0000
,
1000
0000
1001
0000
1000
0100
1000
0000
,
0001
0011
0000
1000
,
1000
1010
0000
0001
,
0010
0100
0020
0000
0100
0000
0100
0000
,
0130
0200
0010
0010
,
0310
0011
0000
0000
;

//---------------dance-single - ----------------
#NOTES:
     dance-single:
     :
     Hard:
     8:
     0.614,0.594,0.193,0.321,0.008:
2000
0000
3100
0000
0010
0100
1000
0000
,
0010
0100
0020
1000
,
0001
0230
0000
0310
,
1000
0000
0100
0000
0001
0100
0010
0000
,
0001
0100
0020
0001
,
1000
0230
1000
0001
,
0310
0000
1000
0000
0100
0001
0100
0000
,
0010
0001
0200
2300
,
3200
0320
1000
0001
,
0130
0000
0001
0000
0010
0100
0010
0000
,
0001
0100
0020
0001
,
1000
0230
1000
0010
,
0302
0000
0000
0000
,
0000
0000
2000
0000
,
0000
0000
3003
0000
,
0200
0000
0000
0000
,
0000
0000
0020
0000
,
0000
0330
0000
0000
,
0000
0000
0100
0010
0100
1000
0100
0010
,
0100
0001
0100
0010
0100
0001
0100
1000
,
0100
0001
0100
0010
0100
0001
0100
1000
,
0100
0010
0100
1000
0100
0001
0100
1000
,
0100
0010
0010
1000
0010
0100
0010
1000
,
0010
0001
0010
0100
0010
1000
0010
0100
,
0010
0001
0010
1000
0010
0100
0010
0001
,
0010
0100
0010
1000
0010
0100
0010
1000
,
0010
0100
0100
1000
0010
0100
0010
1000
,
0010
0001
0010
0100
0010
0001
0010
1000
,
0010
0001
0010
0100
0010
1000
0010
0100
,
0010
0001
0010
0100
0010
1000
0010
0001
,
0010
0100
0100
0001
0100
1000
0100
0010
,
0100
1000
0100
0010
0100
0001
0100
0010
,
0100
1000
0100
0001
0100
1000
0100
0001
,
0100
0010
0100
1000
0100
0001
0100
1000
,
0100
0010
0100
0000
0010
1000
0100
0001
,
0100
1000
0010
0000
0100
0001
0010
0100
,
1000
0010
0200
0000
1000
0000
0001
0000
,
0010
0302
0100
1000
,
0010
0000
0103
0000
0001
1000
0010
0100
,
0001
0010
0100
0000
1000
0010
0100
0001
,
0010
0100
2000
0000
0001
3001
0000
0010
,
0001
0100
0020
0000
0100
0130
0000
0001
,
1000
0000
0002
0000
0013
0100
0010
0001
,
0100
1000
0100
0010
1000
0100
0010
0000
,
0100
0000
2000
0000
3010
1000
0100
0010
,
0100
1000
0010
0100
0001
0010
0100
1000
,
0010
0000
2000
0000
3001
0010
1000
0010
,
0001
0100
0010
1000
0010
0001
0010
0100
,
0010
1000
0200
0000
0310
0100
0010
0100
,
1000
0020
0000
0100
0130
0000
0010
0100
,
1001
0000
0200
0000
0310
0100
0010
0001
,
0100
1000
0100
0001
0010
1000
0010
0100
,
0010
0001
2000
0000
3010
1000
0010
0000
,
0101
0000
2000
0000
3100
0010
0100
0000
,
1100
0000
0002
0000
0013
0100
0010
0001
,
0100
1000
0100
0010
1000
0010
0001
0010
,
0100
0001
0020
0000
0130
0010
0100
0000
,
0110
0000
2001
0000
0000
0010
3020
0000
,
0130
0000
0101
0000
0010
0100
0010
1000
,
0100
0001
0100
0010
1000
0010
0001
0010
,
0100
1000
0010
0000
0100
0010
1000
0100
,
0010
0000
0001
0000
0100
1000
0100
0001
,
0010
0011
0000
1100
,
0000
1010
0000
0101
,
0000
1002
0000
0000
,
1000
0000
1000
0000
1003
0000
0000
0001
0000
0000
2002
0000
0000
0000
0000
0000
,
3003
0000
0101
0000
0100
1000
0100
0010
,
1000
0000
1100
0000
1000
0100
0110
0000
,
0010
0001
0011
0000
0001
0100
0010
1000
,
0010
0100
0001
0100
0010
1000
1010
0000
,
0101
0000
0012
0000
0100
0100
0103
0000
,
0010
0001
0100
1000
0100
0010
0001
0010
,
1000
0100
0020
0000
0100
0001
0230
0000
,
1000
0010
2300
0000
0010
3020
0000
0100
,
0130
0000
0110
0000
1000
0010
0001
0010
,
0100
0001
0010
0000
0100
0001
0100
1000
,
0010
0100
0001
0000
0010
0100
0010
0001
,
0100
0000
1001
0000
1000
0100
0001
0100
,
1000
0000
1001
0000
0100
0001
0100
0010
,
0100
0000
0000
0000
0101
0000
0000
0000
0010
0000
0100
0000
0010
0000
0000
1000
,
0000
0100
0010
0001
0010
0100
0010
0001
,
1001
0000
2000
0100
0000
0100
0000
0100
,
3100
1000
0000
0000
;
