#TITLE:Dynamite;
#SUBTITLE:;
#ARTIST:USAO;
#TITLETRANSLIT:;
#SUBTITLETRANSLIT:;
#ARTISTTRANSLIT:;
#CREDIT:Grithokskulk;
#BANNER:Dynamite.png;
#BACKGROUND:Dynamite-bg.png;
#LYRICSPATH:;
#CDTITLE:beatmania IIDX.png;
#MUSIC:Dynamite.mp3;
#OFFSET:-6.982;
#SAMPLESTART:74.135;
#SAMPLELENGTH:15.000;
#SELECTABLE:YES;
#BPMS:0.000=100.000;
#STOPS:;
#BGCHANGES:;

//---------------dance-single - ----------------
#NOTES:
     dance-single:
     :
     Easy:
     2:
     0.175,0.186,0.062,0.000,0.000: // measure 1
0000
1000
0100
1000
,  // measure 2
0010
0000
0100
0000
,  // measure 3
1001
0000
0001
0001
,  // measure 4
0010
0000
0001
0000
,  // measure 5
0110
0000
1000
1000
,  // measure 6
0010
0000
0100
0000
,  // measure 7
1001
0000
0100
0100
,  // measure 8
1001
0000
0100
0100
,  // measure 9
0010
0100
0001
0001
,  // measure 10
0010
0100
0100
0100
,  // measure 11
0010
0001
0001
0001
,  // measure 12
1000
0000
0001
0000
,  // measure 13
0110
0010
0100
0000
,  // measure 14
1001
1000
0001
0000
,  // measure 15
0110
0100
0010
0000
,  // measure 16
0001
0000
1000
0000
,  // measure 17
0010
0010
0010
0000
,  // measure 18
0100
0100
0100
0000
,  // measure 19
0001
0001
0001
0000
,  // measure 20
1000
1000
1000
0000
,  // measure 21
0100
0000
0010
0000
,  // measure 22
0100
0000
1000
0000
,  // measure 23
0001
0000
0100
0000
,  // measure 24
0010
0000
0100
0000
,  // measure 25
0001
0001
0001
0001
,  // measure 26
1000
1000
1000
1000
,  // measure 27
0100
0000
0010
0000
,  // measure 28
0001
1000
0001
1001
,  // measure 29
0100
0100
0010
0010
,  // measure 30
1000
1000
0001
0001
,  // measure 31
0010
0001
0100
0010
,  // measure 32
1000
1000
0001
0001
,  // measure 33
0100
0100
0010
0010
,  // measure 34
0100
0001
0100
0010
,  // measure 35
1000
1000
0100
0100
,  // measure 36
0010
0100
1000
0010
,  // measure 37
0100
0000
0100
0000
,  // measure 38
0010
0100
0010
0000
,  // measure 39
0100
0000
0001
0000
,  // measure 40
0010
0001
0100
0010
,  // measure 41
0100
0100
0100
0000
,  // measure 42
0001
0001
0001
0000
,  // measure 43
0010
0010
0100
0100
,  // measure 44
0010
0001
0100
0000
,  // measure 45
0010
0010
0010
0010
,  // measure 46
0100
0100
0100
0100
,  // measure 47
0001
0000
1000
0000
,  // measure 48
0100
0000
0010
0100
;

//---------------dance-single - ----------------
#NOTES:
     dance-single:
     :
     Medium:
     5:
     0.365,0.317,0.016,0.234,0.000:
0000
1000
0100
0000
0010
0100
0010
0000
,
0000
0001
0001
0010
0100
1000
0010
0000
,
0200
0000
0310
0100
0001
0010
0100
0000
,
0020
0000
0031
1000
0010
0100
0010
0000
,
2000
0000
3100
1000
0010
0100
0001
0000
,
0020
0032
0203
0310
,
0200
0000
0010
0010
0010
0010
0010
0010
,
0320
0000
0100
0100
0100
0100
0200
0330
,
0100
0000
0001
0010
0100
0010
0001
0000
,
0100
0000
0010
1000
0100
1000
0010
0000
,
0100
0000
0001
1000
0010
1000
0001
0000
,
0020
0000
0230
0000
0310
0001
0100
0000
,
0001
0000
1000
0010
0100
0010
1000
0000
,
0100
0000
0010
0100
1000
0001
0100
0000
,
0010
0000
0100
0001
0010
1000
0010
0000
,
0100
0000
0010
0000
0001
0100
0001
0000
,
2001
0000
0100
0000
0010
0010
3010
0000
,
0002
0000
0010
0000
1000
1000
1003
0000
,
0200
0000
0001
0000
1000
1000
1300
0000
,
0020
0000
0001
0000
0100
0100
0130
0000
,
0002
0003
0020
0030
,
0200
0300
0020
0030
,
0001
0010
0200
0000
0310
0001
0200
0000
,
0310
0100
0002
0000
1003
0100
0020
0000
,
0130
1000
0010
0100
0001
0001
1000
1000
,
0000
0100
0010
0100
1000
1000
0001
0001
,
0000
0100
0010
0100
0000
0001
0010
0001
,
1000
1000
0010
0010
0100
0001
0011
0000
,
0010
0100
0010
0001
0100
0010
0100
0000
,
0001
1000
0100
0010
0100
1000
0010
0000
,
1000
0001
0010
1000
0010
0100
1000
0000
,
0020
0000
0230
0000
0301
0010
0100
0000
,
0010
0001
0100
0001
0010
0001
1000
0000
,
0100
1000
0010
1000
0100
1000
0001
0000
,
0010
0100
1000
0100
0001
0100
0010
0000
,
0001
0010
0100
1000
0010
0100
0010
0000
,
0100
0001
0010
0010
0001
0100
0010
0010
,
1000
0100
0001
0001
0100
1000
0010
0000
,
1000
0001
1000
1000
0100
1000
0010
0010
,
0100
0001
0100
0100
0010
1000
0001
0000
,
0010
0010
0100
0100
1000
1000
0001
0001
,
0100
0100
0010
0010
0100
0100
0001
0001
,
0010
0010
0001
0001
0100
0100
0010
0010
,
1000
0100
0001
0100
1000
0010
0200
0000
,
0320
0000
0100
0100
0100
0100
0130
0000
,
0002
0000
1000
1000
1000
1000
1003
0000
,
0200
0000
0010
0010
0010
0010
0310
0000
,
0002
0000
1000
1000
1000
1003
0100
0000
;

//---------------dance-single - ----------------
#NOTES:
     dance-single:
     :
     Hard:
     9:
     0.669,0.560,0.359,0.258,0.668:
0000
0000
0100
0010
0100
0001
0000
0010
0000
0100
0000
0010
0001
1000
0100
0000
,
0001
0000
0100
1000
0100
0000
1000
0010
2000
0000
0100
0000
0010
0000
3001
0000
,
0020
0000
0230
0000
0310
0000
1000
0100
1000
0000
0001
0000
0010
0000
0100
0000
,
0010
0000
0001
0010
0001
0000
1000
0010
1000
0000
0010
0000
0100
0000
0001
0010
,
0200
0000
0320
0000
0031
0000
0100
0001
0100
0000
0010
0000
0100
0000
0001
1000
,
0200
0000
0302
0000
0103
1000
0010
0100
0000
0001
0010
0002
0000
0000
0103
0000
,
0200
0010
0010
0010
0010
0010
0010
0310
,
0102
0000
1000
0000
1000
0000
1000
0000
1003
0100
0010
0200
0000
0310
0000
0000
,
0011
0000
1100
0000
1001
0000
0001
0100
1000
0000
0100
0010
1000
0100
0010
0000
,
1100
0000
0001
0000
0010
0000
0001
0100
0010
0000
0010
0000
0100
0001
0010
0100
,
1000
0000
1100
0000
1000
0000
0010
0001
0010
0000
0100
0000
0001
0010
0100
0010
,
0002
0000
0203
0000
0310
0100
0001
1000
0000
0100
0001
0100
0000
1000
0010
0000
,
1000
0000
1010
0000
0002
0000
0013
0100
0010
0000
0001
0000
0100
0100
0010
0100
,
0001
0000
1001
0000
2000
0000
3100
0001
0100
0000
1000
0000
0010
0010
1000
0010
,
0001
0000
0010
0000
0101
0000
0100
0001
0010
0000
0001
0000
0100
0100
0010
1000
,
0200
0000
0302
0000
0103
1000
0010
0100
0000
0100
0001
0010
0000
0010
0100
0000
,
0020
1000
0001
0100
0001
0001
0100
0100
,
0032
0000
0100
0000
1000
0000
0010
0000
0100
0000
0100
0000
0013
0001
0100
0010
,
0200
0000
1000
0000
0001
0000
0010
0000
0001
0000
0001
0000
0310
0000
0100
0001
,
0010
0000
0100
0000
0010
0001
0100
0010
0000
1000
0100
0020
0000
0000
0030
0000
,
0100
1000
0010
0200
0000
0000
0310
0000
0100
0001
0010
0200
0000
0000
0310
0000
,
0100
1000
0001
0200
0000
0000
0301
0000
1000
0100
0001
0200
0000
0000
1300
0000
,
0010
0001
0010
2000
0000
0000
3001
0000
0010
0001
0100
0020
0000
0000
0130
0000
,
0001
0010
0100
0020
0000
0000
0031
0000
0100
0001
1000
0200
0000
0000
0310
0000
,
0100
0000
1000
0010
1000
0000
0010
0100
0110
0000
0101
0000
0011
0000
1100
0000
,
1000
0000
0010
0100
0010
0000
1000
0010
1010
0000
1001
0000
0011
0000
0110
0000
,
0010
0000
0001
0100
0010
0000
0010
0100
0010
0000
1000
0100
0010
0000
0100
0010
,
0100
0000
1000
0010
0100
0000
0001
0010
0100
0010
0001
0100
0000
0110
0000
0000
,
0101
0000
1010
0000
1100
0000
1000
0100
0010
0000
0100
1000
0010
0100
0001
0010
,
0100
0000
0110
0000
0011
0000
0001
0100
1000
0000
0100
0010
1000
0100
0100
0010
,
0100
0000
1100
0000
0011
0000
0001
0100
0010
0000
0100
0000
0001
0010
1000
0010
,
0002
0000
0203
0000
0310
0100
0001
1000
0000
0100
0001
0100
0000
0100
1100
0000
,
1000
0000
1010
0000
0010
0000
0100
0001
0010
0000
0001
0100
0010
0010
0100
0001
,
1000
0000
1100
0000
0010
0000
0100
1000
0001
0000
0100
1000
0100
0001
0001
1000
,
0100
0000
1100
0000
0010
0000
0100
0001
1000
0000
0010
1000
0010
0010
0001
0010
,
1000
0000
0100
0000
0001
0100
1000
0010
0000
0100
0001
0010
0000
0100
1001
0000
,
1000
0010
0001
0010
0100
0010
1000
0000
1000
0100
0001
0100
0010
0100
0010
0000
,
0100
1000
0010
0100
0010
1000
0001
0000
0100
0010
1000
0010
0001
0010
0100
0000
,
0001
0010
1000
0010
0100
0010
0001
0000
0100
0001
1000
0100
0001
0100
1000
0000
,
0010
0100
0010
2000
0000
0001
3001
0000
0010
0001
0100
0020
0000
0100
0130
0000
,
0001
0010
0110
0000
0100
0000
0010
0001
0010
0000
0011
0000
1100
0000
1010
0000
,
0001
0100
0010
0000
0100
0001
1000
0000
1100
0000
0011
0000
0101
0000
1010
0000
,
0001
1000
0010
1000
0100
0000
0010
0100
1100
0000
0011
0000
0101
0000
1010
0000
,
0001
0100
1000
0100
0001
0000
1000
0100
0110
0000
1100
0000
1001
0000
0000
0000
,
0001
0000
0100
0010
0100
0000
0001
0010
0001
0000
1000
0100
0001
0100
1000
0010
,
0100
0000
0001
0010
0001
0000
1000
0010
0100
0000
1000
0000
0100
0001
1000
0100
,
0001
0100
0010
0001
0100
0000
0010
0100
0010
0000
1000
0000
0100
0010
0100
0000
,
1000
0010
0001
0010
1000
0000
0001
0010
1000
0010
0001
0100
0000
1010
0000
0000
;
