#TITLE:Don't worry;
#SUBTITLE:;
#ARTIST:Hiroyuki Sawano feat. Aimee Blackschleger;
#TITLETRANSLIT:;
#SUBTITLETRANSLIT:;
#ARTISTTRANSLIT:;
#CREDIT:Grithokskulk;
#BANNER:Don't worry.png;
#BACKGROUND:Don't worry-bg.png;
#LYRICSPATH:;
#CDTITLE:grithokskulk.png;
#MUSIC:Don't worry.mp3;
#OFFSET:-9.472;
#SAMPLESTART:84.475;
#SAMPLELENGTH:15.000;
#SELECTABLE:YES;
#BPMS:0.000=121.000;
#STOPS:;
#BGCHANGES:;

//---------------dance-single - ----------------
#NOTES:
     dance-single:
     :
     Easy:
     3:
     0.197,0.266,0.016,0.288,0.000: // measure 1
0000
1000
1000
0000
,  // measure 2
0200
0000
0000
0300
,  // measure 3
0000
0010
0010
0000
,  // measure 4
0002
0000
0000
0003
,  // measure 5
1000
1000
0100
0100
,  // measure 6
0020
0030
0020
0030
,  // measure 7
0001
0001
0100
0100
,  // measure 8
0020
0030
0020
0030
,  // measure 9
1000
1000
0001
0001
,  // measure 10
0200
0300
0200
0300
,  // measure 11
0001
0001
0010
0010
,  // measure 12
0100
0100
1000
1000
,  // measure 13
0010
0010
0010
0010
,  // measure 14
0100
0100
0100
0100
,  // measure 15
0001
0001
0001
0001
,  // measure 16
0010
0010
0010
0010
,  // measure 17
0200
0300
0200
0300
,  // measure 18
2000
3000
2000
3000
,  // measure 19
0020
0030
0020
0030
,  // measure 20
0200
0000
0000
0300
,  // measure 21
0001
0001
0001
0001
,  // measure 22
1000
1000
1000
1000
,  // measure 23
0100
0100
0100
0100
,  // measure 24
1000
1000
1000
1000
,  // measure 25
0020
0030
0020
0030
,  // measure 26
0200
0300
0200
0300
,  // measure 27
0002
0003
2000
3000
,  // measure 28
2002
0000
0000
3003
,  // measure 29
0020
0000
0000
0000
,  // measure 30
0000
0000
0000
0030
,  // measure 31
0200
0000
0000
0000
,  // measure 32
0000
0000
0000
0300
,  // measure 33
0002
0000
0000
0000
,  // measure 34
0000
0000
0003
0000
,  // measure 35
2000
0000
0000
0000
,  // measure 36
3000
0000
0000
0000
,  // measure 37
0000
0000
0000
0000
,  // measure 38
0000
0000
0000
0000
,  // measure 39
1000
0100
1000
0100
,  // measure 40
0010
0001
0100
0000
,  // measure 41
0010
0100
0010
0100
,  // measure 42
0001
1000
0100
0000
,  // measure 43
0010
0010
0001
0001
,  // measure 44
1000
0010
0100
0000
,  // measure 45
0001
0002
0013
0020
,  // measure 46
0130
0200
1300
2000
,  // measure 47
3000
0010
0010
0010
,  // measure 48
0020
0030
0200
0300
,  // measure 49
0002
0000
0000
0003
,  // measure 50
2000
0000
0000
3000
,  // measure 51
0100
0100
0100
0000
,  // measure 52
0100
0100
0010
0000
,  // measure 53
0010
0010
0001
0000
,  // measure 54
1000
0010
0100
0000
,  // measure 55
0110
0000
0000
0000
;

//---------------dance-single - ----------------
#NOTES:
     dance-single:
     :
     Medium:
     5:
     0.303,0.333,0.090,0.353,0.000:
1000
0000
0100
0000
0010
0000
0100
1000
,
0000
0010
0000
0200
0000
0000
0300
0000
,
0001
0000
1000
0000
0100
0000
0010
0001
,
0000
0100
0000
0020
0000
0000
0030
0000
,
1000
0000
1100
0000
0100
0000
0010
0001
,
0000
0100
0000
0020
0000
0000
0030
0000
,
1000
0000
1001
0000
0001
0000
0100
0010
,
0000
0100
0000
0002
0000
0000
0003
0000
,
1000
0000
1100
0000
0100
0000
0010
0100
,
0000
1000
0000
0020
0000
0000
0030
0000
,
0100
0000
0101
0000
0001
0000
0010
0100
,
0000
1000
0000
0010
0100
0000
0100
0000
,
0001
0010
0001
0010
,
0100
1000
0100
1000
,
0010
0100
0010
0100
,
0001
1000
0001
1000
,
0200
1300
0200
1300
,
0002
0103
0002
0103
,
0010
0100
0010
0000
1000
0000
0100
0000
,
0020
0000
0100
0130
,
1000
0000
0010
0000
0100
0001
0100
0000
,
0001
0000
0010
0000
0100
1000
0100
0000
,
1000
0000
0010
0000
0100
0001
0100
0000
,
0010
0000
0100
0000
0001
0010
0001
0000
,
2000
3100
0020
0031
,
0200
0310
2000
3100
,
0020
0000
0031
0010
0001
0000
0100
0000
,
0020
0000
0030
0000
,
2000
0000
0000
3200
0000
0000
0300
0000
,
0020
0000
0000
0032
0000
0000
0003
0000
,
0200
0000
0000
0320
0000
0000
0030
0000
,
2000
0000
0000
3002
0000
0000
0003
0000
,
0200
0000
0000
0320
0000
0000
0030
0000
,
2000
0000
0000
3200
0000
0000
0300
0000
,
0020
0000
0000
0032
0000
0000
0003
0000
,
2000
0000
0000
3002
0000
0000
0003
0000
,
0200
0000
0000
0000
,
0300
0000
0000
0000
,
1000
0010
1000
0000
0001
0000
0010
0000
,
0100
0010
0100
0000
0100
0000
0010
0000
,
0001
0001
0001
0000
1000
1000
1000
0000
,
0010
0010
0010
0000
0100
0000
0110
0000
,
0100
0001
0100
0000
0001
0000
0010
0000
,
0100
1000
0100
0000
1000
0000
0010
0100
,
0200
0000
0301
0002
0000
0000
1003
2000
,
0000
0000
3100
0200
0000
0000
0300
0000
,
0000
1100
0110
0011
,
2002
3003
0220
0330
,
2000
0100
0001
3010
,
0002
0010
0100
1003
,
0100
0100
0100
0100
0100
0100
0000
0000
,
0010
0010
0010
0010
0010
0010
0000
0000
,
0001
0001
0001
0001
0001
0001
0000
0000
,
1000
1000
1000
1000
1000
0000
0010
0000
,
0110
0000
0000
0000
;

//---------------dance-single - ----------------
#NOTES:
     dance-single:
     :
     Hard:
     6:
     0.401,0.399,0.131,0.394,0.000:
1000
0000
1100
0000
0100
0010
0001
0100
,
0020
0000
0001
0000
1030
0100
0010
0000
,
0001
0000
1001
0000
1000
0010
0100
0020
,
0000
0100
0000
0100
0000
0100
0000
0130
,
0010
1010
1000
1100
,
0100
0010
0001
0000
0100
0010
0001
0000
,
0100
1100
1000
1010
,
0010
0100
0001
0000
0010
0100
0001
0100
,
0010
1010
1000
1010
,
1000
0100
0001
0000
1000
0100
0001
0000
,
0100
0110
0100
0110
,
0010
0001
0100
0000
0010
0001
1000
0010
,
0200
0000
1000
0000
0301
0100
0010
1000
,
0200
0000
0001
0000
1300
0010
0100
0001
,
0020
0000
0001
0000
1030
0010
0001
0100
,
0020
0000
0001
0000
0130
0001
0010
0100
,
2000
3100
0002
0103
,
2000
3100
0002
0103
,
1000
0010
0001
0000
1000
0010
0001
0010
,
0200
0000
0000
0000
0010
0010
0310
0000
,
1000
0100
1000
0000
0200
0000
0320
0000
,
0031
0100
0001
0000
0020
0000
0230
0000
,
1300
0100
1000
0000
0200
0000
0320
0000
,
0031
0010
0001
0000
0200
0000
0302
0000
,
0023
0000
0130
1000
0020
0000
0130
0001
,
0020
0000
0031
1000
0002
0000
1003
0100
,
0020
0000
1000
0000
0031
0100
0001
0010
,
0200
0000
0000
0000
0010
0010
0310
0000
,
0001
0010
0100
2000
0000
0000
3000
0000
,
0001
0100
0010
2000
0000
0000
3000
0000
,
0100
1000
0010
0200
0000
0000
0300
0000
,
0001
0010
0001
0200
0000
0000
0300
0000
,
0010
1000
0100
0020
0000
0000
0030
0000
,
0100
1000
0010
0200
0000
0000
0300
0000
,
0002
0000
1000
2000
0000
0000
3003
0000
,
0200
0000
0010
0020
0000
0000
0330
0000
,
0002
0000
0000
0000
,
0003
0000
0000
0000
,
1000
0100
0010
0001
0000
0001
0000
0010
,
0001
0100
0010
1000
0000
0100
1000
1000
,
0000
0010
0100
0100
0000
0001
0010
0010
,
0000
0100
0010
0001
0000
0100
0001
1000
,
0001
0010
0100
1000
0000
0010
0100
0010
,
1000
0100
0010
0001
0000
0100
0010
1000
,
0200
0000
1300
2000
0000
0000
3010
0020
,
0000
0000
0130
0200
0000
0301
0101
0000
,
0001
1000
1100
0000
0110
0000
0011
0000
,
2001
0000
3010
0100
0002
0000
0013
0001
,
0200
0000
1000
0000
0310
0100
0001
0010
,
0200
0000
0001
0000
1300
0100
0010
0000
,
0001
0001
0001
0001
0002
0100
0103
0000
,
0010
0010
0010
0010
0020
1000
1030
0000
,
0100
0100
0100
0100
0200
0010
0310
0000
,
0001
0001
0001
0001
0002
1000
1003
0000
,
0110
0000
0000
0000
;

//---------------dance-single - ----------------
#NOTES:
     dance-single:
     :
     Challenge:
     7:
     0.447,0.421,0.148,0.296,0.033:
1000
0000
1100
0000
1000
0010
0100
0001
,
0000
0010
0001
0100
0000
0010
0010
0000
,
0100
0001
0101
0000
1000
0100
0001
0200
,
0000
0010
0010
0010
0000
0010
0310
0000
,
0100
1000
1100
0000
0001
0100
0101
0000
,
0010
1000
0010
0000
1000
0000
0000
0000
0100
1000
0100
0000
0010
0000
0000
0000
,
0001
0100
0101
0000
0010
1000
1010
0000
,
0100
1000
0100
0000
1000
0000
0010
0100
0010
0000
0100
0000
0001
0000
0000
0000
,
0010
0001
0011
0000
0100
0010
0110
0000
,
1000
0100
1000
0000
0100
0000
0000
0000
1000
0010
1000
0000
0010
0000
0000
0000
,
0100
0001
0101
0000
0010
0001
0011
0000
,
0100
0010
0100
0000
0001
0000
1000
0000
0100
0000
0001
0000
0100
0000
1000
0000
,
0010
0000
0100
0010
0000
1000
0100
0010
,
0000
0100
0100
0000
1000
1000
0001
0100
,
0010
0000
0001
0010
0000
1000
0100
0010
,
0000
0001
0001
0000
0010
0001
0100
0020
,
0000
0100
0130
0001
0100
0010
1000
0200
,
0000
0010
0310
0002
0000
1000
1003
0000
,
0010
0100
0001
0010
0100
0000
0010
0010
,
0000
0001
0001
0000
0100
0100
0100
0100
,
0020
0000
1030
0100
0001
0100
1000
0010
,
0000
0100
0100
0000
0001
0001
0001
0001
,
0020
0000
0031
0100
1000
0100
0010
1000
,
0000
0100
0100
1000
0000
0010
0100
0002
,
0000
0010
0013
0001
0100
1000
0100
0020
,
0000
1000
1030
0200
0000
0010
0310
0001
,
0000
0100
0001
0100
0010
0000
0100
0001
,
0000
1000
1000
0000
0100
0010
0001
0000
,
2000
0000
0100
0200
0000
0000
3300
0000
,
0020
0000
0100
0200
0000
0000
0330
0000
,
0001
0001
1000
2000
0000
3100
0010
0200
,
0000
0310
0001
0020
0000
0002
0000
0033
,
0100
0001
0100
0020
0000
1030
0010
2000
,
0000
3200
0000
0320
0000
0030
0001
0002
,
0000
0000
1000
2000
0000
0000
3003
0000
,
0020
0000
0100
0200
0000
0000
0330
0000
,
2002
0000
0000
0000
,
3003
0000
0000
0000
,
1000
0100
0010
0001
1000
0100
0010
0001
,
1000
0010
0100
0001
1000
0010
0100
0001
,
0010
0001
0010
0100
0010
0001
0010
0100
,
1000
0010
0100
0010
1000
0010
0100
0000
,
0001
1000
0100
0010
0100
1000
0010
0100
,
0001
0100
0010
1000
0100
0010
0001
0100
,
0201
0000
0010
0320
0000
0000
1000
2030
,
0000
0000
0100
3200
0000
0310
0110
0000
,
0001
0010
0110
0000
1100
0000
1010
0000
,
0210
0000
0301
0010
0002
0000
0103
0010
,
1000
0100
0010
0001
0100
0010
0010
0000
,
0100
0000
0001
0000
0010
0000
0100
0000
1000
0000
0000
1000
0010
0000
0000
0000
,
0100
0100
0100
0100
0200
0010
0310
1000
,
0100
0100
0100
0100
0200
0010
0310
0001
,
0100
0100
0100
0100
0200
0010
0310
1000
,
0100
0001
0100
1000
0010
0100
0001
0000
,
1001
0000
0000
0000
;
