#TITLE:Discloze;
#SUBTITLE:;
#ARTIST:lapix;
#TITLETRANSLIT:;
#SUBTITLETRANSLIT:;
#ARTISTTRANSLIT:;
#CREDIT:Grithokskulk;
#BANNER:Discloze-bn.png;
#BACKGROUND:Discloze-bg.png;
#LYRICSPATH:;
#CDTITLE:SOUND VOLTEX.png;
#MUSIC:Discloze.mp3;
#OFFSET:-2.226;
#SAMPLESTART:15.395;
#SAMPLELENGTH:15.000;
#SELECTABLE:YES;
#BPMS:0.000=145.000,96.000=140.000,124.000=128.000,192.000=145.000;
#STOPS:206.000=0.414
;
#BGCHANGES:;

//---------------dance-single - ----------------
#NOTES:
     dance-single:
     :
     Easy:
     3:
     0.273,0.305,0.133,0.233,0.000: // measure 1
1000
0000
1100
0100
,  // measure 2
0010
0000
0110
0010
,  // measure 3
0001
0000
0011
0001
,  // measure 4
0100
0000
0110
0100
,  // measure 5
0002
0000
0000
0000
,  // measure 6
0000
0000
0000
0000
,  // measure 7
0000
0000
0000
0003
,  // measure 8
1000
0100
0010
0001
,  // measure 9
1000
1000
1000
0010
,  // measure 10
0100
0001
0010
0000
,  // measure 11
0001
0001
0001
0100
,  // measure 12
0001
0010
0100
0010
,  // measure 13
0100
0100
0100
0000
,  // measure 14
1000
0100
1000
0010
,  // measure 15
0100
0100
0100
0000
,  // measure 16
0001
1000
0200
0300
,  // measure 17
0010
0010
0010
0001
,  // measure 18
0100
0010
1000
0000
,  // measure 19
0100
0100
0100
1000
,  // measure 20
0001
1000
0100
0010
,  // measure 21
0000
0100
0100
0100
,  // measure 22
0010
0001
0100
0000
,  // measure 23
0001
1000
0100
0000
,  // measure 24
0100
1000
0010
0100
,  // measure 25
2000
0000
0000
0000
,  // measure 26
0000
0000
0000
3000
,  // measure 27
0002
0000
0000
0000
,  // measure 28
0000
0000
0000
0003
,  // measure 29
0200
0000
0000
0000
,  // measure 30
0000
0000
0000
0300
,  // measure 31
0020
0000
0000
0030
,  // measure 32
1000
0100
0010
0001
,  // measure 33
1000
0100
1000
1100
,  // measure 34
0010
0001
0010
0011
,  // measure 35
1000
0001
1000
1001
,  // measure 36
0100
0010
2000
3000
,  // measure 37
0100
1000
0100
1100
,  // measure 38
0001
0100
0001
0101
,  // measure 39
0010
0100
0010
0110
,  // measure 40
2000
3000
0002
0003
,  // measure 41
0010
0100
0010
1001
,  // measure 42
0100
0001
0100
1010
,  // measure 43
0001
0010
0001
1100
,  // measure 44
1000
0010
0200
0300
,  // measure 45
0001
0010
0001
1001
,  // measure 46
0010
0100
0010
1100
,  // measure 47
0010
1000
0001
0011
,  // measure 48
0001
0100
0020
0030
,  // measure 49
2000
0000
0000
3000
,  // measure 50
0002
0000
0000
0003
,  // measure 51
0020
0000
0000
0030
,  // measure 52
0200
0000
0300
0010
,  // measure 53
0001
0010
0001
0020
,  // measure 54
0030
0020
0030
0100
,  // measure 55
1000
0100
1000
0002
,  // measure 56
0003
0002
0003
0100
,  // measure 57
0010
0100
0010
2000
,  // measure 58
3000
2000
3000
0001
,  // measure 59
0010
0100
0010
0002
,  // measure 60
0003
0002
0003
0100
,  // measure 61
0001
0100
0010
0200
,  // measure 62
0300
0200
0300
0001
,  // measure 63
1000
0100
1000
0020
,  // measure 64
0030
0020
0030
0100
,  // measure 65
0001
0000
0001
0000
,  // measure 66
0001
0000
0001
2000
,  // measure 67
0000
0000
0000
3000
;

//---------------dance-single - ----------------
#NOTES:
     dance-single:
     :
     Medium:
     6:
     0.403,0.416,0.125,0.166,0.000:
1000
0000
0000
1000
0000
0000
1000
0000
,
0001
0000
0000
0001
0000
0000
0001
0000
,
0010
0000
0000
0010
0000
0000
0010
0000
,
0001
0000
0000
0001
0000
0000
0001
0000
,
0200
0000
0000
0000
,
0310
0000
0010
0000
0010
0100
0010
0000
,
1000
0001
1000
0001
0100
0010
0100
0010
,
1000
0100
0010
1001
,
0001
0100
0001
0000
1000
0000
0010
0000
,
1000
0100
1000
0000
0001
0000
0010
0000
,
0001
0100
0001
0000
1000
0100
1000
0000
,
0001
0010
0001
0000
0100
0000
0010
0000
,
0100
0001
0100
0000
0010
0000
1000
0000
,
0100
1000
0100
0000
1000
0010
1000
0000
,
0010
0100
0010
0000
0100
0000
0001
0000
,
1000
0100
1000
0100
2000
0000
3000
0000
,
0010
0100
0010
0000
0100
0000
0001
0000
,
1000
0001
1000
0000
0001
0000
0010
0000
,
0100
1000
0100
0000
0010
0001
0010
0000
,
0001
0100
0001
0000
1000
0010
1000
0000
,
0100
0010
0100
0000
1000
0000
0010
0000
,
1000
0100
1000
0000
0001
0100
0000
0000
,
0010
0100
0010
0000
1000
0000
0001
0000
,
1000
0100
1000
0000
0001
0100
0001
0000
,
0020
0000
0230
0000
,
2300
0000
3020
0000
,
0230
0000
0302
0000
,
0023
0000
0230
0000
,
1300
1000
0010
0010
,
0100
0100
0010
0010
,
1000
0001
0010
0100
,
1000
0010
0100
0000
0010
0100
0001
0000
,
1000
0000
0100
0010
0100
0000
1000
0000
,
0001
0000
0100
0010
0100
0000
0001
0000
,
0010
0001
0010
0000
0100
1000
0100
0000
,
1000
0010
0200
0000
0320
0000
0230
0000
,
0301
0010
0001
0000
1000
0100
1000
0000
,
0020
0000
0130
0001
0010
0001
0010
0100
,
2000
0000
3010
0100
0010
0000
1000
0000
,
0001
0010
0001
0000
0100
0000
0110
0000
,
1000
0010
1000
0001
0010
0000
0000
0000
,
0100
1000
0100
1000
0010
0000
0000
0000
,
0100
0001
0100
0010
1000
0000
0000
0000
,
0100
1000
0001
0010
0100
0000
0000
0000
,
0010
0001
0100
0010
1000
0000
0000
0000
,
0100
1000
0001
0100
0010
0000
0000
0000
,
0001
0010
0100
1000
0001
0000
0000
0000
,
0100
0010
1000
0100
0010
0000
0001
0000
,
2002
0000
0000
0000
,
0000
0000
0000
0000
,
0000
0000
0000
3003
,
1000
0100
0010
0001
0100
0000
0010
0000
,
1000
0010
1000
0000
1100
0000
1000
0100
,
0010
0001
0100
0000
0110
0000
0001
0000
,
0010
0001
0010
0000
1100
0000
1000
0001
,
0100
0010
1000
0000
1001
0000
1000
0000
,
0100
1000
0100
0000
0011
0000
0001
1000
,
0100
0010
0100
0000
1100
0000
1000
0000
,
0010
0100
0010
0000
0110
0000
0100
0001
,
0100
1000
0100
0001
0100
0000
0010
0000
,
1000
0100
1000
0000
1100
0000
1000
0001
,
0010
0001
1000
0000
1001
0000
0001
0000
,
0100
0010
0100
0000
0101
0000
1000
0100
,
0010
0100
1000
0000
1100
0000
2000
0000
,
0010
0000
0010
0000
,
0010
3000
0000
0000
0000
0000
0220
0000
,
0000
0000
0000
0330
;

//---------------dance-single - ----------------
#NOTES:
     dance-single:
     :
     Hard:
     9:
     0.728,0.805,0.249,0.640,0.565:
1001
0000
0000
0100
1000
0000
1001
0000
0000
0001
1000
0000
0010
0000
0100
0000
,
0101
0000
0000
0001
0010
0000
0110
0000
0000
0100
1000
0000
0010
0000
0100
0000
,
0110
0000
0000
0001
1000
0000
1100
0000
0000
1000
0100
0000
0010
0000
0100
0000
,
1100
0000
0000
1000
0010
0000
0210
0000
0000
0010
0000
0000
0310
0000
0000
0000
,
2002
0000
0000
3000
,
1000
0000
0000
1000
0000
0000
1000
0000
2000
0000
0000
0000
0000
0000
0000
0000
,
0000
0000
0000
3003
,
0002
0003
0000
0000
0020
0030
0000
0000
0200
0300
0000
0000
1001
0000
0000
0000
,
1000
0000
0100
0000
1000
0000
0000
0010
0000
0100
0000
0010
0100
0000
0000
0000
,
0010
1000
0100
0001
0100
1000
0010
0100
,
0000
0001
1000
0001
0000
0010
0100
0010
0000
0001
0010
0001
0000
1000
0010
1000
,
0001
0010
0100
1000
0010
0010
0110
0000
,
1000
0000
0100
0000
1100
0000
0000
1000
0000
0010
0000
0100
0010
0000
0000
0000
,
1000
0000
0100
0000
0010
0000
0001
0000
0100
0000
0010
0000
0100
0000
0000
0100
0000
0000
0120
0000
0000
1030
0000
0000
,
0100
0010
0100
0000
0010
0000
0001
0000
0100
0000
0010
0000
0010
0000
0100
0000
,
0101
1010
1100
0110
2001
0000
3100
0000
,
0010
0001
0101
0001
0200
0320
2030
3200
,
0310
0100
0000
0010
0100
0000
1000
0000
0020
0000
0130
0000
0200
0000
0301
0000
,
0001
0010
0000
0000
0001
0010
0000
0000
1000
0010
0000
0000
1000
0010
0000
0000
,
0110
0100
0010
1000
0100
0010
0110
0100
,
1000
0000
0010
0000
0100
0000
0000
0001
0000
0010
0000
0001
0100
0000
0000
0000
,
1000
0000
0100
0000
0001
0000
1000
0000
0010
0000
0001
0000
0100
0000
0000
0020
0000
0000
0030
0000
0000
0001
0000
0000
,
0100
0100
0120
1030
0100
0100
0210
1300
,
1000
0010
0000
0000
1000
0010
0000
0000
0100
0010
0100
0000
0001
0000
0010
0000
,
0200
0000
2000
0300
,
0020
3000
0200
0030
,
0002
0300
0020
0003
,
0200
0030
2000
0300
,
3001
0100
0000
0000
0001
0100
0000
0000
0010
1000
0000
0000
0010
1000
0000
0000
,
0100
1000
0000
0000
0100
1000
0000
0000
0001
0010
0000
0000
0001
0010
0000
0000
,
0100
1000
0010
0100
0001
0010
0100
1000
,
0010
1000
0010
0000
0100
0010
0100
0000
0001
0000
0010
0000
0110
0000
0100
0000
,
2000
0000
0000
0000
3010
0000
0100
0000
0001
0010
0000
0001
0100
0000
0010
0000
,
0200
0000
0000
0000
0301
0000
0010
0000
0100
0020
0000
0000
0001
0000
0031
0000
,
0200
0000
0000
0000
0310
0000
0100
0000
0001
0100
0000
0010
0100
0000
0010
0000
,
2000
0000
0000
0000
3100
1000
0100
0010
0001
0000
0100
0000
0010
0000
0010
0000
,
2000
0000
0000
0000
3100
0000
0010
0000
0100
1000
0000
0100
0001
0000
0100
0000
,
2000
0000
0000
0000
3020
0030
0020
0030
0200
0300
0002
0003
0020
0030
0200
0300
,
2000
0000
0000
0000
3020
0000
0000
0000
0130
0001
0000
0100
0010
1000
0100
0010
,
0002
0000
0000
0000
0103
0010
0000
0100
0001
1000
0100
1000
0001
1000
0100
1000
,
0002
0000
0100
0000
0203
0000
0310
1000
0000
0100
1000
0000
0020
0000
0130
0000
,
0001
0000
0020
0000
0130
0000
0010
0002
0000
0103
0002
0000
0013
0000
0100
0000
,
1000
0000
0020
0000
0130
0000
0010
2000
0000
3100
2000
0000
3010
0000
0100
0000
,
0001
0000
0020
0000
0130
0000
0010
0002
0000
0103
0020
0100
0032
0000
0023
0000
,
0230
0000
1000
0000
2300
0000
3010
0100
0000
0001
0010
0000
0100
0000
0010
0000
,
0001
0100
0001
0000
2000
3000
0200
2300
3000
0002
0203
0300
0020
0030
2000
3000
,
0100
0010
0100
1000
0010
0000
0100
0010
0000
0100
0001
0100
0010
0000
1000
0000
,
0100
1000
0100
1000
0001
0100
0001
0100
0010
0100
0010
0100
0001
0000
0010
0000
,
0220
0000
0000
0030
,
2000
0000
0000
0300
,
0020
0000
0000
0000
3000
0000
0000
0000
0130
0000
0001
0000
1000
0100
0000
0100
,
0020
0000
0000
0000
0130
0000
1000
0000
0002
0003
0000
0000
1000
0100
0000
0000
,
1000
0000
0010
0000
0100
0010
0100
0000
0001
0000
1000
0000
0100
0000
1000
0000
,
0010
0000
0100
0000
0001
0010
0001
1000
0100
0000
0010
0000
0100
0000
1000
0100
,
1000
0010
1000
0001
0100
0010
1000
0000
0100
0010
0100
0000
1000
0010
1000
0010
,
0100
0010
0100
0000
0001
0000
0010
0000
0100
0000
1000
0000
0001
0000
0100
0001
,
0100
0000
0010
1000
0010
1000
0100
0010
0100
0000
1000
0000
0010
0000
1000
0000
,
0100
0000
0010
0000
0001
0100
0001
0100
0010
0000
1000
0000
0100
0000
1000
0010
,
0000
0100
0000
0100
0010
1000
0010
0000
1000
0100
1000
0000
0001
0000
0010
0100
,
0010
0100
1000
0000
0010
0000
0100
0000
0010
0000
0100
0000
0001
0010
0100
1000
,
0200
0000
0000
0000
0310
0000
0010
0000
0110
0000
0000
0000
1000
0010
0100
0001
,
0200
0000
0000
0000
0310
0000
0010
0000
0110
0000
0000
0000
1000
0000
0010
0100
,
0000
0001
0000
0010
0100
0010
0000
0010
0001
0010
0000
0100
1000
0000
0010
0000
,
0100
0010
1000
0100
0010
0001
2001
0000
,
0100
0000
0010
0010
3100
0000
0002
0000
,
0100
0013
0000
0000
0110
0000
2002
0000
,
0000
0000
0000
3003
;
