#TITLE:Destined Marionette;
#SUBTITLE:;
#ARTIST:beatMARIO;
#TITLETRANSLIT:;
#SUBTITLETRANSLIT:;
#ARTISTTRANSLIT:;
#CREDIT:Grithokskulk;
#BANNER:Destined Marionette.png;
#BACKGROUND:Destined Marionette-bg.png;
#LYRICSPATH:;
#CDTITLE:grithokskulk.png;
#MUSIC:Destined Marionette.mp3;
#OFFSET:-0.061;
#SAMPLESTART:75.555;
#SAMPLELENGTH:15.000;
#SELECTABLE:YES;
#BPMS:0.000=93.000,32.000=186.000;
#STOPS:;
#BGCHANGES:;

//---------------dance-single - ----------------
#NOTES:
     dance-single:
     :
     Easy:
     6:
     0.450,0.762,0.265,1.000,0.000: // measure 1
2000
0000
3020
0000
,  // measure 2
0230
0000
0320
0000
,  // measure 3
2030
0000
3002
0000
,  // measure 4
0023
0000
0230
0000
,  // measure 5
0320
0032
0203
0320
,  // measure 6
0230
0302
2003
3200
,  // measure 7
0320
0230
2300
3002
,  // measure 8
0203
0320
0230
0302
,  // measure 9
0003
1000
0200
0000
,  // measure 10
0300
0010
0200
0000
,  // measure 11
0300
1000
0002
0000
,  // measure 12
0003
0100
0010
1000
,  // measure 13
0000
0010
0200
0000
,  // measure 14
0300
0010
2000
0000
,  // measure 15
3000
0100
0020
0000
,  // measure 16
0030
0100
1000
0002
,  // measure 17
0003
0100
0002
0000
,  // measure 18
0003
0010
0200
0000
,  // measure 19
0300
0010
0200
0000
,  // measure 20
0300
1000
0010
0100
,  // measure 21
0010
1000
0002
0000
,  // measure 22
0003
0010
0200
0000
,  // measure 23
0300
0010
0002
0000
,  // measure 24
0003
1000
0010
0100
,  // measure 25
0002
0000
0010
0000
,  // measure 26
0100
0000
1000
0000
,  // measure 27
0203
0000
1000
0000
,  // measure 28
0010
0000
0001
0000
,  // measure 29
0320
0000
1000
0000
,  // measure 30
0001
0000
0100
0000
,  // measure 31
2030
0000
0100
0000
,  // measure 32
0010
0000
0001
0000
,  // measure 33
3200
0000
0001
0010
,  // measure 34
2300
0000
0010
0100
,  // measure 35
3002
0000
0010
1000
,  // measure 36
0203
0000
1000
0001
,  // measure 37
0320
0000
0001
1000
,  // measure 38
0230
0000
1000
0001
,  // measure 39
0320
0000
2030
0000
,  // measure 40
3200
0320
0230
2300
,  // measure 41
3020
0000
0230
0000
,  // measure 42
1000
0010
0002
0303
,  // measure 43
0020
0000
0230
0000
,  // measure 44
1000
0010
1000
0010
,  // measure 45
2300
0000
3020
0000
,  // measure 46
0100
1000
0230
0000
,  // measure 47
0302
0023
0230
2300
,  // measure 48
3020
0000
0000
0000
,  // measure 49
0200
0000
0000
0330
,  // measure 50
2002
0000
0000
0000
,  // measure 51
0000
0000
0000
0000
3003
0000
0002
0003
,  // measure 52
0020
0030
0200
0300
0020
0030
0002
0003
,  // measure 53
0200
0300
0200
0300
0020
0030
0200
0300
,  // measure 54
0002
0003
2000
3000
0200
0300
0020
0030
,  // measure 55
0200
0300
0020
0030
0220
0330
2000
3000
,  // measure 56
0020
0030
0200
0300
0002
0003
0020
0030
,  // measure 57
0002
0003
0200
0300
0220
0330
0020
0030
,  // measure 58
2000
3000
0002
0003
0020
0030
0200
0300
,  // measure 59
0020
0000
0200
0300
0200
0300
0200
0330
,  // measure 60
0020
0030
0002
0003
0200
0300
0020
0030
,  // measure 61
2000
3000
0002
0003
2002
3003
0002
0003
,  // measure 62
0020
0030
0200
0300
2000
3000
0020
0030
,  // measure 63
0220
0330
2002
3003
0220
0330
0002
0003
,  // measure 64
0020
0030
0200
0300
2000
3000
0020
0030
,  // measure 65
0220
0330
2002
3003
0220
0330
2000
3000
,  // measure 66
0200
0300
0020
0030
0002
0003
0200
0300
,  // measure 67
0020
0030
0200
0300
0002
0000
2003
0000
,  // measure 68
3200
0000
0010
0000
,  // measure 69
1000
0000
0001
0000
,  // measure 70
0320
0000
0001
0001
,  // measure 71
1000
1000
0130
0020
,  // measure 72
0032
0000
0100
0010
,  // measure 73
2003
0000
3020
0030
,  // measure 74
0220
0000
0000
0000
,  // measure 75
0000
0000
0000
0000
,  // measure 76
0000
0000
0000
0000
,  // measure 77
0000
0000
0000
0330
,  // measure 78
0000
1000
0100
0020
,  // measure 79
0030
0100
0010
0002
,  // measure 80
0003
0100
0001
0010
,  // measure 81
0100
0100
0110
0110
,  // measure 82
1001
1001
0101
0101
,  // measure 83
1001
1001
1100
1100
,  // measure 84
1001
1001
0011
0011
,  // measure 85
2000
3020
0230
0301
,  // measure 86
0101
0101
1010
1010
,  // measure 87
1100
1100
0011
0011
,  // measure 88
1001
1001
0110
0110
,  // measure 89
2000
3002
0023
0130
,  // measure 90
0220
0000
0000
0000
,  // measure 91
0000
0000
0000
0000
,  // measure 92
0330
0000
0000
0000
;

//---------------dance-single - ----------------
#NOTES:
     dance-single:
     :
     Medium:
     8:
     0.593,0.635,0.098,1.000,0.000:
2000
3100
0002
0103
,
2000
3010
0002
0013
,
2000
3100
0002
0103
,
2000
0000
3010
0000
0002
0000
0013
0100
,
0020
0000
0031
0100
0020
0000
0130
0001
,
2000
0000
3100
1000
0020
0000
0130
0010
,
2000
0000
3001
0010
0002
0000
0103
0010
,
0200
0000
0302
0000
0023
0230
2300
3020
,
0030
0100
0000
0100
0000
0001
2000
0002
,
3003
0100
0000
0010
0000
1000
0020
2000
,
3030
0100
0000
0010
0000
0100
2000
0200
,
3300
0010
0000
0001
0000
0100
0020
0230
,
0301
0010
0000
0100
0000
1000
0020
0200
,
0330
0001
0000
1000
0000
0100
0020
0200
,
0330
1000
0000
0001
0000
0010
0200
2000
,
3300
0010
0000
0100
0001
0010
0200
2000
,
3300
0010
0000
0101
0000
0001
0020
0002
,
0033
0100
0000
0110
0000
1000
0020
2000
,
3030
0001
0000
1001
0000
0100
0020
0002
,
0033
0100
0000
0010
0000
1000
0200
0320
,
0130
1000
0000
0010
0000
0100
0002
2000
,
3003
0001
0000
0010
0000
0100
2000
0020
,
3030
0100
0000
0010
0000
1000
0002
0020
,
0033
0001
0100
0010
1000
0100
0020
0230
,
2300
0000
3020
0230
,
0320
0230
0302
0013
,
0101
1010
2000
3200
,
0302
0000
0203
0000
0310
0001
0010
0000
,
2002
0000
3003
0000
0100
0010
0200
0000
,
0302
0000
2003
0000
3100
0010
0200
0000
,
2300
3200
0302
0203
,
1300
0010
0200
0000
0320
0000
1030
0000
,
0202
0000
0303
0000
1000
0100
0010
0200
,
0000
0320
0032
0203
,
0320
0000
0130
0000
0001
1000
0200
0000
,
0320
0000
0032
0000
1003
0010
0100
0000
,
0220
0000
0330
0000
1000
0100
0020
0000
,
0230
0000
2300
0000
3010
0100
0020
0000
,
2030
3200
0302
0203
,
2300
0000
3020
0000
0230
0000
0002
0300
,
0023
0000
0000
0230
0000
0000
0300
0020
,
0000
0000
0000
0032
0000
0000
0000
0000
,
0203
0000
0000
0320
0000
0000
0000
0000
,
0230
0001
1000
0010
,
0302
0000
0000
0023
0000
0000
0000
0230
,
0000
0000
0000
0320
0000
0000
0000
0000
,
0032
0000
0000
0000
2003
0000
0000
3000
,
0220
0000
0000
0330
,
2002
0000
0000
0003
,
0200
0000
0000
0000
,
0000
0000
0000
0000
3300
0000
0000
0020
,
0030
0200
0300
2000
3000
0020
0030
0200
,
0300
0002
0003
0020
0030
0002
0003
0200
,
0300
0020
0030
0200
0300
0002
0003
2000
,
3000
0200
0300
0020
0030
0200
0300
2000
,
3000
0020
0030
0200
0300
0002
0003
2000
,
3000
0020
0030
0002
0003
0020
0030
0200
,
0300
0002
0003
0020
0030
0200
0300
0020
,
0032
0003
2000
3000
2002
0000
3003
0000
,
0000
2000
3000
0020
0030
0200
0300
0020
,
0030
2000
3000
0200
0300
0002
0003
0200
,
0300
0020
0030
0002
0003
0200
0300
0020
,
0030
0200
0300
0002
0003
2000
3000
0200
,
0300
0020
0030
0200
0300
0020
0030
0002
,
0003
0200
0300
2000
3000
0200
0300
0020
,
0030
2000
3000
0200
0300
0020
0030
0200
,
2000
0300
3002
0000
0203
0000
0310
0000
,
0220
0000
0000
0000
0330
0020
0000
0000
,
0032
0000
0203
0000
0320
0000
0000
0230
,
0000
0320
0000
1000
0000
0001
0000
0100
,
0000
0100
0000
1030
0000
0100
0000
0020
,
0200
0000
0000
0000
0330
1000
0000
0002
,
2000
0003
0002
3003
,
0220
0000
0000
0000
,
0000
0000
0000
0000
,
0000
0000
0000
0000
,
0000
0000
0000
0330
,
0000
0100
0000
1000
0000
0010
0200
0002
,
0303
1000
0000
0100
0000
0001
0200
0020
,
0330
0001
0000
0100
0000
0010
2000
0020
,
3030
0100
0001
0010
0200
0000
0320
0000
,
0030
0001
0000
1000
0000
0010
0200
0020
,
0330
1000
0000
0001
0000
0010
0002
0200
,
0303
0010
0000
1000
0000
0001
0020
0032
,
0203
2300
3200
0302
,
0003
0010
0000
0100
0000
0010
0002
2000
,
3003
0010
0000
1000
0000
0001
0020
0200
,
0330
0010
0000
0001
0000
1000
0020
2030
,
3100
1000
0010
0000
0100
0001
0010
0100
,
2002
0000
0000
0000
,
0000
0000
0000
0000
,
3003
0000
0000
0000
;

//---------------dance-single - ----------------
#NOTES:
     dance-single:
     :
     Hard:
     10:
     0.940,1.000,0.433,1.000,0.310:
0100
0000
0001
0000
0010
0100
0010
0001
0000
0100
0010
2000
0000
3200
0000
1300
,
0010
0000
0100
0000
0010
1000
0001
0010
0000
0100
0010
0002
0000
0203
0000
0310
,
0100
0000
0001
0000
1000
0100
0001
0100
0000
1000
0010
0002
0000
0023
0000
0130
,
0001
0000
1000
0000
0100
0010
0100
1000
0000
0010
0100
0002
0000
2003
0000
3100
,
0210
0000
0310
0000
0021
0000
0031
0000
0102
0000
0103
0000
0210
0000
0310
1000
,
1020
0000
1030
0000
2100
0000
3100
0000
0210
0000
0310
0000
0021
0000
0031
1000
,
2001
0000
3010
0000
0110
1000
0001
0000
0021
0000
0031
0000
0101
0010
1000
0000
,
1001
0100
0010
0000
1100
0010
1000
0000
1001
0000
0110
0000
0101
0000
1010
0000
,
1100
0000
0010
0000
0010
0000
0100
0000
1000
0010
0100
0010
2000
0000
0002
0000
,
3003
0000
0010
0000
0010
0000
0100
0000
0010
0001
0100
0010
0200
0000
0002
0000
,
0303
0000
1000
0000
1000
0000
0100
0000
0010
0100
1000
0010
0200
0000
0020
0000
,
0330
0000
1000
0000
1000
0000
0001
0000
0010
0000
0001
0100
0000
0100
0010
0000
,
1000
0000
0001
0000
0001
0000
0010
0000
0100
0010
0001
0100
0020
0000
0200
0000
,
0330
0000
0001
0000
0001
0000
1000
0000
0100
0001
0100
1000
0020
0000
0200
0000
,
0330
0000
0010
0000
0010
0000
1000
0000
0001
0010
0001
0100
0020
0000
0200
0000
,
0330
0000
0001
0000
0001
0000
1000
0000
0100
0000
0010
0100
1000
0000
0010
0000
,
0100
0000
0010
0000
0010
0000
1000
0000
0001
0010
0100
0010
0002
0000
0200
0000
,
0303
0000
0010
0000
0010
0000
0100
0000
0001
1000
0100
1000
0020
0000
2000
0000
,
3030
0000
0100
0000
0100
0000
0010
0000
0100
1000
0010
0100
0020
0000
2000
0000
,
3030
0000
0001
0000
0001
0000
0010
0000
0100
0000
0010
0001
0000
0001
0100
0000
,
0010
0000
0100
0000
0100
0000
0001
0000
1000
0100
1000
0010
2000
0000
0200
0000
,
3300
0000
0010
0000
0010
0000
0100
0000
1000
0010
0100
0010
2000
0000
0002
0000
,
3003
0000
0010
0000
0010
0000
0001
0000
0100
1000
0100
0001
2000
0000
0200
0000
,
3300
0000
0010
0000
0100
0000
0100
0000
1000
0000
0010
0100
0010
0000
2000
0000
,
0002
0000
3000
0023
0032
0203
0320
0230
,
0000
0302
2003
3200
0000
0320
0230
0000
,
2300
0000
3020
0000
2030
3002
0023
2030
,
0000
3020
0032
0203
0000
0320
0230
0000
,
0302
0000
0000
2003
3200
0320
0230
2300
,
3000
2000
3020
0230
0300
0200
0320
0000
,
2030
0000
3002
0000
0023
0000
0032
0203
,
0300
0200
0320
0000
0230
0000
0302
0003
,
2001
0000
0000
3200
0320
0230
2300
3020
,
0030
0020
0230
0320
0000
2030
3002
0000
,
0023
0000
0032
0000
0203
2300
3200
0302
,
0000
2003
3200
0320
0000
0230
2300
3000
,
2001
0000
0000
3020
0230
0302
0023
0032
,
0000
0203
0320
0230
0000
0302
2003
3200
,
0320
0000
0230
0000
2300
0000
3020
2030
,
3002
0010
0023
0001
0032
0103
0010
0100
,
0002
0000
1000
2003
0000
0100
0100
3200
,
0000
0010
1000
0320
0000
0100
0100
0000
,
0032
0000
1000
2003
0000
0010
0010
3020
,
0000
0000
1000
0000
0001
0000
0100
0100
,
2030
0000
0001
3002
0000
0010
0010
0023
,
0000
0100
0001
0230
0000
1000
0010
1300
,
0010
0000
0000
0100
0000
0000
0010
0000
1000
0000
0000
0001
0000
0000
0010
0000
,
0001
0000
0000
0001
1000
0000
0010
0000
0100
0000
0000
0100
0010
0000
1000
0000
,
0100
0000
0000
0100
0010
0000
0100
0000
1000
0000
0000
1000
0010
0000
0100
0000
,
0010
1000
0010
1000
0010
1000
0010
1000
0001
1000
0001
1000
0001
1000
0001
1000
,
0001
0000
0010
0000
0001
0000
0010
0000
0001
0000
0010
0000
0001
0000
0010
0000
0100
0000
0000
0000
2000
3000
0000
0000
0020
0030
0000
0000
0200
0300
0000
0000
,
0020
0030
0000
0000
2000
3000
0000
0000
0002
0003
0000
0000
0000
0000
0000
0000
0020
0030
0000
0000
0002
0003
0000
0000
0200
0300
0000
0000
0200
0300
0000
0000
,
0000
0000
0000
0000
0020
0030
0000
0000
0220
0330
0000
0000
0000
0000
0000
0000
0202
0303
0000
0000
0000
0000
0000
0000
2000
3000
0000
0000
0200
0300
0000
0000
,
0002
0003
0000
0000
0200
0300
0000
0000
2000
3000
0000
0000
0000
0000
0000
0000
0020
0030
0000
0000
2000
3000
0000
0000
0020
0030
0000
0000
0200
0300
0000
0000
,
0202
0303
0000
0000
0000
0000
0000
0000
2002
3003
0000
0000
0000
0000
0000
0000
2200
3300
0000
0000
0000
0000
0000
0000
0002
0003
0000
0000
0200
0300
0000
0000
,
2000
3000
0000
0000
0020
0030
0000
0000
0200
0300
0000
0000
0000
0000
0000
0000
0020
0030
0000
0000
2000
3000
0000
0000
0002
0003
0000
0000
0020
0030
0000
0000
,
0022
0033
0000
0000
0000
0000
0000
0000
2002
3003
0000
0000
0000
0000
0000
0000
2020
3030
0000
0000
0000
0000
0000
0000
0200
0300
0000
0000
0020
0030
0000
0000
,
2000
3000
0000
0000
0002
0003
0000
0000
0020
0030
0000
0000
0000
0000
0000
0000
0200
0300
0000
0000
0020
0030
0000
0000
0002
0003
0000
0000
0200
0300
0000
0000
,
0000
0000
0000
0000
0020
0030
0000
0000
0020
0030
0000
0000
0200
0300
0000
0000
0002
0003
0000
0000
2000
3000
0000
0000
0200
0300
0000
0000
0002
0003
0000
0000
,
0200
0300
0000
0000
2000
3000
0000
0000
0020
0030
0000
0000
0000
0000
0000
0000
2000
3000
0000
0000
0020
0030
0000
0000
0020
0030
0000
0000
0200
0300
0000
0000
,
0000
0000
0000
0000
0002
0003
0000
0000
2000
3000
0000
0000
0000
0000
0000
0000
2002
3003
0000
0000
0000
0000
0000
0000
0020
0030
0000
0000
2000
3000
0000
0000
,
0020
0030
0000
0000
0002
0003
0000
0000
0200
0300
0000
0000
0000
0000
0000
0000
0020
0030
0000
0000
0200
0300
0000
0000
0002
0003
0000
0000
2000
3000
0000
0000
,
2200
3300
0000
0000
0000
0000
0000
0000
2002
3003
0000
0000
0000
0000
0000
0000
0220
0330
0000
0000
0000
0000
0000
0000
0002
0003
0000
0000
0200
0300
0000
0000
,
2000
3000
0000
0000
0200
0300
0000
0000
0002
0003
0000
0000
0000
0000
0000
0000
2000
3000
0000
0000
0002
0003
0000
0000
0020
0030
0000
0000
0002
0003
0000
0000
,
0202
0303
0000
0000
0200
0300
0000
0000
0220
0330
0000
0000
0020
0030
0000
0000
2020
3030
0000
0000
0000
0000
0000
0000
2000
3000
0000
0000
0002
0003
0000
0000
,
0020
0030
0000
0000
0200
0300
0000
0000
0020
0030
0000
0000
0000
0000
0000
0000
0002
0003
0000
0000
0200
0300
0000
0000
0020
0030
0000
0000
0200
0300
0000
0000
,
0000
0000
0000
0000
0200
0300
0000
0000
0002
0003
0000
0000
2000
3000
0000
0000
0200
0000
0000
0000
0000
0000
0000
0000
0320
0000
0000
0000
0000
0000
0000
0000
,
0032
0000
0003
0000
0000
1000
0000
0010
,
0100
0000
0010
0000
1000
0000
0100
0010
,
0000
0200
0000
0001
0000
1000
0000
0010
,
0000
0000
1000
0000
0000
0000
0310
0000
0000
0000
0001
0000
0000
0100
0000
0000
,
0020
0000
0000
0000
0000
0000
0000
0000
0000
0000
0130
0000
0000
0001
0000
0000
,
2000
0000
0002
3003
,
0220
0000
0000
0000
,
0000
0000
0000
0000
,
0000
0000
0000
0000
,
0330
0000
0000
0000
,
0100
0000
1000
0000
1000
0000
0010
0000
0100
0010
1000
0010
0200
0000
0002
0000
,
0303
0000
0010
0000
0010
0000
0001
0000
0100
1000
0100
0001
2000
0000
0200
0000
,
3300
0000
0001
0000
0001
0000
0100
0000
1000
0010
0100
0010
2000
0000
0002
0000
,
3003
0000
0010
0000
0001
0000
0100
0000
0010
0000
0100
0001
1000
0000
0100
0000
,
0110
0010
0011
0000
1001
1000
1010
0000
,
0110
0100
0101
0000
1001
1000
1100
0000
,
0110
0100
1100
0000
1010
0010
0110
0000
,
2000
3002
0023
0031
,
0101
1000
0110
0000
1010
0100
1001
0000
,
0011
1000
0101
0000
0110
0001
1100
0000
,
0110
1000
0101
0000
1001
0100
0011
0000
,
1000
0010
1000
0000
0010
0000
0010
0000
0100
0001
0100
0000
0001
0000
1000
0000
,
0220
0000
0000
0000
,
0000
0000
0000
0000
,
0330
0000
0000
0000
;
