#TITLE:DISCO DANCING;
#SUBTITLE:;
#ARTIST:DJ SIMON feat. Glynis Martin;
#TITLETRANSLIT:;
#SUBTITLETRANSLIT:;
#ARTISTTRANSLIT:;
#CREDIT:Grithokskulk;
#BANNER:DISCO DANCING.png;
#BACKGROUND:DISCO DANCING-bg.png;
#LYRICSPATH:;
#CDTITLE:beatmania.png;
#MUSIC:DISCO DANCING.mp3;
#OFFSET:-2.645;
#SAMPLESTART:52.575;
#SAMPLELENGTH:15.000;
#SELECTABLE:YES;
#BPMS:0.000=126.000;
#STOPS:101.000=1.420
;
#BGCHANGES:;

//---------------dance-single - ----------------
#NOTES:
     dance-single:
     :
     Easy:
     3:
     0.245,0.235,0.148,0.269,0.000: // measure 1
1000
0100
1000
0100
,  // measure 2
1000
0010
1000
0010
,  // measure 3
0200
0300
0020
0030
,  // measure 4
2000
3000
0002
0003
,  // measure 5
0010
0001
0010
0001
,  // measure 6
0100
0001
0100
0001
,  // measure 7
0200
0300
0020
0030
,  // measure 8
2002
0000
3003
0220
,  // measure 9
0000
0330
1000
0001
,  // measure 10
1000
0010
0100
0100
,  // measure 11
0000
0001
0010
0010
,  // measure 12
0000
0001
0100
1000
,  // measure 13
0100
0010
0100
0010
,  // measure 14
0000
1000
0100
0100
,  // measure 15
0000
1000
0001
0001
,  // measure 16
0000
0110
1001
0110
,  // measure 17
0000
0100
0000
0010
,  // measure 18
0010
2000
0000
0000
,  // measure 19
3000
0200
0000
0000
,  // measure 20
0300
2000
0000
0000
,  // measure 21
3000
0002
0000
0003
,  // measure 22
0001
0200
0000
0000
,  // measure 23
0300
0020
0000
0000
,  // measure 24
0030
0110
0000
1001
,  // measure 25
0000
0110
0000
0001
,  // measure 26
1000
1001
0010
0010
,  // measure 27
0010
0010
0200
0300
,  // measure 28
0020
0030
1000
0001
,  // measure 29
1000
0001
0020
0000
,  // measure 30
0000
0030
0001
0001
,  // measure 31
0001
0001
2000
3000
,  // measure 32
0002
0003
0100
0010
,  // measure 33
0100
0000
1001
0000
,  // measure 34
0110
0000
1001
0000
,  // measure 35
0010
0010
0100
0001
,  // measure 36
0010
0001
0010
0100
,  // measure 37
0010
0100
1000
0020
,  // measure 38
0030
0200
0300
0001
,  // measure 39
0010
0100
1000
0010
,  // measure 40
0100
0010
0100
0001
,  // measure 41
1000
0001
1000
0200
,  // measure 42
0300
0020
0030
0001
,  // measure 43
0000
1001
0000
1000
,  // measure 44
0010
1000
0000
0010
,  // measure 45
0100
0010
0000
2000
,  // measure 46
3000
0200
0300
0010
,  // measure 47
0100
1000
0001
0100
,  // measure 48
0001
0100
0000
0001
,  // measure 49
0010
0001
0000
2000
,  // measure 50
3000
0020
0030
1001
,  // measure 51
0000
0110
0000
1001
;

//---------------dance-single - ----------------
#NOTES:
     dance-single:
     :
     Medium:
     5:
     0.400,0.353,0.371,0.195,0.000:
1000
0100
1000
0000
0001
0100
0001
0000
,
0010
0001
0010
0000
0001
0000
0100
0010
,
2000
0000
3002
0000
,
0013
0100
0010
0100
0010
0000
0110
0000
,
0001
0100
0001
0000
1000
0100
1000
0000
,
0010
1000
0010
0000
0200
0000
0310
0000
,
1000
0010
1000
0000
0001
0010
0001
0000
,
1001
0000
0000
0110
0000
0000
1001
0000
,
0000
0110
0000
0000
1000
0000
0001
0000
,
1001
0000
0100
0001
0100
0000
0010
1000
,
0010
2000
3100
0002
,
0103
0000
0010
0100
0010
0100
0010
0000
,
0110
0000
1000
0001
1000
0001
1000
0000
,
1001
0002
0103
2000
,
3100
0000
1000
0010
1000
0000
0001
0100
,
0001
1001
1001
2001
,
3100
0000
0010
0100
0010
0000
0001
0000
,
0101
0000
1000
0000
0100
1000
0100
0000
,
0010
0000
0100
0000
0010
0001
0010
0000
,
0001
0000
1000
0000
0010
1000
0010
0000
,
1000
0000
0001
0010
0001
0010
0001
0000
,
1001
0000
1000
0000
0100
1000
0100
0000
,
0010
0000
0100
0000
1000
0001
1000
0000
,
0001
0000
0110
0000
0000
1001
0000
0000
,
0000
0110
0000
0000
0000
1001
0000
0000
,
0001
1000
1001
1001
,
1001
1001
2002
3003
,
0110
0000
0000
0000
0001
0100
0001
0000
,
0100
0000
0010
0000
1000
0100
1000
0100
,
1000
1001
0110
0110
,
0110
0110
0220
0330
,
1001
0000
0000
0000
1000
0100
1000
0000
,
0001
0100
0001
0000
0010
0000
0000
0110
,
0000
0000
0100
0000
0000
0110
0000
1000
,
0001
0000
1000
0000
1001
0000
1000
0100
,
1000
0000
0001
0100
0001
0000
0010
0001
,
0010
0002
0203
0320
,
0130
0001
0100
0000
0001
0000
1000
0100
,
1000
0100
1000
0000
1001
0000
0100
0000
,
0010
0100
0010
0000
1000
0000
0001
0000
,
0010
0001
0010
0000
0100
0000
0010
0000
,
0001
1000
0001
0000
0100
0000
0110
0000
,
0000
2002
0000
0000
3003
0000
1000
0000
,
0100
1000
0100
0000
0010
0000
0100
1000
,
0100
0000
1000
0000
0010
0100
0020
0000
,
1030
0100
2000
0000
3001
1000
0001
0010
,
0001
1000
0001
0000
1001
0000
0100
0010
,
0100
0000
0002
0000
0013
0000
1000
0100
,
1000
0000
0020
0000
0130
0000
0001
0010
,
0001
0000
1000
0010
1000
0000
1001
0000
,
0000
0110
0000
0000
0001
0000
1001
0000
;

//---------------dance-single - ----------------
#NOTES:
     dance-single:
     :
     Hard:
     7:
     0.509,0.424,0.464,0.306,0.070:
1000
0000
0000
1000
0100
0000
1000
0000
0100
0000
0010
0000
0100
0000
0001
0000
,
0200
0000
1000
0000
0010
0010
0310
0000
,
0010
0001
0100
0000
0010
1000
0100
1000
,
1000
0010
0010
0100
0100
0001
1001
0000
,
1000
0000
0000
1000
0100
0000
0001
0000
0100
0000
1000
0000
0100
0000
0010
0000
,
0100
0110
0011
1001
,
0001
0000
0000
0001
0100
0000
0010
0000
0100
0000
0001
0000
0010
0000
0000
0000
,
0110
0000
0000
0110
0000
0000
1001
0000
0000
0000
0000
0000
0110
0000
0000
0110
,
0000
1001
0000
1000
0001
0000
1000
0000
,
0110
0000
1000
0100
1000
0000
0001
0100
,
0001
0000
0010
0001
0010
0001
0100
0100
,
0010
0100
0001
0100
1000
0100
0001
0000
,
1001
0000
1000
0100
0001
0100
1000
0000
,
1001
0000
1000
0010
1000
0000
0001
0010
,
0001
0000
1000
0010
0100
0010
1000
0000
,
1001
0000
1100
0000
1100
0000
1100
0010
,
0100
1000
0020
0000
0001
0000
1030
0010
,
0100
0001
0020
0000
0130
0001
0200
0000
,
1300
0010
0200
0000
0310
1000
0002
0000
,
0013
0001
0100
0010
0010
0100
0001
0000
,
1001
0000
1000
0100
0100
1000
0010
0000
,
1010
0000
2000
0000
3010
0100
0020
0000
,
1030
0100
0002
0000
0103
1000
0020
0000
,
0130
0010
1000
0010
0100
0001
0010
0001
,
0100
0110
0000
0010
1000
0001
0011
0000
,
1100
1001
0110
1001
,
0110
0000
1001
0000
0100
0010
0100
1000
,
0010
0000
1010
0000
1000
0010
0010
0100
,
0001
0000
0000
0001
0010
0000
0001
0000
0100
0000
0100
0000
0010
0000
0010
0000
,
1000
1001
0011
1100
,
0011
0000
1100
0000
0010
0001
0100
0010
,
0100
0100
0001
0000
0010
0001
0100
0010
,
1000
0000
0000
1000
0100
0000
1000
0000
1010
0000
0000
1010
0000
0000
0101
0000
,
0000
0000
0000
0000
1010
0000
0000
1010
0000
0000
1100
0000
0000
0000
0010
0000
,
0100
0001
0110
0020
,
0032
0203
2300
3200
,
0320
0000
0000
0000
1030
0000
0000
1000
0100
0000
0010
0000
0100
0000
1000
0000
,
0010
0100
0001
0000
1001
0001
0001
0010
,
0010
0100
0100
1000
1000
0000
0002
0000
,
0023
0230
0320
0032
,
0103
0000
1000
0000
0100
0000
0000
0100
0010
0000
1000
0000
0100
0000
0000
0000
,
0010
0000
0100
0000
0010
0000
0000
0000
0110
0000
0000
0000
1100
0000
0000
1100
,
0000
0011
0000
0000
1001
0000
0200
0000
,
0320
0230
0302
0023
,
0230
0000
0000
0000
0310
0000
0000
0010
0001
0000
0100
0000
0010
0000
0100
0000
,
0001
0010
0100
0100
0010
0001
0001
1000
,
1000
0100
0100
1000
1000
0010
0200
0000
,
0320
2030
3200
0302
,
0203
0000
0000
0000
1300
0000
0000
1000
0010
0000
0100
0000
0010
0000
1000
0000
,
1000
0000
0001
0000
0010
0000
0100
0000
1000
0000
0000
0000
1001
0000
0000
1001
,
0000
0110
0000
0000
0001
0000
1001
0000
;
