#TITLE:DISABLE MARK;
#SUBTITLE:;
#ARTIST:RoughSketch REVET D-crew;
#TITLETRANSLIT:;
#SUBTITLETRANSLIT:;
#ARTISTTRANSLIT:;
#CREDIT:Grithokskulk;
#BANNER:Disable Mark.png;
#BACKGROUND:Disable Mark-bg.png;
#LYRICSPATH:;
#CDTITLE:REFLEC BEAT.png;
#MUSIC:Disable Mark.mp3;
#OFFSET:-1.231;
#SAMPLESTART:84.895;
#SAMPLELENGTH:15.000;
#SELECTABLE:YES;
#BPMS:0.000=195.000,60.000=97.500,61.500=389.999,63.000=195.000,135.000=389.998,259.000=97.499,276.000=194.999,300.000=97.500,302.000=389.997;
#STOPS:61.500=0.080
,197.000=0.160
,259.000=2.300
,302.000=1.080
,429.000=0.160
;
#BGCHANGES:;

//---------------dance-single - ----------------
#NOTES:
     dance-single:
     :
     Easy:
     5:
     0.357,0.526,0.247,0.068,0.000: // measure 1
0100
0000
0100
0000
,  // measure 2
0100
0000
0100
0001
,  // measure 3
0010
0000
0010
0000
,  // measure 4
0001
0000
1000
0000
,  // measure 5
0010
0000
0010
0000
,  // measure 6
0010
0000
0010
1000
,  // measure 7
0001
0000
0001
0000
,  // measure 8
1000
0000
0200
0300
,  // measure 9
0110
0000
0110
0000
,  // measure 10
0110
0000
0110
0000
,  // measure 11
1001
0000
1001
0000
,  // measure 12
1001
0000
1001
0000
,  // measure 13
0001
0001
0001
0001
,  // measure 14
1000
1000
1000
1000
,  // measure 15
0100
0010
0100
0010
,  // measure 16
0200
0000
0000
0300
0000
0000
0010
0000
,  // measure 17
0010
0010
0000
0001
,  // measure 18
0001
0001
0000
0100
,  // measure 19
0001
0100
0001
1000
,  // measure 20
0100
1000
0100
1000
,  // measure 21
1000
1000
0000
0002
,  // measure 22
0003
0001
0001
0200
,  // measure 23
0300
0100
0100
0002
,  // measure 24
0003
2000
3000
1001
,  // measure 25
0000
0110
0000
0101
,  // measure 26
0000
1001
0000
1100
,  // measure 27
0000
0110
0000
0001
,  // measure 28
0001
0001
0001
1001
,  // measure 29
0000
0110
0000
0001
,  // measure 30
0000
1000
0000
0100
,  // measure 31
0100
0100
0000
1000
,  // measure 32
1000
1000
1000
2000
,  // measure 33
0000
0000
0000
0000
,  // measure 34
0000
0000
0000
3001
,  // measure 35
0000
0000
0000
0001
,  // measure 36
0000
0000
0100
0000
,  // measure 37
0000
0010
0000
0000
,  // measure 38
0100
0000
0000
0001
,  // measure 39
0000
0000
0000
1000
,  // measure 40
0000
0000
0100
0000
,  // measure 41
0000
1000
0000
0000
,  // measure 42
0010
0000
0000
0100
,  // measure 43
0000
0000
0000
0010
,  // measure 44
0000
0000
1000
0000
,  // measure 45
0000
0001
0000
0000
,  // measure 46
0010
0000
0000
0001
,  // measure 47
0000
0000
0000
1000
,  // measure 48
0000
0000
0000
0010
,  // measure 49
0000
0010
0000
0010
,  // measure 50
0000
0010
0110
0000
,  // measure 51
0000
0000
0100
0000
,  // measure 52
0000
0001
0000
0000
,  // measure 53
0001
0000
0000
0001
,  // measure 54
0000
0000
1001
0000
,  // measure 55
0000
0000
1000
0000
,  // measure 56
0000
0100
0000
0000
,  // measure 57
0100
0000
0000
0100
,  // measure 58
0000
0000
0110
0000
,  // measure 59
0000
0000
0010
0000
,  // measure 60
0000
0100
0000
0000
,  // measure 61
0100
0000
0000
0100
,  // measure 62
0000
0000
1100
0000
,  // measure 63
0000
0000
1000
0000
,  // measure 64
0000
0000
1001
0000
,  // measure 65
0000
0010
0000
0010
,  // measure 66
0100
0010
1000
0100
,  // measure 67
1000
0001
0100
0001
,  // measure 68
0010
0001
0100
0010
,  // measure 69
0100
0001
1000
1001
,  // measure 70
1000
1000
1000
1000
,  // measure 71
1000
1000
1000
1000
,  // measure 72
0001
0001
0001
0001
,  // measure 73
0001
0001
0001
0001
,  // measure 74
0100
0100
0100
0100
,  // measure 75
0100
0100
0100
0100
,  // measure 76
0020
0000
0130
0001
,  // measure 77
0000
1000
0000
0100
,  // measure 78
0100
0000
1000
1000
,  // measure 79
0000
0010
0010
0000
,  // measure 80
0100
0100
0000
0001
,  // measure 81
0000
1000
0000
0100
,  // measure 82
0100
0000
1000
1000
,  // measure 83
0000
0010
0010
0000
,  // measure 84
0100
0100
0000
0010
,  // measure 85
0000
1000
0000
0001
,  // measure 86
0001
0000
0010
0010
,  // measure 87
0000
0001
0001
0000
,  // measure 88
0100
0100
0000
0001
,  // measure 89
0000
0010
0000
0100
,  // measure 90
0100
0000
0010
0010
,  // measure 91
0000
0100
0000
0010
,  // measure 92
0000
0100
0000
1001
,  // measure 93
0000
0000
0000
0001
,  // measure 94
0000
0010
0000
0001
,  // measure 95
0000
0100
0000
0001
,  // measure 96
0000
0010
0000
0100
,  // measure 97
0000
1000
0000
0010
,  // measure 98
0000
0100
0000
0010
,  // measure 99
0000
1000
0000
0001
,  // measure 100
0000
0010
0000
0001
,  // measure 101
0000
0000
0001
0000
,  // measure 102
0000
0001
0000
0000
,  // measure 103
0001
0000
0000
0001
,  // measure 104
0000
0100
0000
0010
,  // measure 105
0000
0000
0000
0100
,  // measure 106
0000
0000
0000
0010
,  // measure 107
0000
0010
0000
0010
,  // measure 108
0000
0110
0100
0000
,  // measure 109
0000
0000
0110
0000
,  // measure 110
0000
0000
0001
0000
,  // measure 111
0000
0000
1001
0000
,  // measure 112
0000
0000
1000
0000
,  // measure 113
0000
0000
1100
0000
,  // measure 114
0000
0000
0001
0000
,  // measure 115
0000
0000
0011
0000
,  // measure 116
0000
0000
0100
0000
,  // measure 117
0010
0000
0100
0000
,  // measure 118
0010
0000
1000
0000
,  // measure 119
0001
0000
1000
0000
,  // measure 120
0001
0000
0010
0000
,  // measure 121
0000
0000
0001
0000
,  // measure 122
0000
0000
1000
0000
,  // measure 123
0000
0000
0001
0000
,  // measure 124
0000
1001
0000
0000
;

//---------------dance-single - ----------------
#NOTES:
     dance-single:
     :
     Medium:
     9:
     0.638,0.947,0.273,0.119,0.124:
1000
0000
0000
0001
0001
0000
0000
0000
,
0100
0100
0000
0010
0010
0000
0100
0000
,
0001
0000
0000
1000
1000
0000
0000
0000
,
0100
0100
0000
0010
0010
0010
0010
0000
,
0100
0000
0000
1000
1000
0000
0000
0000
,
0100
0100
0000
1000
1000
0000
0010
0000
,
0100
0000
0000
0010
0010
0000
0000
0000
,
1000
1000
0000
0001
0001
0000
1001
0000
,
1000
0100
0010
0001
,
1000
0100
0010
0001
,
1000
0010
0100
0001
,
1000
0010
0100
0001
,
1000
1000
0100
0100
,
0010
0010
0100
0100
,
1000
0001
1000
0001
0100
0010
0100
0010
,
0200
0000
0301
1000
0001
1000
0001
0000
0000
0000
0000
0000
1000
0000
0100
0000
,
0010
0100
1000
0000
1001
0000
0001
0100
,
0010
0100
0001
0000
1001
0000
0010
0010
,
0010
0000
0100
0100
0100
0000
0010
0001
,
0100
0010
1000
0100
0010
0000
0100
0010
,
0100
0010
0100
0000
0110
0000
2000
0000
,
3001
0100
0001
0100
0001
0100
0020
0000
,
0130
0010
0100
0010
0100
0010
2000
0000
,
3100
0000
0000
0010
0000
0000
0100
0000
0000
1000
0000
0000
0010
0000
0000
0000
0000
0000
0100
0000
0000
0000
0100
0000
,
0001
0000
0001
0010
0000
0010
0100
0000
0100
0010
0000
0010
,
0001
0000
0001
0100
0000
0100
0010
0000
0000
0100
0000
0100
,
0001
0000
0001
1000
0000
1000
0100
0000
0100
0010
0000
0010
,
0100
0000
0000
0000
0100
0000
1000
0000
0000
0000
1000
0000
0010
0000
0000
0000
0000
0000
0100
0000
0000
0010
0000
0000
,
0100
0000
0001
0010
0001
0000
1000
1000
,
0100
0010
0001
0001
0100
0010
0100
0001
,
0100
0000
0000
0000
0000
0000
0010
0000
0000
1000
0000
0000
0010
0000
0000
0000
0000
0000
1000
0000
0000
0000
0100
0000
,
0000
0010
0000
0001
0000
0100
0000
0010
0000
0200
0000
0000
,
0000
0000
0000
0000
0000
0000
0300
0000
0000
0010
0000
1000
,
0000
0001
0000
0010
0000
0001
0000
1000
0000
0010
0000
0000
,
0000
0110
0000
0100
,
0001
0010
0200
0000
,
0000
0010
0000
0310
,
0000
0110
0000
0001
,
0000
0101
0000
0010
,
0100
0010
2000
0000
,
0000
0100
0000
3100
,
0000
1100
0000
0010
,
0100
0010
0000
1000
,
0001
0000
0001
0010
,
0000
0001
0100
0001
,
0000
0100
0000
0010
,
0100
0010
0000
1000
,
0001
1000
0001
0010
,
0000
0110
0000
0100
,
0000
1001
0012
0000
,
0103
0000
0010
0100
,
0001
0100
0000
0000
,
0010
0000
1000
0100
,
1000
0000
2010
0000
,
3001
0000
0010
0001
,
0100
0010
0000
0100
,
0001
0000
0010
0100
,
0010
0100
0001
0100
,
0001
0000
1000
0100
,
1000
0000
0010
0100
,
0010
1000
0001
0010
,
0100
0000
0011
0000
,
0100
0010
0100
0001
,
1000
0000
1001
0000
,
0000
0000
1001
0000
0000
0000
0220
0330
,
0100
0000
0001
0000
0010
0000
0100
0000
0010
0000
0000
0100
0000
0000
0010
0000
,
0001
0100
1000
0100
0010
1000
0100
0010
,
0100
0000
0000
0010
0000
0000
0010
0000
0001
0000
0000
0001
0000
0000
0001
0000
,
0100
0010
0100
0001
1000
0100
0010
0001
,
0020
0100
0001
0100
,
0001
0001
0100
0100
,
0032
0100
0010
1000
,
0100
0100
1000
1000
,
0203
1000
0010
0001
,
0010
0001
1000
0301
,
0010
1000
0100
0010
0100
0000
0010
0000
,
0000
0011
0000
0001
,
0100
0001
0000
0100
,
0010
0100
0001
0000
,
0001
0010
0100
0010
,
0000
0110
0000
0100
,
1000
0010
0100
0010
,
0000
0010
1000
0000
,
1000
0001
0010
0001
,
0000
0101
0000
0001
,
0100
0010
0100
0001
,
0000
0010
0001
0000
,
0100
0010
1000
0100
,
0010
0100
0000
1000
,
0100
1000
0000
1001
,
0000
0110
0000
1001
,
0000
0110
0000
1000
,
1000
0001
0010
0001
,
0100
0001
0000
1000
,
1000
0100
1000
0010
,
1000
0001
0000
0010
,
0001
0010
0001
0100
,
0001
0100
0001
0100
,
0010
0100
0010
1000
,
0010
1000
0000
0001
,
0010
0100
1000
0010
,
0100
0001
0010
0100
,
1000
0010
0100
0001
,
0010
0100
1000
1001
,
0000
0110
0000
0011
,
0000
1100
0000
1010
,
0000
0101
0000
1000
,
0001
1001
1000
1000
,
0100
0100
0010
0010
,
0100
0000
1000
0010
,
0100
0010
1000
0000
,
1001
0000
0010
0010
,
0001
0001
0100
0100
,
0001
0000
0010
0001
,
0100
0001
0010
0000
,
0011
0000
0100
0100
,
0000
0010
0000
0100
,
0001
0100
0000
0001
,
0010
0001
1000
0001
,
0100
0001
0010
0000
,
0100
0010
0000
0100
,
1000
0100
0000
0010
,
0000
0100
0000
0000
0000
0000
0010
0000
0000
0000
0001
0000
,
0000
0100
0000
0000
;

//---------------dance-single - ----------------
#NOTES:
     dance-single:
     :
     Hard:
     10:
     0.924,1.000,0.691,0.111,0.252:
1001
0000
0000
0000
0000
0000
0001
0000
0101
0000
0000
0000
0000
0000
0010
0100
,
0010
0010
0000
0010
0110
0000
1100
0000
,
1001
0000
0000
0000
0000
0000
0001
0000
1001
0000
0000
0000
0000
0000
0001
1000
,
0001
0001
0000
0001
1001
1001
1001
0000
,
1100
0000
0000
0000
0000
0000
1000
0000
1010
0000
0000
0000
0000
0000
0010
0100
,
0010
0010
0000
1000
1100
0000
0110
0000
,
0011
0000
0000
0000
0000
0000
0001
0000
0101
0000
0000
0000
0000
0000
0010
0100
,
0010
0010
0000
0010
0010
0000
2000
3000
,
1010
0010
0100
0000
1010
1000
0001
0000
,
0011
0001
0100
0000
0110
0100
0001
0010
,
0011
0001
0100
0000
0110
0100
0001
0000
,
1001
1000
0100
0000
0110
0100
1000
0010
,
0110
0000
0101
0000
0110
0000
0001
0100
,
1010
0000
1100
0000
1010
0000
1000
0100
,
0010
0010
0100
0100
1000
1000
0001
0001
,
0200
0000
1000
1000
1000
1000
0301
0000
0000
0000
0000
0000
0010
0000
0010
0000
,
0001
0001
0100
0100
1000
1000
0100
0001
,
0010
1000
0010
0001
1000
0100
0010
0010
,
0100
0100
1000
1000
0010
0010
0100
1000
,
0100
0001
0010
1000
0010
0001
0010
0010
,
0100
0100
0010
0010
0001
0100
0102
0000
,
1003
0100
0010
0100
1000
0010
0210
0000
,
1300
0100
0001
0010
0100
1000
1100
1100
,
1001
0000
0000
0000
0000
0000
1001
0000
0000
0000
0000
0000
0001
0000
0000
0100
0000
0000
0001
0000
0000
0100
0000
0000
0020
0000
0000
0000
0000
0000
0030
0000
0000
0000
0000
0000
0100
0000
0000
0000
0000
0000
0000
0000
0100
0000
0000
0000
,
0001
0000
0000
0010
0001
0010
0100
0000
0000
0010
0000
0010
,
0001
0000
0000
0100
0010
1000
0100
0000
0000
1000
0001
1000
,
0100
0000
0000
0010
0100
1000
0100
0000
0000
0010
1000
0100
,
0010
0000
0000
0000
0001
0000
0000
0000
0100
0000
0000
0000
0010
0000
0000
0000
0000
0000
0000
0000
0000
0000
0000
0000
1001
0000
0000
0000
0000
0000
0000
0000
0000
0000
0000
0000
1000
0000
0000
0100
0000
0000
1000
0000
0000
0000
0000
0000
,
0010
0000
0000
0000
0100
0001
0100
0000
0010
0000
0000
0000
1000
0000
0000
1000
,
0100
0001
0100
1000
0010
0100
0001
0010
,
0001
0000
0000
0000
0000
0000
0100
0000
0000
0000
0000
0000
0010
0000
0000
0000
0000
0000
1000
0000
0000
0001
0000
0000
0000
0000
0000
1000
0000
0000
0001
0000
0000
0000
0000
0000
1100
0000
0000
0000
0000
0000
0000
0000
0110
0000
0000
0000
,
0000
0011
0000
1001
0000
1010
0000
0010
0100
0020
0000
0000
,
0000
0000
0000
0000
0000
0000
0000
0000
0000
0100
0000
0100
,
0000
0100
0000
0100
0000
0100
0000
0100
0000
0130
0000
0000
,
0001
0000
0010
0000
0100
0000
0010
0001
,
0000
0010
0001
0000
0100
0000
0010
0000
,
0100
0000
1001
0000
0000
0000
1000
0100
,
1000
0100
1000
0000
0000
0000
1000
0000
,
0010
0100
0010
1000
,
0001
0000
0010
0000
0000
0000
0100
0010
,
0100
0010
0100
0000
0010
0000
0001
1000
,
0001
1000
0001
0000
1000
0000
1010
0000
,
0000
0100
0010
0000
,
0010
0000
1000
0000
0000
0000
1000
0100
,
0010
0100
1000
0000
0010
0100
0010
0100
,
0001
0010
0100
0000
0100
0000
0110
0000
,
0110
0001
0100
0010
,
0100
0001
1000
0100
,
1000
0100
1000
0000
0001
0100
0001
0000
,
0010
0100
0010
0000
0011
0000
0000
0001
,
1000
0000
0010
1000
0010
1000
0010
0000
,
1000
0000
0100
1000
0100
0010
0100
0000
,
0010
0000
0001
0010
0100
0000
0010
0000
,
0001
0001
1001
0000
,
0010
0000
1000
0010
1000
0000
0100
0000
,
0100
0000
0010
0001
0010
0001
0010
0000
,
0100
0000
0010
0000
0001
1000
0001
0000
,
1000
0000
0000
0000
1010
0000
1000
0010
,
1000
0000
0001
0010
0001
0000
1000
0100
,
1000
0000
0001
0100
0001
0000
0001
0000
,
1000
0000
0010
0100
0010
1000
0100
0000
,
0010
0000
0000
0000
0110
0000
0100
0001
,
0100
0000
0001
0010
0001
0000
0010
0000
,
0100
0010
0100
0010
0110
0000
0000
0000
,
0000
1001
0000
0102
,
1003
0000
0100
0001
0100
1000
0100
0010
0100
0000
0010
0001
0000
1000
0010
0000
,
0100
0000
0010
1000
0010
0001
0010
0100
0010
0000
1010
0000
0001
0000
0011
0000
,
0100
0000
0010
0100
0000
1000
0100
0000
0001
0100
0000
0010
0100
0001
0010
0100
,
0010
0000
0001
0010
0100
1000
0010
0100
0001
0010
0100
0000
0110
0000
1001
0000
,
0102
1000
0010
0100
,
0010
0100
1000
0100
,
2003
0100
0010
0001
,
0010
0100
0010
0001
,
3100
0010
0100
0010
0100
1000
0100
1000
,
0010
1000
0010
1000
0010
0100
0010
0100
,
0020
0000
1030
0100
0001
0100
1000
0010
0100
0000
0000
0000
0101
0000
0000
0000
,
0000
0000
1010
0000
0000
0000
1000
0100
,
1000
0000
0010
0000
1000
0100
1000
0000
,
0001
0000
1000
0100
1000
0000
0001
0010
,
0100
0010
0001
0000
0100
0000
0110
0000
,
0000
0000
1001
0000
0000
0000
0010
0001
,
0010
0000
0100
0000
0010
0001
0010
0000
,
0001
0000
0010
0001
0010
0000
0100
0000
,
0010
0001
0010
0000
0001
0000
0101
0000
,
0000
0000
1010
0000
0000
0000
1000
0001
,
1000
0000
0010
0000
1000
0001
1000
0000
,
0100
0000
1000
0001
1000
0000
0010
0000
,
1000
0001
1000
0000
0100
0000
0011
0000
,
0000
0000
1010
0000
0000
0000
0010
0100
,
0010
1000
0100
0110
,
0000
0011
0000
1100
,
0000
0000
1010
0000
0000
0000
0010
0100
,
0010
0100
0100
0001
,
0001
0010
0010
0100
,
0010
0001
0100
1000
,
0100
0001
0010
0100
,
0010
0001
0100
1000
,
0100
0010
1000
0010
,
0100
0010
1000
0100
,
0001
0000
0100
0010
0100
0000
0010
0000
,
0001
0100
0010
1000
,
0010
0100
0001
0010
,
1000
0010
0001
1000
,
0010
0001
0010
2000
,
0000
3010
0010
0100
,
0100
0001
0001
0010
,
0100
0010
0100
1000
,
0001
0000
1001
0000
0100
0001
0100
0000
,
0010
0000
0010
0000
1000
0100
1000
0000
,
0010
0010
0101
0101
,
0120
0130
1010
1010
,
1200
1300
0010
0010
,
0100
0001
0100
0001
0010
0000
0010
0000
,
0100
1000
0100
1000
0001
0000
0001
0000
,
0010
0100
0010
0100
1000
0000
1000
0000
,
0010
0100
0010
0100
0001
0000
0010
0000
,
0100
0010
0000
0010
,
0001
0100
0000
0001
,
1000
0100
0010
0010
,
0100
0000
0100
0000
1000
0001
1000
0001
,
1000
0001
1000
0001
0100
0010
0100
0010
,
0100
0010
0100
0000
0010
0000
1010
0000
,
0000
0101
0000
0000
0000
0000
0011
0000
0000
0000
1100
0000
,
0000
1001
0000
0000
;
