#TITLE:DIAMOND CROSSING;
#SUBTITLE:(tpz ANTI-Overcute Remix);
#ARTIST:S-C-U vs L.E.D.;
#TITLETRANSLIT:;
#SUBTITLETRANSLIT:;
#ARTISTTRANSLIT:;
#CREDIT:Grithokskulk;
#BANNER:DIAMOND CROSSING (tpz ANTI-Overcute Remix).png;
#BACKGROUND:DIAMOND CROSSING (tpz ANTI-Overcute Remix)-bg.png;
#LYRICSPATH:;
#CDTITLE:grithokskulk.png;
#MUSIC:DIAMOND CROSSING (tpz ANTI-Overcute Remix).mp3;
#OFFSET:-3.741;
#SAMPLESTART:56.695;
#SAMPLELENGTH:15.000;
#SELECTABLE:YES;
#BPMS:0.000=240.000,84.000=120.000,211.000=240.000,323.000=120.000;
#STOPS:146.000=0.520
;
#BGCHANGES:;

//---------------dance-single - ----------------
#NOTES:
     dance-single:
     :
     Easy:
     3:
     0.216,0.287,0.008,0.216,0.000: // measure 1
0000
0000
1000
0000
,  // measure 2
0200
0000
0000
0000
,  // measure 3
0000
0000
0000
0300
,  // measure 4
0020
0000
0000
0000
,  // measure 5
0000
0000
0030
0000
,  // measure 6
2000
0000
0000
0000
,  // measure 7
0000
0000
3000
0000
,  // measure 8
0002
0000
0000
0000
,  // measure 9
0000
0000
0003
0000
,  // measure 10
0010
0000
0010
0000
,  // measure 11
0100
0000
0100
0000
,  // measure 12
0010
0000
0001
0000
,  // measure 13
0100
0000
0010
0000
,  // measure 14
0100
0000
0001
0000
,  // measure 15
1000
0000
0100
0000
,  // measure 16
1000
0000
1000
0000
,  // measure 17
0001
0000
0001
0000
,  // measure 18
0100
0000
0020
0000
,  // measure 19
0000
0000
0030
0000
,  // measure 20
0200
0000
0000
0000
,  // measure 21
0300
0000
0000
0000
,  // measure 22
0010
0010
0100
0100
,  // measure 23
0001
0001
0020
0030
,  // measure 24
0100
0100
0010
0010
,  // measure 25
0100
0100
2000
3000
,  // measure 26
0001
0100
0001
0010
,  // measure 27
0001
0100
0002
0003
,  // measure 28
1000
0100
1000
0010
,  // measure 29
1000
0100
2000
3000
,  // measure 30
0001
0010
0100
0010
,  // measure 31
0001
0100
0020
0030
,  // measure 32
1000
0100
0010
0100
,  // measure 33
1000
0010
0200
0300
,  // measure 34
0001
0010
0100
1000
,  // measure 35
0100
0010
0002
0003
,  // measure 36
1000
0100
0010
0001
,  // measure 37
0010
0100
1000
0010
,  // measure 38
0010
0100
0100
0001
,  // measure 39
0010
0002
0003
0100
,  // measure 40
0010
0100
0001
1000
,  // measure 41
0100
0020
0030
0100
,  // measure 42
0010
0100
1000
0001
,  // measure 43
0100
0020
0030
0100
,  // measure 44
0001
0010
0001
0100
,  // measure 45
0010
2000
3000
0200
,  // measure 46
0000
0000
0000
0000
,  // measure 47
0000
0000
0300
0020
,  // measure 48
0000
0000
0000
0000
,  // measure 49
0000
0000
0030
0002
,  // measure 50
0000
0000
0000
0000
,  // measure 51
0000
0000
0003
2000
,  // measure 52
0000
0000
0000
0000
,  // measure 53
3000
0010
0010
0100
,  // measure 54
0000
0100
0000
0010
,  // measure 55
0000
0010
0000
0100
,  // measure 56
0000
0100
0000
0001
,  // measure 57
0000
0001
0000
1000
,  // measure 58
0000
0100
0000
0010
,  // measure 59
0000
0100
0000
1000
,  // measure 60
0000
0010
0000
0200
,  // measure 61
0000
0000
0300
0020
,  // measure 62
0000
0000
0000
0000
,  // measure 63
0000
0000
0030
0100
,  // measure 64
0000
0001
0000
0010
,  // measure 65
0000
0100
0000
0010
,  // measure 66
0000
0001
0000
0100
,  // measure 67
0000
0010
0000
1000
,  // measure 68
0000
0100
0000
1000
,  // measure 69
0000
0001
0000
0100
,  // measure 70
0000
0010
0000
0100
,  // measure 71
0000
0001
0000
1000
,  // measure 72
0000
0100
0000
0010
,  // measure 73
0000
0100
0000
1000
,  // measure 74
0000
0010
0000
0100
,  // measure 75
0000
0001
0000
0010
,  // measure 76
0000
0100
0000
0010
,  // measure 77
0000
0100
0000
2000
,  // measure 78
0000
0000
3000
0002
,  // measure 79
0000
0000
0003
2002
,  // measure 80
0000
0000
0000
3003
;

//---------------dance-single - ----------------
#NOTES:
     dance-single:
     :
     Medium:
     6:
     0.376,0.452,0.016,0.256,0.000:
0000
0000
0000
0000
,
0200
0000
0000
0000
,
0320
0000
0000
0000
,
2030
0000
0000
0000
,
3200
0000
0000
0000
,
0320
0000
0000
0000
,
0230
0000
0000
0000
,
0320
0000
0000
0000
,
0032
0000
0000
0000
,
0103
0010
0100
0010
,
0100
0001
0100
0001
,
1000
0001
1000
0001
,
1000
0100
1000
0100
,
0010
0100
0010
0100
,
1000
0001
1000
0001
,
0100
0001
0010
0100
,
1000
0010
0100
0001
,
2000
0000
0000
0001
0002
0000
3000
0000
,
0010
0100
0010
0100
,
0023
0000
0000
0000
,
0230
0000
0010
0310
,
0100
0000
1000
0010
0100
0000
0010
1000
,
0001
0000
0010
0001
0100
0010
1000
0100
,
0001
0000
0001
0100
1000
0000
1000
0010
,
0100
0000
0100
0010
1000
0001
0010
0001
,
0100
0000
0010
0100
0001
0000
1000
0100
,
0010
0000
0100
1000
0010
1000
0001
0010
,
0001
0000
0001
0100
0010
0000
0010
0100
,
0001
0000
0010
0100
0020
0000
0100
0000
,
0130
0000
0010
0001
0100
0000
0010
0100
,
0001
0000
1000
0100
0001
0100
1000
0010
,
0100
0000
0010
1000
0100
0000
1000
0001
,
0010
0000
0001
0100
0010
0100
0001
1000
,
0100
0000
0010
0100
1000
0000
0010
1000
,
0001
0000
0100
0010
0100
0001
0010
0100
,
0010
0000
0001
0010
0001
0000
0100
0010
,
0100
0000
0001
1000
0200
0000
0010
0000
,
1000
0001
0010
0001
,
0001
1000
1300
0020
,
1000
0001
0100
0001
,
0031
0010
0000
0100
1000
0100
2000
0000
,
0010
0100
0001
0010
,
0010
0100
3100
0002
,
0100
0010
1000
0100
,
0013
0001
0000
0010
0100
1000
0020
0000
,
0000
0000
0000
0230
,
0000
0000
0000
0302
,
0000
0000
0000
0023
,
0000
0100
0000
0100
0130
0000
0200
0000
,
0000
0000
0000
0320
,
0000
0000
0000
0032
,
0000
0000
0000
2003
,
3000
0000
1000
0100
0010
0001
0100
0000
,
0010
0100
1000
0100
,
0001
0100
0000
0010
,
1000
0010
0001
0010
,
0100
0010
0000
1000
,
0100
0010
0100
1000
,
0010
0001
0010
0100
,
0001
0010
1000
0020
,
0100
0100
0130
0020
,
0000
0000
0000
0032
,
0000
0000
0000
0103
,
0001
0010
0100
0010
,
0001
0100
0100
0010
,
1000
0100
0010
0100
,
1000
0010
0100
0010
,
0010
1000
1000
0200
,
0000
0010
0310
0100
,
1000
0010
0001
0010
,
0100
0001
0010
0001
,
0001
1000
1000
0010
,
1000
0100
1000
0010
,
0010
1000
1000
0001
,
0010
0001
0100
0010
,
0000
0110
0000
0000
0100
0000
0000
0101
,
0000
0001
0010
0200
,
0000
0010
0320
0000
0000
0000
0001
0000
,
1000
0001
0100
0032
,
0000
0000
0000
0003
,
0000
0000
0000
1000
;

//---------------dance-single - ----------------
#NOTES:
     dance-single:
     :
     Hard:
     8:
     0.580,0.743,0.152,0.496,0.192:
0000
0110
0210
0301
,
0012
0000
0000
0000
,
2003
0000
0000
0000
,
3200
0000
0000
0000
,
0320
0000
0000
0000
0000
0000
0000
0000
0100
0000
0000
0100
0000
0000
0130
0000
,
2000
0000
0001
0000
,
3020
0000
0100
0000
,
2030
0000
0100
0000
,
3002
0000
0023
0000
,
0230
0001
0010
1000
,
0320
1000
0001
0100
,
0032
0100
0010
1000
,
0203
1000
0010
0001
,
0320
1000
0001
0100
,
0032
0100
0010
1003
,
0101
0000
0000
1010
0000
0000
1100
0000
,
0000
0011
0000
0000
0001
0100
0010
0100
,
0002
0000
0000
0010
0023
0000
0000
0000
,
0230
0320
0032
0203
,
0320
0000
0000
0030
,
0220
0000
0330
0000
0001
1000
0001
0000
,
0100
0000
0000
0100
0010
0000
0100
0000
0001
0000
0010
0100
0010
0000
0001
0000
,
0100
0000
0000
0100
1000
0000
0100
0000
0010
0000
1000
0100
0001
0100
0010
0100
,
1000
0000
0000
1000
0001
0000
0010
0000
0001
0000
0100
0010
0001
0000
0010
0000
,
0100
0000
0000
0100
0001
0000
0010
0000
0110
0000
0110
0000
1000
0010
0100
0010
,
1000
0000
0000
1000
0001
0000
0100
0000
1000
0000
0100
0010
1000
0000
0100
0001
,
0100
0000
0000
0100
0010
0000
0001
0000
0010
0000
0100
0010
0001
0100
1000
0100
,
0010
0000
0000
0010
1000
0000
0100
0000
0010
0000
0100
1000
0010
0000
0100
0001
,
0010
0000
0000
0010
1000
0000
0010
0000
0200
0000
0010
0010
0320
0000
0032
0000
,
1003
0000
0000
1000
0010
0000
0100
0000
0010
0000
1000
0001
0010
0000
0001
0100
,
0010
0000
0000
0010
0100
0000
0001
0000
0010
0000
1000
0010
0001
0100
0010
1000
,
0100
0000
0000
0100
0001
0000
0100
0000
1000
0000
0010
0100
0010
0000
1000
0000
,
0100
0000
0000
0100
0010
0000
0100
0000
1000
0010
1000
0000
0001
0010
1000
0010
,
0001
0000
0000
0001
0100
0000
0010
0000
0100
0000
0001
0010
1000
0000
0010
0001
,
0100
0000
0000
0100
0001
0000
0010
0000
1000
0000
0010
0100
1000
0010
0100
1000
,
0100
0000
0000
0100
0010
0000
1000
0000
0100
0000
0001
0100
0010
0000
0001
0100
,
1000
0000
0000
1000
0100
0000
0010
0000
1000
0000
0000
0000
0200
0000
0000
0000
,
0001
0010
1000
0010
,
0010
0001
0301
0020
,
1000
0001
0100
1000
,
1000
0130
0000
0010
0001
0100
0020
0000
,
0001
1000
0100
0001
,
0001
1000
1030
0200
,
0001
0010
1000
0010
,
0010
1300
0000
0010
0100
0001
0020
0000
,
0000
0000
0000
0230
,
0000
0000
0000
0320
,
0000
0000
0000
0032
,
0000
0103
0000
0001
0010
0100
2000
0000
,
0000
3020
0000
0230
,
0000
0320
2030
3200
,
0000
0320
0000
0032
,
0000
0000
2003
3200
0320
0032
0103
0000
,
0010
0100
0010
0000
1000
0001
1000
0000
,
0001
0010
0001
0000
0110
0000
1000
0000
,
0001
0100
0001
0000
1000
0100
1000
0000
,
0010
0100
0010
0000
1001
0000
0010
0100
,
0010
0001
0010
0100
0010
0000
0001
0100
,
0001
1000
0001
0100
0001
0000
1000
0100
,
1000
0100
0010
0100
0010
0100
2000
0000
,
0010
0010
3010
0102
,
0000
0023
0000
0230
,
0000
0000
0320
0000
0030
0000
0001
0100
,
0001
0010
0001
0100
0010
0001
0010
1000
,
0100
0000
0010
0100
0010
0000
0001
0010
,
1000
0010
0100
0010
0001
0100
0010
1000
,
0100
0010
0100
1000
0010
0000
0110
0000
,
0001
0010
0001
0000
1000
0010
1000
1000
,
2000
0000
0001
0001
3001
0000
0101
0000
,
0100
0000
0010
1000
0100
0001
0100
0010
,
0001
0010
0100
0010
0001
0100
1000
0000
,
0100
0010
1000
0000
0100
0001
0100
0000
,
0010
0001
0100
0010
1000
0100
0010
0100
,
0010
0100
0010
0100
0010
0100
1000
0001
,
1000
0001
1000
0001
1000
0000
0101
0000
,
0000
1010
0000
0000
1100
0000
0000
0011
,
0000
0000
1000
0010
0001
0010
2000
0000
,
0000
0001
0002
0000
3003
0000
0020
0000
,
0230
0320
0032
2003
,
0000
0000
0000
0002
,
0000
0000
0000
3003
;
