#TITLE:Cross Galaxy;
#SUBTITLE:;
#ARTIST:kanone;
#TITLETRANSLIT:;
#SUBTITLETRANSLIT:;
#ARTISTTRANSLIT:;
#CREDIT:Grithokskulk;
#BANNER:Cross Galaxy.png;
#BACKGROUND:Cross Galaxy-bg.png;
#LYRICSPATH:;
#CDTITLE:grithokskulk.png;
#MUSIC:Cross Galaxy.mp3;
#OFFSET:-1.755;
#SAMPLESTART:3.335;
#SAMPLELENGTH:15.000;
#SELECTABLE:YES;
#BPMS:0.000=150.000;
#STOPS:;
#BGCHANGES:;

//---------------dance-single - ----------------
#NOTES:
     dance-single:
     :
     Easy:
     4:
     0.307,0.282,0.115,0.122,0.000: // measure 1
2002
0000
0000
3003
,  // measure 2
1000
0001
0010
0100
,  // measure 3
0010
0001
1000
0010
,  // measure 4
0100
0010
1000
0100
,  // measure 5
0010
0100
0010
0010
,  // measure 6
0001
0100
0010
0100
,  // measure 7
0001
1000
0100
0010
,  // measure 8
0100
1000
0010
0100
,  // measure 9
0001
0010
0100
0100
,  // measure 10
0010
0001
0100
0010
,  // measure 11
1000
0100
0010
0100
,  // measure 12
1000
0010
0100
0010
,  // measure 13
1000
0100
1000
1000
,  // measure 14
1001
0000
0110
0000
,  // measure 15
1001
0000
0110
0000
,  // measure 16
0001
0001
1000
1000
,  // measure 17
0200
0000
0300
0010
,  // measure 18
0010
0100
0010
0001
,  // measure 19
0010
1000
0010
0001
,  // measure 20
0100
1000
0100
0010
,  // measure 21
0100
0001
0100
0010
,  // measure 22
1000
0100
1000
0001
,  // measure 23
1000
0010
1000
0100
,  // measure 24
0010
0001
0010
0100
,  // measure 25
0010
1000
0010
0100
,  // measure 26
1000
0010
1000
0001
,  // measure 27
1000
0100
1000
0010
,  // measure 28
0100
0001
0100
1000
,  // measure 29
0100
0010
0100
0001
,  // measure 30
0010
0100
1000
0010
,  // measure 31
0100
0001
0010
0001
,  // measure 32
0100
0100
0010
0010
,  // measure 33
2002
0000
0000
3003
,  // measure 34
2000
0000
0000
3000
,  // measure 35
0002
0000
0000
0003
,  // measure 36
0200
0000
0000
0300
,  // measure 37
0020
0000
0000
0030
,  // measure 38
0200
0000
0000
0300
,  // measure 39
0002
0000
0000
0003
,  // measure 40
0020
0000
0000
0030
,  // measure 41
0200
0000
0000
0300
,  // measure 42
0010
0001
0010
0000
,  // measure 43
0001
0100
0001
0000
,  // measure 44
1000
0100
1000
0000
,  // measure 45
0010
0100
0010
0000
,  // measure 46
1000
1000
0001
0000
,  // measure 47
0010
0010
0100
0000
,  // measure 48
0010
0001
0010
0000
,  // measure 49
0100
1000
0100
0000
,  // measure 50
2002
0000
0000
3003
,  // measure 51
0110
0000
0001
0001
,  // measure 52
1000
0100
0010
0100
,  // measure 53
1000
0010
0100
0010
,  // measure 54
0100
0001
0010
0100
,  // measure 55
0010
0001
0100
0010
,  // measure 56
0100
0001
1000
0100
,  // measure 57
1000
0001
0100
0001
,  // measure 58
0010
0001
1000
0010
,  // measure 59
1000
0001
0010
0010
,  // measure 60
0001
0100
0010
0100
,  // measure 61
0001
0010
0100
0010
,  // measure 62
0100
1000
0010
0100
,  // measure 63
0010
1000
0100
0010
,  // measure 64
0100
1000
0001
0100
,  // measure 65
0001
1000
0001
1000
,  // measure 66
0010
1000
0001
0010
,  // measure 67
0002
0003
2000
3000
,  // measure 68
0001
1001
1000
0010
,  // measure 69
0100
0001
0010
0100
,  // measure 70
0010
0110
0100
1000
,  // measure 71
0010
0100
0001
0010
,  // measure 72
0001
1001
1000
0010
,  // measure 73
0100
0001
1000
0100
,  // measure 74
0010
0110
0100
1000
,  // measure 75
0010
0010
0100
0100
,  // measure 76
0001
1001
1000
0100
,  // measure 77
0010
0100
1000
0001
,  // measure 78
0100
0110
0010
1000
,  // measure 79
0001
0010
0100
0010
,  // measure 80
0001
1001
1000
0010
,  // measure 81
0100
0001
0010
0100
,  // measure 82
0110
0010
0100
1000
,  // measure 83
0002
0003
1000
1000
,  // measure 84
1001
0000
0000
0000
;

//---------------dance-single - ----------------
#NOTES:
     dance-single:
     :
     Medium:
     6:
     0.416,0.422,0.231,0.217,0.000:
2002
0000
0000
3003
,
0100
0000
0000
0100
0010
0000
1000
0000
,
0100
0000
0000
0100
0001
0000
0100
0000
,
0010
0000
0000
0010
0001
0000
0100
0000
,
0010
0000
0100
0000
0001
1000
0001
0000
,
0010
0000
0000
0010
0100
0000
0010
0000
,
0001
0000
0000
0001
1000
0000
0010
0000
,
0100
0000
0000
0100
0010
0000
1000
0000
,
0100
0000
0000
0100
1000
0000
0100
0000
,
0010
0000
0100
0000
1000
0010
1000
0000
,
0001
0000
0010
0000
0100
0010
0100
0000
,
0010
0000
0001
0000
0100
0010
0100
0000
,
0001
0000
0010
0000
0001
1000
0001
0000
,
1001
0000
0000
0000
0100
0100
0100
0000
,
0110
0000
0000
0000
0010
0010
0010
0000
,
0011
1100
1010
0101
,
2000
3000
0002
0003
,
0100
0000
0110
0000
0010
1000
0100
0000
,
0010
0000
0110
0000
0100
0010
0001
0100
,
0010
0000
0101
0000
0001
1000
0100
0000
,
0010
0000
0110
0000
0100
1000
0001
0010
,
0001
0000
0101
0000
0001
0100
0010
0000
,
0100
0000
0110
0000
0010
1000
0100
0000
,
0010
0000
0110
0000
0100
1000
0001
0000
,
0100
0000
0110
0000
0100
0100
0001
0000
,
0010
0001
0010
0000
0100
0010
0100
0000
,
0010
0001
0010
0000
0001
0100
0001
0000
,
1000
0100
1000
0000
0010
1000
0010
0000
,
1000
0100
1000
0000
0010
1000
0100
0010
,
0100
0010
0001
0010
0100
0010
0001
0000
,
0001
0100
0010
0100
0001
0100
0010
0000
,
1000
0100
0010
0000
0010
0100
1000
0000
,
2002
3003
0220
0330
,
2000
0000
0000
0000
,
3200
0000
0000
0000
,
2300
0000
0000
0000
,
3020
0000
0000
0000
,
0230
0000
0000
0000
,
0320
0000
0000
0000
,
2030
0000
0000
0000
,
3002
0000
0000
0000
,
0023
0000
0100
0000
,
0032
0000
0100
0000
,
0023
0000
1000
0000
,
0230
0000
0001
0000
,
0320
0000
0001
0000
,
0230
0000
0010
0000
,
2300
0000
0010
0000
,
3002
0000
0100
0100
,
0203
0000
0000
0000
,
0320
0000
0100
0130
,
0001
0100
0001
0000
1000
0000
1100
0000
,
0010
0100
1000
0000
0010
0100
1000
0000
,
0010
0100
0010
0000
1000
0000
1001
0000
,
0010
0001
0100
0000
0010
0001
0100
0000
,
0010
0100
0010
0000
1000
0000
1001
0000
,
0100
0001
0010
0000
0100
0001
0010
0000
,
0100
1000
0100
0000
1000
0000
1001
0000
,
0010
0100
0001
0010
0100
0000
0110
0000
,
0001
0010
0001
0000
1000
0000
1010
0000
,
0010
0100
0001
0000
0010
0100
0001
0000
,
1000
0100
1000
0000
0010
0000
1001
0000
,
0010
0100
0010
0000
0001
1000
0001
0000
,
0100
0010
0100
0010
0100
0010
0100
0000
,
0001
1000
0001
1000
0001
1000
0001
0000
,
1000
0100
1000
0000
0001
0100
0001
0000
,
2002
3003
0220
0330
,
1000
0000
1010
0000
0010
0100
0010
0000
,
1000
0000
1001
0000
0001
0010
0001
0000
,
0010
0000
0110
0000
0010
0001
0010
0000
,
0100
0000
1100
0000
1000
0010
0100
0010
,
1000
0000
1001
0000
0001
0010
0100
0000
,
0010
0000
0110
0000
0100
0010
0001
0000
,
0100
0000
0110
0000
0010
1000
0100
0000
,
0010
0010
0010
0000
0100
0100
0100
0000
,
1000
0010
0100
0000
0010
1000
0001
0000
,
0010
0001
1000
0000
0100
0010
0100
0000
,
1000
0010
0100
0000
0001
1000
0100
0000
,
0001
0100
1000
0000
0010
0100
0001
0000
,
1000
0100
1000
0100
1000
0100
1000
0000
,
0001
0100
0001
0100
0001
0100
0001
0000
,
1000
0010
1000
0000
0001
0010
0001
0000
,
0200
0300
0020
0030
,
0110
0000
0000
0000
;

//---------------dance-single - ----------------
#NOTES:
     dance-single:
     :
     Hard:
     9:
     0.669,0.648,0.217,0.095,0.560:
2002
0000
0000
0000
3003
0000
0000
0000
1010
0000
0000
0101
0000
0000
0010
0000
,
0100
0000
0000
0100
0010
0000
0001
0000
0010
0000
0001
0000
0100
0000
0010
0000
,
0100
0000
0000
0100
0001
0000
1000
0000
0100
0000
0001
0000
0100
0000
0010
0000
,
0001
0000
0000
0001
0100
0000
0010
0000
0100
0000
0001
0000
1000
0000
0100
0000
,
0001
0000
0000
0001
0100
0000
1000
0000
0010
0000
0100
0010
1000
0000
0100
0000
,
0010
0000
0000
0010
0100
0000
1000
0000
0010
0000
0001
0000
0010
0000
0100
0000
,
0001
0000
0000
0001
0010
0000
1000
0000
0010
0000
0001
0000
0010
0000
0100
0000
,
0010
0000
0000
0010
0001
0000
0100
0000
0010
0000
1000
0000
0100
0000
0010
0000
,
0100
0000
0000
0100
1000
0000
0010
0000
0110
0000
0000
0101
0000
0000
1010
0000
,
0100
0000
0000
0100
1000
0000
0010
0000
0100
0000
0010
0000
1000
0000
0100
0000
,
0001
0000
0000
0001
0100
0000
0010
0000
0001
0000
0010
0000
1000
0000
0010
0000
,
0001
0000
0000
0001
0100
0000
1000
0000
0100
0000
0010
0000
1000
0000
0010
0000
,
0001
0000
0000
0001
0010
0000
0100
0000
0001
0000
0010
0001
1000
0000
0100
0000
,
0110
0000
0000
0000
0000
0000
0000
0000
0001
0000
0001
0000
1000
0100
0010
0100
,
1001
0000
0000
0000
0000
0000
0000
0000
0010
0100
0010
0100
0001
1000
0001
1000
,
0001
0000
0001
0000
0001
0000
0100
0010
1000
0000
1000
0000
1000
0000
0100
0010
,
0001
0010
0001
0010
0001
0000
0001
0000
0100
0000
0100
0000
0010
0000
1000
0000
,
0100
0000
1000
0000
0010
0000
0100
0001
0000
0001
0100
0000
0001
0000
0010
0000
,
0100
0000
0010
0000
0001
0000
0100
0010
0000
0010
0100
0000
0001
0000
1000
0000
,
0100
0000
0001
0000
0100
0000
0010
0001
0000
0001
0100
0000
0010
0000
0100
0000
,
0001
0000
1000
0000
0100
0000
0010
0100
0000
0100
1000
0000
0010
0100
0010
0000
,
1000
0000
0010
0000
0100
0000
0010
1000
0000
1000
0001
0000
0010
0000
1000
0000
,
0010
0000
0001
0000
0100
0000
0001
0010
0000
0010
0100
0000
0010
0000
0001
0000
,
0100
0000
1000
0000
0100
0000
0001
1000
0000
1000
0100
0000
0010
0000
0100
0000
,
1000
0000
0010
0000
0100
0000
0010
0000
0001
0010
1000
0000
0100
0010
0100
0010
,
0100
0000
0010
0000
0001
0000
0100
0010
0000
0100
0010
0000
0100
0000
0001
0000
,
0010
0000
1000
0000
0010
0000
0001
0010
0000
0001
0010
0000
0100
0000
0010
0000
,
0001
0000
0100
0000
0010
0000
0100
0001
0000
0100
0001
0000
1000
0000
0100
0000
,
0010
0000
0100
0000
1000
0000
0010
0100
0000
0010
0100
0000
0010
0000
1000
0000
,
0100
1000
0100
1000
0100
1000
0100
1000
,
0001
0010
0001
0010
0001
0010
0001
0010
,
0001
0100
0001
0000
1000
0010
1000
0000
0010
0100
0010
0000
1000
0001
1000
0000
,
0001
0010
0001
0010
0002
0000
0000
0000
1000
0000
1000
0000
1003
0000
0000
0000
,
2001
0000
0000
0000
,
3020
0000
0000
0000
,
0230
0000
0000
0000
,
0320
0000
0000
0000
,
2030
0000
0000
0000
,
3200
0000
0000
0000
,
0320
0000
0000
0000
,
0230
0000
0000
0000
,
1300
0010
1010
0000
0000
0010
0110
0000
,
0100
0001
0101
0000
0000
0010
0110
0000
,
0010
0001
0011
0000
0000
0001
1001
0000
,
1000
0010
0110
0000
0000
0010
1010
0000
,
1000
0100
0110
0000
0000
0100
1100
0000
,
1000
0001
0101
0000
0000
0001
0011
0000
,
0010
0100
0110
0000
0000
0010
0011
0000
,
0001
0100
0010
0000
0010
0100
0001
1000
,
0200
0000
0000
0000
0010
0010
0310
0000
,
0002
0000
0000
0000
0003
0000
0000
0000
1001
0000
0000
0110
0000
0000
1001
0000
,
1000
0000
0100
0000
0010
0100
0000
0010
0000
0100
0000
1000
0010
0000
0100
0000
,
0010
0100
0000
0001
0010
0000
0001
0100
0000
0010
0100
0000
0001
0000
0010
0000
,
0100
0000
0010
0000
0100
0000
1000
0000
0010
0100
0000
0001
0000
0010
0001
0000
,
0010
0000
0100
0000
0010
0001
0000
0010
0100
0000
0010
0000
0100
0000
1000
0000
,
0010
0000
0100
0000
0010
1000
0000
0001
0000
0010
0000
0100
0010
0000
0001
0000
,
0100
0010
0000
0100
1000
0000
0100
0001
0000
0000
0010
0000
0100
0000
0010
0000
,
0001
0000
0010
0000
0100
0000
0010
0000
0001
1000
0000
0010
0000
0100
0010
0000
,
1000
0000
0100
0000
0010
0100
0000
0000
1100
0000
0000
0011
0000
0000
0101
0000
,
0010
0000
0100
0000
0001
0010
0000
0100
0000
0010
0000
0001
1000
0000
0010
0000
,
0100
0010
0000
0100
1000
0000
0100
0001
0000
0100
0010
0000
1000
0000
0100
0000
,
0010
0000
0001
0000
0010
0000
0100
0000
0010
0001
0000
0100
0000
0010
0100
0000
,
0001
0000
1000
0000
0100
0010
0000
0100
0000
1000
0010
0000
0100
0000
0001
0000
,
0010
0000
0010
0000
0010
0000
0010
0000
0010
0000
0010
0000
0010
0100
0010
0100
,
1000
0000
1000
0000
1000
0000
1000
0000
1000
0000
1000
0000
1000
0001
1000
0001
,
0100
0010
0100
0000
0010
0000
0010
0000
1000
0001
1000
0000
0001
0000
0001
0000
,
0010
0100
0010
0100
0010
0000
0010
0000
0100
1000
0100
1000
0200
0000
0000
0000
,
0310
0000
0001
0000
0100
0010
0000
0100
0000
0001
0010
0000
0100
0000
0010
0000
,
0001
0000
1000
0000
0010
0100
0000
0010
0000
1000
0100
0000
0010
0000
0100
0000
,
1000
0000
0010
0000
0100
0010
0000
1000
0000
0001
0000
0010
0100
0000
0001
0000
,
0100
0000
1000
0000
0010
0100
0000
0010
0000
1000
0001
0000
0010
0000
0100
0000
,
0010
0000
0001
0000
0100
0010
0100
0001
0000
0010
0000
0100
0000
0010
0001
0010
,
0100
0000
1000
0000
0010
0000
0100
0010
0000
1000
0000
0100
0000
0001
0100
1000
,
0010
0000
0100
0000
0000
0001
0000
1000
0000
0100
0000
0010
0100
0000
0010
0000
,
0001
0000
0100
0000
0000
0010
0000
0000
0101
0000
0000
1010
0000
0000
1100
0000
,
0001
0000
0010
0000
0100
0010
0000
0001
0000
0100
1000
0000
0100
0000
0010
0000
,
1000
0000
0100
0000
0001
0100
0000
0010
0000
1000
0010
0000
0001
0000
0100
0000
,
0010
0000
0100
0000
1000
0100
0000
0010
0000
1000
0000
0010
0001
0000
0010
0000
,
0100
0000
0001
0000
0010
0100
0000
0001
0000
0100
1000
0000
0010
0000
0100
0000
,
0010
0000
0010
0000
0010
0000
0010
0000
0010
0000
0010
0000
0010
0100
0010
0100
,
0001
0000
0001
0000
0001
0000
0001
0000
0001
0000
0001
0000
0001
1000
0001
1000
,
0100
1000
0100
0000
0010
0001
0010
0000
0001
0100
0001
0000
0010
1000
0010
0000
,
1000
0100
1000
0100
1000
0000
0000
0000
0001
0100
0010
0100
0001
0010
0100
1000
,
0010
0000
0000
0000
;
