#TITLE:Cool Patrol;
#SUBTITLE:;
#ARTIST:Ninja Sex Party;
#TITLETRANSLIT:;
#SUBTITLETRANSLIT:;
#ARTISTTRANSLIT:;
#CREDIT:Grithokskulk;
#BANNER:Cool Patrol.png;
#BACKGROUND:Cool Patrol-bg.png;
#LYRICSPATH:;
#CDTITLE:grithokskulk.png;
#MUSIC:Cool Patrol.mp3;
#OFFSET:-2.068;
#SAMPLESTART:38.215;
#SAMPLELENGTH:15.000;
#SELECTABLE:YES;
#BPMS:0.000=130.000;
#STOPS:;
#BGCHANGES:;

//---------------dance-single - ----------------
#NOTES:
     dance-single:
     :
     Easy:
     3:
     0.260,0.285,0.125,0.044,0.000: // measure 1
1000
0000
0010
0100
,  // measure 2
0010
1000
0100
0010
,  // measure 3
0100
0000
0010
0001
,  // measure 4
0100
0000
0010
0100
,  // measure 5
0001
1001
0000
1000
,  // measure 6
0100
0010
0100
1000
,  // measure 7
0010
0110
0000
1000
,  // measure 8
0001
0001
1000
1000
,  // measure 9
1001
0110
0000
0001
,  // measure 10
0010
0100
0010
0001
,  // measure 11
1000
0000
0001
0000
,  // measure 12
0100
0100
0010
0010
,  // measure 13
1000
0001
1001
0000
,  // measure 14
0010
0001
0100
0001
,  // measure 15
0010
0100
0110
0100
,  // measure 16
1000
1000
0001
0001
,  // measure 17
0100
0110
0110
1000
,  // measure 18
0001
0010
0001
1000
,  // measure 19
0020
0030
0200
0300
,  // measure 20
0001
1000
0001
1000
,  // measure 21
0010
0010
0100
0100
,  // measure 22
0001
1000
0001
0000
,  // measure 23
0010
0010
0001
0001
,  // measure 24
1000
0100
0001
0100
,  // measure 25
1000
1000
0001
0001
,  // measure 26
1000
0001
1000
0001
,  // measure 27
1000
0010
0100
0001
,  // measure 28
0020
0000
0000
0030
,  // measure 29
0100
0010
0100
0000
,  // measure 30
1000
1000
0001
0000
,  // measure 31
0100
0001
0010
1000
,  // measure 32
0100
0001
1000
0000
,  // measure 33
0001
0010
0100
0010
,  // measure 34
0001
1000
0010
0100
,  // measure 35
0010
0010
1000
0001
,  // measure 36
1001
0000
0000
0000
,  // measure 37
0001
0000
1000
0000
,  // measure 38
0200
0000
0000
0300
,  // measure 39
0010
0000
0100
0100
,  // measure 40
0010
0001
0100
0000
,  // measure 41
0001
0000
1000
1000
,  // measure 42
0100
1000
0010
0000
,  // measure 43
0100
0100
0010
0010
,  // measure 44
1000
0001
0010
0000
,  // measure 45
0001
0001
1000
1000
,  // measure 46
0010
0100
0001
0000
,  // measure 47
1000
1000
0100
0100
,  // measure 48
0010
0100
1000
0000
,  // measure 49
1001
0000
0010
0000
,  // measure 50
0110
0100
0100
0000
,  // measure 51
0001
0010
0100
0010
,  // measure 52
0001
1000
0010
0000
,  // measure 53
1000
0100
0001
0100
,  // measure 54
1000
0100
0001
0100
,  // measure 55
0010
1000
0001
0010
,  // measure 56
0100
0010
0001
0000
,  // measure 57
1000
0000
1001
0000
,  // measure 58
0001
0000
1001
0000
,  // measure 59
1000
0100
1000
0100
,  // measure 60
0010
0001
0100
0000
,  // measure 61
0001
0001
1000
1000
,  // measure 62
0001
0010
1000
0010
,  // measure 63
0001
0001
1000
0010
,  // measure 64
0100
0010
1000
0100
,  // measure 65
0010
0010
0100
1000
,  // measure 66
2002
0000
0000
3003
,  // measure 67
0001
0000
1001
0000
,  // measure 68
0110
0000
0001
1000
,  // measure 69
1001
0000
0000
0000
,  // measure 70
0000
0000
0000
0000
,  // measure 71
0000
0000
0100
0000
;

//---------------dance-single - ----------------
#NOTES:
     dance-single:
     :
     Medium:
     6:
     0.404,0.425,0.162,0.096,0.000:
1000
0000
0000
0000
0100
1000
0100
0000
,
0010
0000
0100
0000
1000
0000
0001
0100
,
0001
0000
0000
0000
0010
0100
0010
0000
,
0001
0100
0010
1000
,
0001
1001
0010
0100
,
0010
0001
0010
0000
0001
0100
0001
0000
,
1000
0000
1100
0000
0010
0100
1000
0000
,
0010
0100
0010
0000
1000
0001
1000
0000
,
0001
0010
0110
0010
,
0001
0100
0010
0000
1000
0100
0010
0000
,
0100
1000
0100
1000
0100
1000
0100
0000
,
0010
0001
0010
0001
0010
0001
0010
0000
,
0001
0000
0100
0000
0110
0000
0010
1000
,
0100
0000
0010
0100
0010
0000
0100
1000
,
0100
0000
1000
0000
1001
0000
0001
0100
,
0010
0000
0100
0000
0001
1000
0001
0000
,
1000
0110
0110
0001
,
1000
0010
1000
0000
0001
0010
0001
0000
,
0100
0010
0100
0010
0100
0010
0100
0000
,
0001
1000
0001
1000
0001
1000
0001
0000
,
1000
0010
1000
0000
0001
0010
0001
0000
,
1000
1001
0001
1001
,
1000
0100
1000
0000
0001
0100
0001
0000
,
1000
0100
0001
0100
,
1000
0001
1000
0001
,
1000
0001
1000
0000
0001
1000
0001
0000
,
1000
0010
0100
0000
0002
0000
0010
0000
,
0100
1000
0013
0110
,
0001
0010
0001
0000
1000
0010
1000
0000
,
0001
0100
0001
0000
1000
0100
1000
0000
,
0001
0010
1000
0100
,
0001
0010
0001
0000
1000
0100
0000
0000
,
0010
0100
0010
0000
0100
1000
0100
0000
,
0010
0001
0010
0000
0001
0100
0001
0000
,
1000
0010
0100
0000
0020
0000
1000
0000
,
0001
0100
1000
0130
,
0102
0000
0000
2003
0000
0000
0000
0000
,
3200
0000
0000
0300
,
0010
0000
0000
0100
0010
0001
0100
0000
,
0010
0100
0010
0000
1000
0001
1000
0000
,
0110
0000
0000
0001
0010
0100
1000
0000
,
0001
0100
0001
0000
1000
0100
1000
0000
,
0010
0000
0100
0000
0001
0010
0001
0000
,
1000
0010
0100
0000
0010
1000
0100
0000
,
0010
0001
0010
0000
0001
0100
0001
0000
,
1000
0100
0010
0100
1000
0000
0010
0000
,
0100
0001
0100
0000
0001
0010
0001
0000
,
1000
0100
0010
0100
0000
1000
0010
0000
,
1001
0000
0000
0000
0001
0010
0001
0000
,
1001
0000
0010
0100
0010
0000
1000
0100
,
0010
0000
0010
0000
0100
1000
0001
0000
,
1001
0001
1001
1000
,
0100
1000
0100
0000
0001
0100
0001
0000
,
1000
0100
1000
0000
0001
0100
0001
0000
,
1000
0010
0100
0001
,
0010
0001
0010
0000
0100
1000
0100
0000
,
0010
1000
0020
1000
,
0001
0100
1030
1001
,
0001
0010
0001
0000
1000
0100
1000
0000
,
0010
1000
0010
0000
0100
0001
0100
0000
,
0001
0010
0100
0000
1000
0010
0100
0000
,
0001
0100
0010
0000
1000
0100
0010
0000
,
0001
0010
0001
0000
1000
0010
1000
0000
,
0001
0100
0010
0100
0001
0000
1001
0000
,
1000
0100
0010
0100
2000
0000
0010
0000
,
0001
0100
0010
3001
,
2002
0000
3003
0220
0000
0000
0330
2002
,
0000
0000
3003
0000
1000
0100
0010
0000
,
1001
0000
0000
0000
;

//---------------dance-single - ----------------
#NOTES:
     dance-single:
     :
     Hard:
     7:
     0.516,0.500,0.294,0.096,0.004:
1001
0000
0001
0000
0001
0010
0100
0010
,
0000
0001
0100
1000
0100
0010
1000
0100
,
0010
0000
1100
0000
1000
0010
0100
0010
,
0000
1000
0001
0010
0001
0100
0010
0000
,
0100
0000
1001
0000
1000
0100
0001
0000
,
0100
0010
0001
0100
0010
0010
0100
0001
,
1000
0000
1100
0000
1000
0010
0001
0000
,
0010
0100
0001
0010
1000
0010
0001
0000
,
0011
0000
1100
0000
1001
0000
0001
0100
,
1000
0100
0010
0010
0000
1000
0100
0010
,
1000
0010
0001
1000
0100
0001
0100
0010
,
0001
0100
1000
0100
0010
1000
0100
0010
,
0002
0000
0013
0000
0110
0000
1000
0010
,
0100
0100
0010
1000
0100
0001
0100
0010
,
0001
0100
0101
0000
0110
0000
1000
0010
,
0001
0001
0010
0100
0001
0010
1000
1000
,
0010
0001
1001
0000
1100
0000
0010
0001
,
0100
0100
0010
1000
0100
0000
1000
0010
,
0001
0010
0100
0010
1000
0010
0001
0010
,
0100
0001
1000
0100
0001
0100
1000
0010
,
1010
0000
0011
0000
1010
0000
0001
0010
,
0110
0000
1001
0000
0101
0000
1000
0100
,
0001
0001
0100
1000
0010
0010
0001
0010
,
1000
0100
0010
0100
1000
0010
0100
1000
,
0100
0001
0010
0000
0010
0001
1000
0000
,
0001
1000
0001
1000
0001
1000
0001
0000
,
1000
0100
0001
0100
1000
0000
0010
0000
,
0100
0001
0011
0001
,
0010
1000
0010
0000
0001
0100
1000
0000
,
0100
0010
1000
0100
0010
0000
0100
0000
,
1000
0010
0001
0100
1000
0000
0010
0000
,
1000
0100
0001
0010
1000
0000
1001
0000
,
0001
0010
0100
0000
0100
0010
0001
0000
,
0100
1000
0100
0001
0010
0100
0010
0000
,
0001
0010
0010
0100
0020
0000
1000
0000
,
0001
0000
0130
0000
0001
0100
0101
0000
,
2000
0000
0000
3200
0000
0000
0000
0302
,
0000
0000
0000
0000
0103
1000
0010
0100
,
0101
0000
0000
0001
0001
0010
0100
1000
,
0010
1000
0100
1000
0001
1000
0100
0010
,
0110
0000
0000
0001
0100
1000
0100
0010
,
1000
0010
0001
0010
0100
0010
1000
0100
,
1100
0000
0011
0000
0101
0000
0001
0010
,
0100
0100
0001
0100
1000
0010
0100
0001
,
0010
0100
0110
0000
1000
0001
1001
0000
,
0001
0100
1000
0100
0010
1000
0010
0001
,
0010
0100
0001
0000
0010
0001
0100
0000
,
0010
1000
0100
0001
0100
1000
0010
0100
,
0210
0000
1000
0000
0301
0010
0100
1000
,
2100
0000
0001
3001
0100
0010
0100
1000
,
0100
0010
1000
0100
0001
0100
0010
0000
,
0001
0010
0100
1000
0010
0000
0110
0000
,
1000
1000
0010
0100
0001
0001
0010
1000
,
0010
0001
0100
0010
1000
0000
1100
0000
,
0001
0100
1000
0100
0010
1000
0100
0010
,
1000
0010
0001
1000
0010
0100
0110
0000
,
0001
0010
0100
0000
0010
0100
0010
0000
,
0001
1000
0010
0100
0001
0000
0101
0000
,
1000
1000
0100
0001
0100
0100
0010
0001
,
0100
0100
0010
0010
1000
0001
1001
0000
,
1000
0100
0010
0100
1000
0010
0001
0010
,
1000
0100
0001
0100
0010
0001
0100
0000
,
0010
0100
0001
0000
1000
0100
0010
0000
,
0100
1000
0010
0100
0100
0010
1000
0000
,
0001
0010
0100
1000
1002
0000
0100
0000
,
0010
0000
0100
0000
1000
1000
1003
0000
,
2200
0000
3300
0022
0000
0033
0000
2001
,
0000
0000
0001
0000
3001
0000
0000
0000
0100
0010
0100
0000
0001
0000
0010
0000
,
0110
0000
0000
0000
;
