#TITLE:Colorful minutes;
#SUBTITLE:;
#ARTIST:Qrispy Joybox feat. mao;
#TITLETRANSLIT:;
#SUBTITLETRANSLIT:;
#ARTISTTRANSLIT:;
#CREDIT:Grithokskulk;
#BANNER:Colorful minutes.png;
#BACKGROUND:Colorful minutes-bg.png;
#LYRICSPATH:;
#CDTITLE:REFLEC BEAT.png;
#MUSIC:Colorful minutes.mp3;
#OFFSET:-6.349;
#SAMPLESTART:53.635;
#SAMPLELENGTH:15.000;
#SELECTABLE:YES;
#BPMS:0.000=152.000;
#STOPS:;
#BGCHANGES:;

//---------------dance-single - ----------------
#NOTES:
     dance-single:
     :
     Easy:
     3:
     0.225,0.252,0.063,0.200,0.000: // measure 1
1000
0000
0100
0000
,  // measure 2
0010
0000
0100
0000
,  // measure 3
1000
0000
0010
0000
,  // measure 4
0200
0000
0000
0300
,  // measure 5
0010
0010
0010
0000
,  // measure 6
0100
0100
0100
0000
,  // measure 7
0001
1000
0001
1000
,  // measure 8
0100
0100
0010
0000
,  // measure 9
0001
0000
0100
0000
,  // measure 10
0010
0010
0100
0000
,  // measure 11
0002
0000
0000
0003
,  // measure 12
2000
0000
0000
3000
,  // measure 13
0001
0000
1000
0000
,  // measure 14
1001
0000
0000
0000
,  // measure 15
0010
0100
0010
0000
,  // measure 16
0001
0010
0001
0000
,  // measure 17
1000
0000
0010
0000
,  // measure 18
0200
0000
0000
0300
,  // measure 19
0000
0010
0010
0000
,  // measure 20
0100
0100
0000
0001
,  // measure 21
0001
0000
0010
0000
,  // measure 22
0100
0010
0100
0000
,  // measure 23
1000
0000
0010
0000
,  // measure 24
0100
0000
0010
0000
,  // measure 25
1000
0000
0001
0000
,  // measure 26
2002
0000
3003
0000
,  // measure 27
0001
0000
0010
0000
,  // measure 28
0100
0000
0010
0000
,  // measure 29
0001
0000
0100
0000
,  // measure 30
0220
0000
0330
0000
,  // measure 31
1000
0100
1000
0100
,  // measure 32
0010
0010
0100
0000
,  // measure 33
0010
0010
0001
0100
,  // measure 34
0001
1000
0020
0030
,  // measure 35
1000
0100
0010
0001
,  // measure 36
0010
0010
0100
0000
,  // measure 37
2000
3000
0002
0003
,  // measure 38
2002
0000
0000
3003
,  // measure 39
1000
0100
0010
0100
,  // measure 40
1000
1000
0010
0010
,  // measure 41
0100
0001
0010
0000
,  // measure 42
0100
0100
0100
0000
,  // measure 43
0020
0030
0002
0003
,  // measure 44
0200
0300
0020
0030
,  // measure 45
1000
0000
1001
0000
,  // measure 46
0001
0001
0010
0000
,  // measure 47
0100
0000
0010
0000
,  // measure 48
0002
0000
0000
0003
,  // measure 49
1000
0000
0010
0000
,  // measure 50
0200
0000
0000
0300
,  // measure 51
0010
0000
0100
0000
,  // measure 52
0001
0000
0010
0010
,  // measure 53
0000
0100
0100
0000
,  // measure 54
1001
0000
0000
0000
;

//---------------dance-single - ----------------
#NOTES:
     dance-single:
     :
     Medium:
     5:
     0.354,0.390,0.074,0.306,0.000:
1000
0100
0010
0000
,
0100
0010
0100
0000
,
1000
0000
0010
0000
0100
0000
0010
0020
,
0000
0000
0100
0130
,
0001
0000
0010
0000
0100
0010
0100
0010
,
0000
0010
0001
0010
0000
0001
0000
0000
,
0100
0000
0100
0000
0010
0010
0000
0100
,
0000
0001
0000
2000
0000
0000
3001
0000
,
1000
0000
0100
0000
0010
0100
0010
0100
,
0000
1000
0100
1000
0000
0100
0000
0000
,
0020
0000
0000
0230
0000
0000
0000
0302
,
0000
0000
0010
0013
,
0100
0100
0000
0010
0010
0000
0001
0002
,
0000
0000
0000
0003
,
0000
0100
0100
0010
,
1000
0100
1000
0000
0001
0100
0001
0000
,
0010
0000
0100
0000
1000
0001
1000
0002
,
0000
0000
0000
1003
,
0000
0100
1000
0000
,
0010
0000
0100
0000
0000
0001
0010
0001
,
0000
0000
1000
0000
0010
0000
0100
0100
,
0000
0010
0010
0020
0000
0000
0030
0000
,
2000
0000
3200
0000
,
0320
0000
0130
1000
,
0020
0000
0230
0000
,
0302
0000
0013
0001
,
2000
0000
3020
0000
,
2030
0000
3100
0010
,
0200
0000
0000
0300
0020
0000
0030
0000
,
0220
0000
0330
0000
,
1001
0000
0110
0000
0001
0100
0001
0100
,
0000
0001
1000
0001
0000
1000
0000
0000
,
1100
0000
1100
0000
0100
0010
0100
0000
,
1000
0010
0200
0300
,
0101
0000
0101
0000
1000
0001
1000
0000
,
0100
0010
0100
0000
1000
0000
0100
0000
,
0020
0000
0000
0230
0000
0000
0000
2300
,
0000
0001
3001
0000
,
0100
0001
0100
0000
0001
0000
0000
0010
,
0000
0010
0000
0100
0000
0100
0000
1000
,
0000
0000
0010
0000
0100
0010
0000
0100
,
0000
0100
0000
0020
0000
0000
0030
0000
,
1000
0001
1000
0001
0000
0010
0100
0010
,
0000
0001
0010
0001
0000
1000
0000
0000
,
0001
0000
0000
0100
0000
0000
0010
0000
,
0100
0001
0010
0100
,
0010
0010
0000
0100
0100
0000
1000
2000
,
0000
0001
0001
3001
,
0100
0100
0000
0010
0010
0000
1000
2000
,
0000
0001
0001
3001
,
0010
0010
0000
0001
0001
0000
0100
0200
,
0000
0010
0010
0310
,
0000
0100
0100
0000
0001
0010
0100
1000
;

//---------------dance-single - ----------------
#NOTES:
     dance-single:
     :
     Hard:
     7:
     0.541,0.474,0.327,0.422,0.000:
1000
0100
0010
0000
0100
0010
0001
0200
,
0000
0010
0310
0000
0100
0001
1000
0000
,
0100
0010
0001
0000
0001
0100
0010
0200
,
0000
0010
0310
0110
,
1100
0000
0011
0000
1000
0010
0100
0010
,
0000
1000
0100
0001
0000
0001
0100
0000
,
1100
0000
0011
0000
0001
0100
0010
0200
,
0000
0001
0000
0310
0000
0100
0001
1000
,
1100
0000
0011
0000
1000
0010
0001
0010
,
0000
0010
0100
0001
0000
0001
0010
1000
,
0020
0000
0000
0032
0000
0000
0100
0203
,
0000
0000
0310
0010
0100
0001
0000
0000
,
0011
0011
0000
1100
1100
0000
1001
2002
,
0000
0000
0000
3003
,
0001
0100
0001
0000
1000
0100
0010
0100
,
0000
1000
0000
0010
0000
0100
0010
0100
,
0001
0010
0001
0000
1000
0010
1000
0200
,
0000
0000
0000
0000
0000
0010
0010
0310
,
0000
0001
0010
0001
1000
0010
0000
1000
,
0010
1000
0001
0010
0000
0100
0010
0001
,
0000
0100
0100
0010
1000
1000
0100
0010
,
0000
0100
1000
0001
0100
0000
0110
0000
,
0102
0000
0013
0000
0100
0010
0001
0100
,
0020
0000
0001
0000
1030
0100
0010
0100
,
2000
0000
0001
3002
0000
0100
0203
0000
,
0010
0000
1000
0000
0301
0010
0100
0010
,
0002
0000
1000
2003
0000
3010
0100
0010
,
2000
0000
0100
3200
0000
0010
0310
0100
,
2000
0000
0010
3020
0000
0000
0100
0230
,
0000
0010
0010
0010
0310
0000
0110
0000
,
1001
0000
1100
0000
0010
0100
1000
0010
,
0000
0100
0001
0010
0000
0010
0001
0100
,
0101
0000
1001
0000
1000
0100
0001
0100
,
0000
0010
0000
0001
0000
1000
0010
0100
,
0110
0000
1001
0000
1000
0100
0010
0100
,
0000
1000
0100
1000
0000
0001
0100
0001
,
0020
0000
0000
0230
0000
0000
0010
0320
,
0000
0030
0001
0001
0010
0100
0000
0000
,
0100
1000
0010
0100
0001
0010
0000
0010
,
0000
0110
0000
0011
0000
1100
0000
1001
,
0000
1000
0010
0001
0010
0100
0000
0101
,
0000
1001
0000
1100
0000
0010
0100
0010
,
0001
0100
0010
1000
0000
1000
0100
0001
,
0000
0001
0100
1000
0000
1000
0010
0100
,
0020
0000
1000
2030
0000
3001
0010
0200
,
0000
0000
0001
0000
1000
0000
0010
0310
,
0001
0002
0000
0103
0200
0000
0310
0020
,
0000
0130
0200
0000
0302
0000
1003
0100
,
0001
0002
0000
0103
0200
0000
1300
2000
,
0000
0010
3100
1100
,
1000
2000
0000
3001
0002
0000
0103
0200
,
0000
0310
0020
0000
0230
0000
0301
0010
,
0100
0010
0001
0000
1000
0010
0100
0101
;
