#TITLE:Chrono Diver -PENDULUMs-;
#SUBTITLE:(USAO remix);
#ARTIST:Nekomata L.E.D.Master+;
#TITLETRANSLIT:;
#SUBTITLETRANSLIT:;
#ARTISTTRANSLIT:;
#CREDIT:Grithokskulk;
#BANNER:Chrono Diver -PENDULUMs- (USAO remix)-bn.png;
#BACKGROUND:Chrono Diver -PENDULUMs- (USAO remix)-bg.png;
#LYRICSPATH:;
#CDTITLE:grithokskulk.png;
#MUSIC:Chrono Diver -PENDULUMs- (USAO remix).mp3;
#OFFSET:-2.237;
#SAMPLESTART:53.695;
#SAMPLELENGTH:15.000;
#SELECTABLE:YES;
#BPMS:0.000=92.000,48.000=184.000,170.000=92.000,171.000=184.000,231.000=92.000,233.000=184.000,297.000=92.000;
#STOPS:110.000=0.326
,141.000=0.326
,171.000=0.326
,202.000=0.326
;
#BGCHANGES:;

//---------------dance-single - ----------------
#NOTES:
     dance-single:
     :
     Easy:
     4:
     0.338,0.359,0.145,0.186,0.000: // measure 1
1000
0000
1000
0000
,  // measure 2
0100
1000
0010
0100
,  // measure 3
0001
0000
0001
0000
,  // measure 4
0001
0010
0100
1000
,  // measure 5
0010
0000
0100
0000
,  // measure 6
0001
1000
0200
0300
,  // measure 7
0020
0030
0100
1000
,  // measure 8
0002
0003
1000
0010
,  // measure 9
0100
0010
0100
0001
,  // measure 10
2000
3000
0002
0003
,  // measure 11
0020
0030
0100
0100
,  // measure 12
2000
3000
0002
0003
,  // measure 13
0100
0100
0010
0010
,  // measure 14
1000
1000
0100
0100
,  // measure 15
1000
0100
0010
0001
,  // measure 16
0200
0300
0020
0030
,  // measure 17
0100
0001
0100
0001
,  // measure 18
1000
0100
0010
0001
,  // measure 19
0100
0100
0010
0010
,  // measure 20
2000
3000
0002
0003
,  // measure 21
1001
0000
1001
0000
,  // measure 22
0110
0000
0110
0000
,  // measure 23
1010
0000
1010
0000
,  // measure 24
0101
0000
0101
0000
,  // measure 25
1000
0100
1000
0100
,  // measure 26
0010
0001
0010
0001
,  // measure 27
0100
0010
1000
0001
,  // measure 28
1000
0100
0110
0100
,  // measure 29
0000
1000
1000
0010
,  // measure 30
0100
0100
0010
1000
,  // measure 31
0000
0001
0001
0010
,  // measure 32
0001
0100
0010
0100
,  // measure 33
0000
0001
0001
0010
,  // measure 34
0100
1000
0001
0100
,  // measure 35
0000
0010
0010
0100
,  // measure 36
0001
1001
1000
0000
,  // measure 37
0100
0100
1000
0010
,  // measure 38
0100
0001
0010
0000
,  // measure 39
0100
0100
0010
0001
,  // measure 40
1000
0010
0100
0000
,  // measure 41
0010
0010
0100
0000
,  // measure 42
0010
0010
0100
0001
,  // measure 43
1000
0100
0020
0130
,  // measure 44
1000
0000
0001
0001
,  // measure 45
0100
0001
0010
0100
,  // measure 46
0010
0000
0001
0001
,  // measure 47
0100
0010
0100
0001
,  // measure 48
1000
0000
0100
0100
,  // measure 49
1000
0000
0010
0010
,  // measure 50
1000
0001
1000
0100
,  // measure 51
0010
0001
1001
1000
,  // measure 52
0010
0100
0010
1000
,  // measure 53
0100
0010
0100
1000
,  // measure 54
0001
0100
0010
0200
,  // measure 55
0300
0020
0030
1000
,  // measure 56
0001
0010
0100
0010
,  // measure 57
0001
0100
0010
1000
,  // measure 58
0100
0010
0001
2000
,  // measure 59
3002
1003
0100
0010
,  // measure 60
0110
0010
0100
1000
,  // measure 61
1001
1000
0001
0100
,  // measure 62
0010
0200
0300
0002
,  // measure 63
0003
0010
0001
1000
,  // measure 64
1001
1000
0010
0100
,  // measure 65
0110
0010
1000
0100
,  // measure 66
0010
0002
0003
2000
,  // measure 67
3000
0010
0100
0001
,  // measure 68
1001
1000
0100
0010
,  // measure 69
0110
0100
1000
0010
,  // measure 70
0100
0002
0003
2000
,  // measure 71
3000
0001
0010
0100
,  // measure 72
1000
0001
0010
0100
,  // measure 73
1000
1000
0100
0010
,  // measure 74
0001
0100
0010
1000
,  // measure 75
0001
1001
0000
0000
;

//---------------dance-single - ----------------
#NOTES:
     dance-single:
     :
     Medium:
     7:
     0.453,0.509,0.097,0.186,0.040:
1000
0000
0000
1000
0000
0000
1000
0000
0100
0000
0000
0100
0000
0000
0100
0000
,
0010
0000
0000
0010
0000
0000
0010
0000
0002
0000
0000
0000
0203
0000
0000
0000
,
0310
0000
0000
0010
0000
0000
0010
0000
0200
0000
0000
0000
0300
0000
0000
0000
,
0001
0000
0000
0001
0000
0000
0001
0000
2000
0000
0000
0000
3200
0000
0000
0000
,
0310
0000
0000
0010
0000
0000
0010
0000
0001
0000
0000
0001
0000
0000
0001
0000
,
0100
0001
1000
0100
0020
0000
0030
0000
,
0200
0000
0000
1300
0000
0000
1000
0000
0020
0000
0000
0130
0000
0000
0100
0000
,
0002
0000
0000
1003
0000
0000
0100
0000
0010
0000
0001
0000
0010
0000
0100
0000
,
1000
1000
0001
0001
0100
0100
0010
0010
,
0100
0001
0010
0100
2000
0000
3001
0000
,
0020
0000
0130
0000
1000
0010
0100
0000
,
0020
2030
3002
0003
,
1000
0100
1000
0100
,
0010
0001
0010
0001
,
0100
0001
0100
0001
0000
0000
0001
0000
,
1000
0001
1000
0001
1000
0000
1001
0000
,
0010
0100
0010
0100
,
0010
0001
0010
0001
,
1000
0001
1000
0001
1000
0000
0010
0000
,
0100
0010
0100
0010
0100
0000
0010
0000
,
1000
0000
0000
1000
0000
0000
1000
0000
,
0100
0000
0000
0100
0000
0000
0100
0000
,
0010
0000
0000
0010
0000
0000
0010
0000
,
0001
0000
0000
0001
0000
0000
0001
0000
,
0100
0000
0010
0100
0010
0000
1000
0100
,
1000
0000
0001
0100
0001
0000
1000
0100
,
1000
0000
0001
0010
0001
0000
0100
0010
,
0100
0001
1000
0100
,
0000
0000
1000
0100
1000
0100
1000
0000
,
0010
0100
0001
0010
,
0000
0000
0100
0010
0100
0010
0100
0000
,
0010
0001
0100
0010
,
0000
0000
0100
0001
0100
0001
0100
0000
,
0010
1000
0001
0010
,
0000
0000
0100
1000
0100
1000
0100
0000
,
1000
0010
0100
0000
,
0001
0100
0001
0100
0001
0000
1000
0000
,
0100
1000
0100
0000
0010
0000
0000
0000
,
0100
1000
0100
1000
0100
0000
1000
0000
,
0010
0100
0010
0000
0100
0000
0000
0000
,
0001
0010
0001
0010
0001
0000
0000
0000
,
1000
0010
1000
0010
1000
0000
0001
0000
,
0010
0100
0010
0000
0002
0000
1003
0000
,
1000
0000
0000
0000
0100
1000
0100
1000
,
0100
0000
1000
0000
0010
0100
0010
0000
,
0200
0000
0301
0000
0001
0010
0001
0010
,
0001
0000
1000
0000
0010
0100
0010
0000
,
2000
0000
3100
0000
0010
0001
0010
0000
,
0002
0000
0103
0000
0010
0100
0010
0000
,
1000
0100
0001
0100
,
1000
0010
0100
0010
,
1000
0100
0000
0100
1000
0000
0001
0000
,
0100
0010
0000
0010
0100
0000
0001
0000
,
1000
0100
0000
0100
1000
0000
0002
0000
,
0000
1000
1003
1000
,
0100
0000
0010
0100
0010
0000
0100
0000
,
1000
0020
0000
0000
0030
0000
0100
0001
,
0100
0000
0001
1000
0001
0000
2000
0000
,
0002
3003
1000
0000
0001
0000
0010
0001
,
0010
0000
0001
0000
0100
0000
0010
0100
,
0010
0000
1000
0100
0010
0001
0000
0000
,
0001
1000
0001
0000
1000
0000
0100
0000
,
1100
0000
1000
0010
1000
0000
0001
0000
,
0101
0000
0001
0100
0001
0000
0100
0000
,
0110
0000
0010
0100
0010
0000
1000
0001
,
1000
0001
0010
0100
,
1000
0001
0100
0010
,
0110
0001
0100
0010
,
0110
0000
0010
1000
0010
1000
0000
0000
,
0100
1000
0200
0000
1000
0000
1300
0000
,
1001
0000
1010
0000
0000
0101
0000
0000
,
0011
0000
0000
0110
0000
0000
0100
1000
,
0100
0000
1000
0000
0010
0000
0100
0010
,
0100
0000
0001
0000
0010
0000
0100
1000
,
0100
1001
0000
0000
;

//---------------dance-single - ----------------
#NOTES:
     dance-single:
     :
     Hard:
     9:
     0.707,0.689,0.629,0.226,0.141:
1000
0100
1000
0100
1000
0100
1000
0010
,
1000
0000
0100
0000
1000
0000
0010
0000
0001
0000
0010
0000
0100
0001
0100
0000
,
0001
0100
0001
0100
0001
0100
0001
0010
,
0001
0000
0100
0000
0001
0000
0010
0000
1000
0000
0010
0000
0001
0100
0001
0000
,
1000
0000
0100
1000
0000
0000
0100
0000
1000
0000
0010
0100
0000
0000
0010
0000
,
1000
0100
0010
0001
0000
0001
0010
0100
2000
0000
0000
0000
0010
0000
0001
0000
,
3010
0000
0100
0010
0000
0000
0100
0001
2000
0000
0100
0000
0010
0000
0100
0000
,
3010
0000
0000
0010
0100
0000
0010
0000
0100
0000
0000
0100
0001
0000
1000
0000
,
0100
0000
0000
0100
1000
0100
0010
0000
0100
0000
0000
0100
0010
0100
0001
0000
,
1000
0010
0100
0001
0000
0001
0100
0010
2000
0000
0100
0000
0001
0000
3100
0000
,
0010
0000
0000
0001
0000
0001
0100
0010
0100
0000
0001
0000
0010
0000
0100
0000
,
1000
0000
0000
1000
0100
0000
1000
0010
0100
0000
0001
0010
0001
0000
1000
0010
,
1010
0101
1010
0101
,
0011
1100
0011
1100
,
0001
0010
0100
1000
0000
1000
0100
0010
,
0002
0100
0100
0103
0010
0100
0001
1000
,
1010
0101
1010
0101
,
1010
0101
1010
0101
,
0001
0010
0100
1000
0000
1000
0100
0010
,
0002
0000
0103
0020
0000
1030
0100
0010
,
1100
1000
0001
0101
0100
0001
1001
0000
,
1100
0100
0010
0011
0001
0100
0110
0000
,
1010
1000
0001
0011
0010
0100
1100
0000
,
1001
0001
1000
1010
0010
0100
0101
0000
,
1000
0100
1000
0010
1000
0100
0001
0100
,
1000
0010
0001
0010
1000
0010
0100
0010
,
1000
0100
0010
0001
1000
0010
0100
0001
,
0010
0100
0010
0000
0001
1000
0001
0000
0100
0000
0000
0000
0010
0000
0000
0000
,
1010
0000
1000
1000
0100
0010
0001
0000
,
0011
0001
0100
0010
0110
0000
1000
0000
,
1010
0000
1000
1000
0100
0010
0001
0000
,
1001
1000
0010
0100
0010
0000
0110
0000
,
0010
0000
1000
1000
0100
0010
0100
0000
,
1100
1000
0010
0100
0110
0000
1010
0000
,
1000
0001
0010
0100
0010
0000
0001
0100
,
0100
0010
1000
0000
2100
0000
0001
0000
,
3100
0100
0010
0100
0001
0010
0011
0000
,
0001
1000
1001
0000
1020
0000
0001
0000
,
0130
0010
0010
1000
0100
0010
0110
0000
,
0100
1000
1100
0000
1020
0000
0130
0010
,
0100
0100
0101
0000
0021
0000
0130
0010
,
0001
0001
1001
0000
1000
0010
0100
0000
,
0100
0000
0000
0000
0000
0000
0000
0000
0001
0000
0000
0000
0000
0000
0000
0000
0010
0000
0000
0000
0000
0000
0000
0000
0001
0000
0000
0000
0000
0000
0000
0000
0200
0000
0000
0000
0000
0000
0000
0000
0020
0000
0000
0000
0000
0000
0000
0000
0000
0330
0000
0000
0000
0000
0000
0000
0000
0000
0000
0000
0000
0000
0000
0000
,
1000
0000
1100
0000
1000
1000
0010
0100
,
0001
0000
0010
0000
0100
0000
0000
0000
0100
0000
0010
0001
0100
0000
0010
0000
,
1000
0000
1100
0000
1000
1000
0100
0001
,
0100
0000
1000
0000
0010
0000
0000
0000
0010
0000
0100
0001
0010
0000
0001
0000
,
0100
0000
0010
0000
0010
0000
0000
0000
1000
0000
0100
0010
0100
0000
1000
0000
,
0010
0000
0100
0000
0010
0000
0000
0000
1000
0000
0001
0010
0001
0000
0100
0000
,
0010
1000
0100
0000
0010
0001
0100
0010
,
1000
0000
0000
0000
0000
0000
0000
0000
0000
0000
0000
0000
0000
0000
0000
0000
2010
0000
0000
0000
0000
0000
0000
0000
0000
0000
0000
0000
0000
0000
0000
0000
0001
3000
0000
0000
0000
0000
0000
0000
0000
0000
0000
0000
0000
0000
0000
0000
1000
0000
0000
0000
0000
0000
0000
0000
0000
0000
0000
0000
0000
0000
0000
0000
,
1100
0100
0000
0010
0110
0000
0001
0000
,
0101
0100
0000
0010
0110
0000
0001
0000
,
0011
0010
0000
0100
0110
0010
0001
1000
,
0010
0100
0010
0010
0110
0000
1010
0000
,
0100
1100
0000
1000
0010
0100
0110
0000
,
0100
0101
0000
0001
0010
1000
0010
0001
,
0100
0000
0001
0000
1000
0000
0010
0000
0100
0000
0001
0000
2000
0000
3100
0020
,
0000
0030
1100
0000
1001
0000
0000
0000
0001
0000
0101
0000
0000
0000
0100
0000
,
0010
0100
0101
0000
0001
1001
0000
1000
,
0100
0001
0100
1000
0010
0100
0000
0100
,
0010
1000
0002
0010
0013
0001
0000
0001
,
0100
0010
0120
0000
1030
2010
0000
3001
,
0010
0100
0012
0000
1003
2001
0000
3100
,
0010
0001
0100
0010
0100
0001
0000
0001
,
0010
0100
0010
0000
0001
0100
0000
0100
,
0010
1000
0010
0000
1000
0000
0000
0000
1200
0000
0010
0000
0300
0000
0010
0000
,
0012
0000
1003
0000
1020
0100
0030
0100
,
2001
0000
3100
0010
0001
0200
0000
0010
,
0310
1000
0100
0001
0100
2000
0000
0010
,
3010
0000
0101
0100
0010
1010
1000
0100
,
0110
0000
0000
0011
0000
1000
0010
0001
,
0010
0100
0002
0000
0010
0013
0000
0100
,
0001
0010
0200
0000
0001
0000
1300
0010
,
0001
0010
1000
0000
0000
0000
0000
0000
;
