#TITLE:Castle on the Moon;
#SUBTITLE:;
#ARTIST:Seiryu;
#TITLETRANSLIT:;
#SUBTITLETRANSLIT:;
#ARTISTTRANSLIT:;
#CREDIT:Grithokskulk;
#BANNER:Castle on the Moon.png;
#BACKGROUND:Castle on the Moon-bg.png;
#LYRICSPATH:;
#CDTITLE:REFLEC BEAT.png;
#MUSIC:Castle on the Moon.mp3;
#OFFSET:-1.716;
#SAMPLESTART:16.755;
#SAMPLELENGTH:15.000;
#SELECTABLE:YES;
#BPMS:0.000=95.500,16.000=191.000;
#STOPS:;
#BGCHANGES:;

//---------------dance-single - ----------------
#NOTES:
     dance-single:
     :
     Easy:
     5:
     0.435,0.619,0.425,0.233,0.000: // measure 1
1000
0010
1000
0100
,  // measure 2
0010
0100
1000
1001
,  // measure 3
0001
0100
0010
0100
,  // measure 4
0001
0010
0110
0000
,  // measure 5
1000
1000
1000
1000
,  // measure 6
0001
0001
0001
0001
,  // measure 7
1000
1000
0001
0001
,  // measure 8
1000
0001
1001
0000
,  // measure 9
0100
0100
0010
0100
,  // measure 10
0001
0010
0001
0001
,  // measure 11
1000
1000
0100
1000
,  // measure 12
0010
0100
0101
0000
,  // measure 13
0001
0010
0001
1000
,  // measure 14
0100
0010
0100
1000
,  // measure 15
0010
0100
0010
1000
,  // measure 16
1010
1010
1010
0000
,  // measure 17
0002
0003
0020
0030
,  // measure 18
0100
0100
0010
0001
,  // measure 19
0200
0300
0020
0030
,  // measure 20
0100
0001
1000
1000
,  // measure 21
0100
1000
0100
1000
,  // measure 22
0001
0100
0001
0100
,  // measure 23
0010
0010
0100
0100
,  // measure 24
0001
1000
1001
0000
,  // measure 25
0200
0000
2300
0000
,  // measure 26
3020
0000
0230
0000
,  // measure 27
0320
0000
2030
0000
,  // measure 28
3002
0000
2003
3000
,  // measure 29
1001
1001
1001
1001
,  // measure 30
0110
0110
0110
0110
,  // measure 31
1000
0100
0010
0001
,  // measure 32
1000
0001
1001
0000
,  // measure 33
0001
1000
1001
0000
,  // measure 34
0010
0100
0110
0000
,  // measure 35
0001
0010
0011
0000
,  // measure 36
1000
0100
1100
0000
,  // measure 37
1000
0010
0110
0000
,  // measure 38
1000
0001
0011
0000
,  // measure 39
0001
0100
1010
0000
,  // measure 40
1000
0100
0010
0010
,  // measure 41
0200
0000
2300
0000
,  // measure 42
3020
0000
0230
0000
,  // measure 43
0302
0000
0023
0000
,  // measure 44
0032
0000
0203
0000
,  // measure 45
0301
1000
0100
0010
,  // measure 46
0100
1000
0010
0010
,  // measure 47
0100
0010
1000
0001
,  // measure 48
0010
0100
0010
0110
,  // measure 49
1100
1100
1100
1100
,  // measure 50
0011
0011
0011
0011
,  // measure 51
0101
0101
0101
0101
,  // measure 52
0110
0110
0110
0000
,  // measure 53
1000
1000
0100
0010
,  // measure 54
0100
1000
0001
0001
,  // measure 55
0100
0001
0010
0001
,  // measure 56
0100
0010
0100
0001
,  // measure 57
0100
0100
0010
1000
,  // measure 58
0100
0010
0100
0100
,  // measure 59
0010
0010
0001
1000
,  // measure 60
0010
0100
0010
0110
,  // measure 61
2000
0000
3002
0000
,  // measure 62
0023
0000
0130
0100
,  // measure 63
0010
0100
0010
0001
,  // measure 64
0100
0010
0100
0001
,  // measure 65
1000
1000
0100
1000
,  // measure 66
0010
1000
0001
0001
,  // measure 67
0010
0010
0001
1000
,  // measure 68
0001
1000
1000
0001
,  // measure 69
1001
0000
0000
0000
;

//---------------dance-single - ----------------
#NOTES:
     dance-single:
     :
     Medium:
     7:
     0.593,0.619,0.536,0.202,0.015:
1000
0000
0000
0100
0000
0000
1000
0000
0000
0010
0000
0100
,
0001
0000
0000
0010
0000
0000
0100
0000
0010
0100
0000
0000
,
1000
0000
0000
0010
0000
0000
1000
0000
0000
0001
0000
0010
,
0001
0100
0110
0000
,
1010
1010
1010
1010
,
0101
0101
0101
0101
,
0001
0010
0001
0010
0001
0010
0001
0010
,
0002
1000
1000
1003
,
0001
0001
1000
0100
0010
0000
0100
0000
,
1000
0000
0010
0000
0100
0100
0010
0000
,
1000
1000
0010
0100
0010
0000
1000
0000
,
1100
0011
1001
0000
,
0001
0001
0100
0010
0100
0000
0001
0000
,
1000
0000
0100
0000
0010
0100
0010
0000
,
0100
0100
1000
0010
1000
0000
0100
0000
,
1100
0011
0101
1001
,
1000
1000
0010
1000
0010
0000
0100
0000
,
0001
0001
1000
0100
1000
0000
0010
0000
,
0100
0100
0010
0000
1000
1000
0001
0000
,
0010
0010
0001
0010
0100
0000
0110
0000
,
0010
0010
0001
0100
0001
0000
0011
0000
,
0001
0001
1000
0010
1000
0000
1001
0000
,
1000
1000
0100
0000
0010
0010
0100
0000
,
1000
0000
0001
0000
0100
0010
0100
0000
,
0102
0000
2003
0000
,
3200
0000
0320
0000
,
0230
0000
2300
0000
,
3020
0000
0230
0300
,
0101
0000
0101
0000
0001
0100
0001
0000
,
1010
0000
1010
0000
1000
0010
1000
0000
,
0100
0100
1000
1000
0010
0010
0100
0100
,
0001
0000
1000
0000
0001
1000
0001
0000
,
0010
0001
0010
0000
0011
0000
0011
0000
,
0001
1000
0001
0000
1001
0000
1001
0000
,
1000
0100
1000
0000
1100
0000
1100
0000
,
0010
1000
0010
0000
1010
0000
1010
0000
,
0100
0010
0100
0000
1001
0000
1001
0000
,
0001
0010
0001
0000
1100
0000
1100
0000
,
0001
0100
0001
0000
1010
0000
1010
0000
,
1000
0001
1000
0000
0001
1000
0001
0000
,
0020
0000
0230
0000
,
0320
0000
0032
0000
,
0203
0000
0302
0000
,
0023
0000
0000
0000
0230
0000
0000
0300
,
1000
0100
1000
0000
0010
0000
0100
0000
,
0001
0001
0010
0001
0100
0000
0010
0000
,
0100
0100
0010
0000
0100
0100
0010
0000
,
1000
0000
0001
0000
0010
0100
0010
0000
,
0110
0110
0110
0110
,
0011
0011
0011
0011
,
1100
1100
1010
1010
,
1001
0000
1001
0000
0001
0100
0001
0000
,
0100
0100
0010
0100
0001
0000
1000
0000
,
0100
0100
1000
0010
0100
0000
0010
0000
,
1000
1000
0010
0000
0100
0100
0001
0000
,
0010
0010
0001
0010
0001
0000
0100
0000
,
0010
0010
0100
0001
1000
0000
0100
0000
,
0010
0010
0100
1000
0100
0000
0010
0000
,
0100
0100
1000
0000
0001
0001
0100
0000
,
0010
0100
0010
0100
0100
0010
0100
0000
,
0002
0000
2003
0000
,
3200
0000
0010
0310
,
0001
0001
0100
0000
0010
0010
0100
0000
,
0001
0001
1000
0100
1000
0000
0010
0000
,
0100
0100
0010
1000
0100
0000
1000
0000
,
0001
0001
0100
0001
0010
0000
0001
0000
,
0100
0100
0010
0000
1000
1000
0001
0000
,
1000
1000
0001
1000
1000
0001
1000
0000
,
1001
0000
0000
0000
;

//---------------dance-single - ----------------
#NOTES:
     dance-single:
     :
     Hard:
     9:
     0.722,0.723,0.385,0.202,0.197:
1000
0100
1000
0001
0100
0001
1000
0010
1000
0001
0000
0001
,
0010
0100
0010
0001
0000
0001
0100
0000
0100
0010
0000
0000
,
0100
0001
0100
0010
1000
0010
1000
0100
1000
0100
0000
0100
,
0010
0100
1000
0010
0000
0100
0002
0000
0000
1003
0000
0000
,
1001
1001
1001
1001
,
1100
1100
1100
1100
,
0001
0001
0100
0100
0010
0010
0100
0100
,
0001
0000
1000
0000
0001
1000
1001
0000
,
1000
1000
0100
0010
0100
1000
0010
0100
,
0001
0001
0010
0001
0100
0100
0010
0100
,
0001
0001
0010
1000
0010
0001
0100
0010
,
1010
0101
0011
1100
,
1000
1000
0010
0100
0010
1000
0010
0100
,
0001
0001
0010
0100
0010
0001
0100
1000
,
0100
0100
0010
1000
0100
0100
0010
0100
,
1100
0000
0011
0000
0100
0001
1001
0000
,
1000
0000
0100
1000
0010
0100
0010
1000
,
0010
0010
0100
0001
0010
0010
0100
0010
,
0001
0001
0100
1000
0100
0001
1000
0100
,
0010
0100
1000
0010
0100
0100
0001
0010
,
1000
1000
0010
0001
0100
0010
1000
0100
,
0010
0010
0100
1000
0010
0001
0010
1000
,
0100
0100
0010
0100
1000
0010
0100
0010
,
1000
0001
0010
0001
0001
0010
0001
0000
,
0012
0000
0200
0003
,
0020
0300
0200
0030
,
0002
0300
2000
0003
,
0200
3000
0020
0330
,
0011
0000
0011
0000
0001
0010
0011
0000
,
1010
0000
1010
0000
1000
0010
1010
0000
,
1000
1000
0001
0001
0010
0010
0100
0100
,
0110
0000
0110
0000
0100
0010
1001
0000
,
1000
0000
0010
0000
1000
0010
0000
0000
1000
0000
0000
1000
0000
0000
1000
0000
,
0001
0000
0010
0000
0001
0010
0000
0000
0001
0000
0000
0001
0000
0000
0001
0000
,
1000
0000
0100
0000
1000
0100
0000
0000
1000
0000
0000
1000
0000
0000
1000
0000
,
0001
0000
0100
0000
0001
0100
0000
0000
0001
0000
0000
0001
0000
0000
0001
0000
,
0010
0000
0100
0000
0010
0100
0000
0000
0010
0000
0000
0010
0000
0000
0010
0000
,
0001
0000
1000
0000
0001
1000
0000
0000
0001
0000
0000
0001
0000
0000
0001
0000
,
1000
0000
0010
0000
1000
0010
0000
0000
1000
0000
0000
1000
0000
0000
1000
0000
,
0010
0000
0100
0000
0010
0100
0000
0010
0100
0000
0010
0100
0000
0010
0100
0000
,
0002
0000
0020
0003
,
0200
0030
0020
0300
,
0002
0030
0200
0003
,
2000
0300
0200
3000
,
0301
0001
0010
0001
0010
0000
0011
0000
,
1000
1000
0010
1000
0010
0000
1010
0000
,
0100
0100
0010
0000
0100
0100
0001
0000
,
1000
0100
0010
0100
0100
1000
0100
0000
,
1100
0000
1100
0000
1000
0010
0110
0000
,
1001
0000
1001
0000
0001
0010
0011
0000
,
0100
0100
0010
0010
1000
1000
0001
0001
,
0010
0010
0100
0100
0010
0100
0110
0000
,
0100
0100
1000
0010
0100
0010
1000
0001
,
0010
0100
0010
0010
0001
0000
0100
0100
,
0010
0100
0001
0010
1000
0010
0001
0100
,
0010
1000
0100
1000
0010
0100
0001
0100
,
0010
0010
1000
0100
0010
0100
0010
0001
,
0100
0010
0100
0001
0010
0010
0100
0100
,
0010
0010
0001
0100
0010
0100
0001
0010
,
0100
0010
0010
0100
0010
0010
0110
0000
,
2000
0000
0020
3000
,
0200
0000
0330
0000
0110
0000
0010
0010
,
1000
0100
0010
0100
1000
0010
0100
0010
,
1000
0001
0010
0001
1000
0010
0100
0010
,
1000
1000
0100
0001
0100
0010
0001
0100
,
0010
0001
0010
1000
0100
0100
1000
1000
,
0010
0010
0100
0010
1000
0001
0010
0100
,
0010
0100
0100
0010
0010
0100
0010
0000
,
1001
0000
0000
0000
;
