#TITLE:Cake By the Ocean;
#SUBTITLE:;
#ARTIST:DNCE;
#TITLETRANSLIT:;
#SUBTITLETRANSLIT:;
#ARTISTTRANSLIT:;
#CREDIT:Grithokskulk;
#BANNER:Cake By the Ocean.png;
#BACKGROUND:Cake By the Ocean-bg.png;
#LYRICSPATH:;
#CDTITLE:grithokskulk.png;
#MUSIC:Cake By the Ocean.mp3;
#OFFSET:-4.295;
#SAMPLESTART:40.515;
#SAMPLELENGTH:15.000;
#SELECTABLE:YES;
#BPMS:0.000=119.000;
#STOPS:;
#BGCHANGES:;

//---------------dance-single - ----------------
#NOTES:
     dance-single:
     :
     Easy:
     3:
     0.236,0.251,0.186,0.131,0.000: // measure 1
1000
0000
0001
0000
,  // measure 2
0100
0000
0010
0000
,  // measure 3
0200
0302
0000
0003
,  // measure 4
0010
0100
0010
0001
,  // measure 5
2000
3020
0000
0030
,  // measure 6
1000
0100
0001
0100
,  // measure 7
2000
3200
0000
0300
,  // measure 8
0010
0100
0010
0001
,  // measure 9
0200
0320
0030
2000
,  // measure 10
3002
0000
0003
1001
,  // measure 11
0000
1000
0100
0000
,  // measure 12
0010
0100
0000
0110
,  // measure 13
0000
0001
0010
0000
,  // measure 14
0100
0010
0000
1001
,  // measure 15
0000
0010
1000
0000
,  // measure 16
0100
1000
0000
0110
,  // measure 17
0001
0000
1000
0000
,  // measure 18
0020
0000
0000
0030
,  // measure 19
0110
0100
0100
0000
,  // measure 20
0001
0000
0010
0001
,  // measure 21
1001
1000
1000
0100
,  // measure 22
0020
0030
0100
1000
,  // measure 23
1001
0001
0100
0000
,  // measure 24
0010
0010
0100
0001
,  // measure 25
1001
0000
0110
0000
,  // measure 26
1000
0001
1001
0000
,  // measure 27
0110
0010
0001
0000
,  // measure 28
0100
0001
1000
0100
,  // measure 29
1001
1000
0010
0010
,  // measure 30
0100
0000
0010
0100
,  // measure 31
0110
1000
0100
0000
,  // measure 32
0010
0100
1000
0100
,  // measure 33
0110
0000
1001
0000
,  // measure 34
0010
0100
1001
0000
,  // measure 35
0001
0010
0100
0000
,  // measure 36
0100
0010
0001
0000
,  // measure 37
1000
0100
0010
0000
,  // measure 38
0010
0100
1000
0000
,  // measure 39
0010
1000
0001
0000
,  // measure 40
0001
1000
0010
0000
,  // measure 41
1000
0001
0010
0100
,  // measure 42
0010
0001
0100
0110
;

//---------------dance-single - ----------------
#NOTES:
     dance-single:
     :
     Medium:
     5:
     0.392,0.365,0.241,0.230,0.000:
1000
0100
0001
0100
,
1000
0100
0001
0100
,
0110
2001
0000
3001
,
0010
0001
0010
0000
0100
1000
0100
0000
,
1010
0102
0000
0003
,
0010
0100
0010
0000
0001
0100
0001
0000
,
1001
2010
0000
3000
,
0100
1000
0100
0000
0010
0001
0010
0000
,
0011
0102
0003
1001
,
2100
0000
3000
0000
0010
0100
0010
0000
,
0100
0000
0001
0010
0001
0100
0010
0000
,
1000
0100
2000
3010
0100
0000
0110
0000
,
0001
0000
0010
0001
1000
0010
0100
0000
,
0100
0010
1000
0001
0010
0000
0110
0000
,
0000
0001
0010
0000
0100
0010
0001
0000
,
1000
0010
0100
0010
1000
0000
1001
0000
,
0020
0000
0030
0100
0100
0000
0001
0010
,
0200
0000
0000
0300
,
0110
0000
0010
0001
0010
0001
0000
0000
,
0100
0000
0010
0000
1000
0001
1000
0000
,
0110
0000
1000
0100
1000
0000
0100
0000
,
0020
0000
0130
0000
1000
0010
1000
0000
,
0101
0000
0010
0001
0100
0020
0000
0000
,
0130
0000
0110
0000
1000
0100
0010
0001
,
0010
0000
0100
0010
0100
0010
0100
0010
,
0100
0000
1000
0001
1000
0001
0000
0000
,
1001
0000
0010
0100
0010
0200
0000
0000
,
0001
0000
0301
0000
1000
0001
1000
0000
,
1100
0000
0010
0100
0010
0100
0010
0200
,
0000
0010
0310
0000
0001
0010
0100
1000
,
0001
0000
0100
0001
0100
0002
0000
0000
,
0010
0000
0013
0000
0100
0010
0001
0010
,
0100
0000
1000
0100
1000
0100
1000
0100
,
1000
0000
0010
0001
0010
0001
0000
0000
,
0200
0301
0002
0013
,
0020
0000
0130
0000
0100
1000
0100
0000
,
0020
0030
0200
1300
,
2000
0000
3010
0000
0010
0100
0010
0000
,
1001
0000
0002
1003
,
2000
0000
3100
0000
0100
0010
0100
0000
,
1001
0000
0100
0001
0100
0001
0100
0001
,
0100
0000
0010
1000
0010
1000
1001
0000
;

//---------------dance-single - ----------------
#NOTES:
     dance-single:
     :
     Hard:
     7:
     0.523,0.459,0.317,0.175,0.115:
1000
0000
0000
0000
1100
0000
0000
0000
0001
0000
0000
0001
0100
0000
0000
0000
,
1000
0000
1100
0000
0001
0101
0101
0000
,
0020
0000
0000
0000
2030
0000
0000
0000
3100
0000
0000
0100
0001
0000
0100
0000
,
1000
1000
0010
0010
0100
0001
0010
0100
,
2000
0000
0000
0000
3020
0000
0000
0000
0130
0000
0000
0100
0010
0000
1000
0000
,
0010
0001
0010
0100
0001
0001
0010
0010
,
0200
0000
0000
0000
0320
0000
0000
0000
0031
0000
0000
0001
0100
0000
0010
0000
,
1000
1000
0100
0100
1000
0010
0001
0010
,
0200
0000
0302
0000
0013
0001
0200
0000
,
2300
0000
3100
0010
1000
0000
1001
0000
,
1000
0000
0100
0000
0010
0000
0100
0000
1000
0000
0010
0100
0000
0100
0001
0000
,
0010
0000
0100
0000
0010
0000
0001
0100
0000
0000
0001
0000
1001
0000
0000
0000
,
1000
0000
0100
0000
0001
0000
0100
0000
0010
0000
0001
0010
0000
0010
0001
0000
,
0100
0000
1000
0000
0100
0000
0010
1000
0000
0000
0200
0000
2300
0000
3200
0000
,
0300
0000
0010
0000
0100
0000
0010
0000
0001
0000
0100
0010
0000
0010
0100
0000
,
0001
0000
1000
0000
0100
0000
0010
0100
0000
0000
1000
0000
1100
0000
0000
0000
,
0001
0000
0000
0100
0010
0000
0100
0001
,
0020
0000
0000
0000
0000
0100
0100
0130
,
0110
0000
0001
0010
0100
0100
0010
0001
,
0100
0010
0110
0000
1000
0010
0001
0010
,
2010
0000
3100
0010
0100
0100
0010
0001
,
1000
0001
1001
0000
0001
0100
1000
0100
,
0110
0000
1000
0001
1000
0001
1000
0100
,
0010
0100
1100
0000
0010
0001
0010
0100
,
1100
0000
1000
0001
1000
1000
0001
1000
,
1001
0000
0010
0100
0010
0010
0110
0000
,
1010
0000
0001
0010
0100
0100
0010
0001
,
0100
0010
0110
0000
0001
0010
1000
0010
,
0011
0000
0001
1000
0010
0010
0100
0010
,
1000
0001
1001
0000
1000
0100
0001
0100
,
0110
0000
1000
0001
1000
0001
1000
0001
,
0100
0010
0110
0000
0001
0010
0100
0010
,
0011
0000
0001
0100
1000
0100
0010
1000
,
1100
0000
1000
0100
0001
0100
0110
0000
,
0020
0000
0000
0000
0031
0000
0100
0000
0010
0000
0000
0010
0100
0000
0001
0000
,
1000
0000
0000
1000
0100
0000
0001
0000
0100
0000
1000
0000
0010
0000
0100
0001
,
0000
0000
1000
0000
0100
0000
0010
0000
0100
0000
0000
0100
1000
0000
0010
0000
,
0100
0000
0000
0100
1000
0000
0100
0000
0001
0000
0010
0000
0100
0000
0010
0001
,
0000
0000
1000
0000
1000
0000
0010
0000
0100
0000
0000
0100
0010
0000
1000
0000
,
0100
0000
0000
0100
0001
0000
0100
0000
0010
0000
0001
0000
0100
0000
0010
0000
,
1010
0000
1000
0100
0010
0010
0100
1000
,
1001
0000
0001
0100
0010
0010
1010
0000
,
0101
0000
0000
0000
;
