#TITLE:CHERNOBOG;
#SUBTITLE:;
#ARTIST:Shikkoku no EBONY;
#TITLETRANSLIT:;
#SUBTITLETRANSLIT:;
#ARTISTTRANSLIT:;
#CREDIT:Grithokskulk;
#BANNER:CHERNOBOG.png;
#BACKGROUND:CHERNOBOG-bg.png;
#LYRICSPATH:;
#CDTITLE:pop'n music.png;
#MUSIC:CHERNOBOG.mp3;
#OFFSET:-0.895;
#SAMPLESTART:14.015;
#SAMPLELENGTH:15.000;
#SELECTABLE:YES;
#BPMS:0.000=200.000,36.000=50.000,38.000=399.998,284.000=50.000,285.000=399.998,410.000=99.999,418.000=200.000,434.000=399.997;
#STOPS:100.000=0.140
,163.000=0.140
,345.000=0.460
;
#BGCHANGES:0.000=CHERNOBOG.avi=1.000=1=0=1,
99999=-nosongbg-=1.000=0=0=0 // don't automatically add -songbackground-
;

//---------------dance-single - ----------------
#NOTES:
     dance-single:
     :
     Easy:
     5:
     0.368,0.664,0.233,0.036,0.000: // measure 1
0000
0000
0000
0000
,  // measure 2
1010
0000
0000
0000
,  // measure 3
0000
0000
0000
0000
,  // measure 4
0110
0000
0000
0000
,  // measure 5
1001
0000
0000
0000
,  // measure 6
0101
0000
0001
0000
,  // measure 7
0010
0001
0010
0001
,  // measure 8
0101
0000
0110
0000
,  // measure 9
1001
0000
1100
0000
,  // measure 10
0220
0330
0100
0000
,  // measure 11
0010
0000
0001
0000
,  // measure 12
0100
0000
0010
0000
,  // measure 13
0100
0000
0001
0000
,  // measure 14
1000
0000
0100
0000
,  // measure 15
1000
0000
0010
0000
,  // measure 16
0100
0000
0001
0000
,  // measure 17
0010
0000
0001
0000
,  // measure 18
1000
0000
0100
0000
,  // measure 19
0100
0000
1000
0000
,  // measure 20
0010
0000
0100
0000
,  // measure 21
0100
0000
0001
0000
,  // measure 22
0010
0000
0001
0000
,  // measure 23
0001
0000
1000
0000
,  // measure 24
1000
0000
0010
0000
,  // measure 25
0100
0000
0001
0000
,  // measure 26
1001
1000
0000
0100
,  // measure 27
0000
0010
0000
0100
,  // measure 28
0000
1000
0000
0010
,  // measure 29
0000
0100
0000
0001
,  // measure 30
0000
0010
0000
0001
,  // measure 31
0000
0010
0000
0100
,  // measure 32
0000
1000
0000
0010
,  // measure 33
0000
0100
0000
0001
,  // measure 34
0000
1000
0000
1000
,  // measure 35
0000
0010
0000
0010
,  // measure 36
0000
0100
0000
0100
,  // measure 37
0000
0010
0000
0010
,  // measure 38
0000
1000
0000
0001
,  // measure 39
0000
0010
0000
0100
,  // measure 40
0000
0010
0000
0001
,  // measure 41
0000
1000
0000
1001
,  // measure 42
0001
0000
0001
0000
,  // measure 43
1000
0000
1000
0000
,  // measure 44
0001
0000
1000
0000
,  // measure 45
0001
0000
0001
0000
,  // measure 46
0010
0000
0010
0000
,  // measure 47
0100
0000
0100
0000
,  // measure 48
0010
0000
0100
0000
,  // measure 49
0010
0000
0000
0000
,  // measure 50
0001
0000
0001
0000
,  // measure 51
0100
0000
0100
0000
,  // measure 52
0001
0000
0001
0000
,  // measure 53
0010
0000
0010
0000
,  // measure 54
0100
0000
0010
0000
,  // measure 55
0100
0000
1000
0000
,  // measure 56
0020
0000
0000
0000
,  // measure 57
0000
0000
0000
0000
,  // measure 58
0130
0000
0000
0000
,  // measure 59
0110
0000
0000
0000
,  // measure 60
1000
0000
0000
0000
,  // measure 61
1001
0000
0000
0000
,  // measure 62
1000
0000
0000
0000
,  // measure 63
1100
0000
0000
0000
,  // measure 64
0001
0000
0000
0000
,  // measure 65
0011
0000
0000
0000
,  // measure 66
0001
0000
0000
0000
,  // measure 67
0101
0000
0000
0000
,  // measure 68
0010
0000
0000
0000
,  // measure 69
0110
0000
0000
0000
,  // measure 70
0001
0000
0000
0000
,  // measure 71
1001
0000
0000
0000
,  // measure 72
1000
0001
0000
0010
,  // measure 73
0000
0001
0000
0100
,  // measure 74
0000
0010
0000
0100
,  // measure 75
0000
0001
0000
1000
,  // measure 76
0000
0100
0000
0010
,  // measure 77
0000
0100
0000
1000
,  // measure 78
0000
0010
0000
0010
,  // measure 79
0000
0100
0000
0100
,  // measure 80
0000
0001
0000
1000
,  // measure 81
0000
0100
0000
0010
,  // measure 82
0000
0100
0000
1000
,  // measure 83
0000
0010
0000
0100
,  // measure 84
0000
0010
0000
0010
,  // measure 85
0000
1000
0000
1000
,  // measure 86
0000
0001
0002
0000
,  // measure 87
0000
1003
1000
0000
,  // measure 88
1000
0000
0100
0000
,  // measure 89
0100
0000
0010
0000
,  // measure 90
0010
0000
0001
0000
,  // measure 91
0001
0000
1000
0000
,  // measure 92
0100
0000
0010
0000
,  // measure 93
0001
0000
1000
0000
,  // measure 94
0100
0000
0010
0000
,  // measure 95
0001
0000
0001
0000
,  // measure 96
0001
0000
0010
0000
,  // measure 97
0010
0000
0100
0000
,  // measure 98
0100
0000
1000
0000
,  // measure 99
1000
0000
0001
0000
,  // measure 100
0010
0000
0100
0000
,  // measure 101
1000
0000
0001
0000
,  // measure 102
0010
0000
0100
0000
,  // measure 103
1000
0000
0010
0100
,  // measure 104
0010
0100
0001
1000
,  // measure 105
0001
1000
0010
0000
,  // measure 106
1000
0000
0100
0000
,  // measure 107
1000
0000
0010
0000
,  // measure 108
0100
0000
0001
0000
,  // measure 109
0010
0000
0100
0000
,  // measure 110
0000
0000
0010
0000
,  // measure 111
0000
0000
0001
0000
,  // measure 112
0000
0000
0010
0000
,  // measure 113
0000
0000
0100
0000
,  // measure 114
0000
0000
0010
0000
,  // measure 115
0000
0000
0001
0000
,  // measure 116
0000
0000
0010
0000
,  // measure 117
0000
0000
0100
0000
,  // measure 118
0100
0000
1000
0000
,  // measure 119
1000
0000
0010
0000
,  // measure 120
0010
0000
0100
0000
,  // measure 121
0100
0000
0001
0000
,  // measure 122
1000
0000
0001
0000
,  // measure 123
0010
0000
0100
0000
,  // measure 124
1000
0000
0001
0000
,  // measure 125
0100
0000
0110
0000
,  // measure 126
0000
0000
0000
0000
,  // measure 127
0000
0000
0000
0000
,  // measure 128
0000
0000
0000
0000
,  // measure 129
0000
0000
1001
0000
,  // measure 130
0000
0000
0000
0000
,  // measure 131
0000
0000
0110
0000
,  // measure 132
0000
0000
0000
0000
,  // measure 133
0000
0000
0011
0000
,  // measure 134
0000
0000
1100
0000
,  // measure 135
0000
0000
1010
0000
,  // measure 136
0000
0000
0101
0000
,  // measure 137
0000
0000
1000
0000
,  // measure 138
0100
0000
0010
0000
,  // measure 139
0001
0000
1000
0000
,  // measure 140
0100
0000
0010
0000
,  // measure 141
0001
0000
0100
0000
,  // measure 142
0010
0000
0100
0000
,  // measure 143
0010
0000
1000
0000
,  // measure 144
0001
0000
1000
0000
,  // measure 145
0001
0000
0010
0000
,  // measure 146
0100
0000
0010
0000
,  // measure 147
0100
0000
1000
0001
,  // measure 148
1000
0000
0001
1000
,  // measure 149
0001
0000
1001
0000
;

//---------------dance-single - ----------------
#NOTES:
     dance-single:
     :
     Medium:
     9:
     0.642,0.858,0.420,0.054,0.081:
1001
0000
0000
0000
,
0000
0000
0000
0000
0000
0000
0010
0010
,
0110
0000
0000
0000
0000
0000
1000
1000
,
1001
0000
0000
0000
0000
0000
0100
0100
,
1100
0000
1001
0000
,
0001
0000
0001
0000
0001
0000
1000
0000
1000
0000
1000
0000
,
1100
0000
1010
0000
,
0110
0000
0000
0000
0000
0000
0001
0000
0001
0000
0001
0000
,
2002
3003
1000
0010
,
0100
0010
0001
0010
,
0100
0010
1000
0010
,
0100
0010
0001
0010
,
0100
0010
1000
0010
,
0001
0010
1000
0010
,
0100
0010
1000
0010
,
0100
0010
0001
0010
,
1000
0000
1000
0100
,
0001
0100
1000
0100
,
0010
0100
1000
0100
,
0001
0100
1000
0100
,
0010
0100
1000
0100
,
0010
0100
1000
0100
,
0010
0100
1000
0100
,
0001
0100
0010
0000
,
0110
0001
1000
0001
,
0100
0001
0010
0001
,
0100
0001
1000
0001
,
0100
0001
0010
0001
,
0100
0001
1000
0001
,
0010
0001
0100
0001
,
0010
0001
0100
0001
,
1000
0001
0100
0001
,
0010
0100
1000
0010
,
1000
0100
1000
0100
,
1000
0010
1000
0001
,
1000
0010
1000
0100
,
1000
0010
1000
0100
,
1000
0010
1000
0001
,
1000
0010
1000
0001
,
0100
0100
0000
0110
,
0001
0001
0010
0000
,
0001
0001
0100
0000
,
0010
0010
0100
0000
,
0001
0001
1000
0100
,
0010
0010
0100
0000
,
1000
1000
0010
0000
,
0100
0100
0001
0010
,
0100
0200
0300
0000
,
0010
0010
0001
0001
,
0100
0100
0010
0010
,
0100
0100
0001
0001
,
0010
0010
0100
0100
,
0010
0001
0010
0001
,
1000
0001
1000
0001
,
0100
0010
0100
0010
,
1000
0001
1000
0001
,
1000
0000
0000
0000
,
1001
0000
0000
0000
,
0001
0000
0000
0000
,
0101
0000
0000
0000
,
0010
0000
0000
0000
,
0110
0000
0000
0000
,
1000
0000
0000
0000
,
1100
0000
0000
0000
,
0010
0000
0000
0000
,
0110
0000
0000
0000
,
0010
0000
0000
0000
,
0011
0000
0000
0000
,
0001
1000
0001
1000
,
0010
0100
0010
0100
,
0002
1003
0000
1000
,
0000
1000
0000
1000
,
0000
0100
1000
0010
,
0100
0010
1000
0100
,
0000
0010
0000
0010
,
0000
0010
0000
0010
,
0000
0001
0010
0100
,
0010
0001
0100
0010
,
0000
0100
0000
0100
,
0000
0100
0000
0100
,
0000
0001
0010
0100
,
0010
0100
0100
0010
,
0000
0100
0100
1000
,
0000
0010
0010
0100
,
0000
1001
2002
0000
,
0000
3003
1000
0100
,
0010
0100
1000
0100
,
0010
0100
1000
0010
,
0100
0010
1000
0010
,
0100
0010
1000
0001
,
0010
0001
0100
0001
,
0010
0001
0100
0010
,
0001
0010
0100
0010
,
0001
0010
1000
1000
,
1000
1000
1000
1000
,
1000
0000
0001
0001
,
0001
0001
0001
0001
,
0001
0000
0100
0010
,
0100
0010
0100
0010
,
0100
0000
0001
1000
,
0100
0010
0100
1000
,
0010
0100
0101
1000
,
1100
0001
0011
1000
,
1010
0001
0011
0000
,
0100
0000
1010
0000
,
0100
0000
0011
0000
,
1000
0000
1010
0000
,
0001
0000
0011
0000
,
0000
0000
1010
0000
,
0000
0000
1100
0000
,
0000
0000
0011
0000
,
0000
0000
0101
0000
,
0000
0000
1010
0000
,
0000
0000
1100
0000
,
0000
0000
0011
0000
,
0000
0000
0101
0000
,
0110
0000
1010
0000
,
1100
0000
1010
0000
,
0110
0000
0101
0000
,
0011
0000
0001
0010
,
0100
1000
0001
0010
,
0100
1000
0001
0010
,
0100
0000
1000
0000
0001
1000
0001
1000
,
0001
1000
0001
1000
0001
0000
0000
0000
,
0000
0000
0000
0000
,
0000
0000
0000
0000
,
0000
0000
0000
0000
,
1000
1000
1001
0000
,
0000
0000
0000
0000
,
0001
0001
1001
0000
,
0000
0000
0000
0000
,
0010
0010
0110
0000
,
0000
0000
0101
0000
,
0000
0000
0000
0000
0000
0000
1000
0000
0000
0000
0001
0000
,
0000
0000
1000
0000
0000
0000
0001
0000
0000
0000
0010
0000
,
0000
0000
0001
0000
0000
0000
0010
0000
0000
0000
0100
0000
,
0000
0000
0010
0000
0000
0000
0100
0000
0000
0000
1000
0000
,
0000
0000
0100
0000
0000
0000
1000
0000
0000
0000
0001
0000
,
0000
0000
1000
0000
0000
0000
0001
0000
0000
0000
0100
0000
,
0000
0000
0001
0000
0000
0000
1000
0000
0000
0001
0000
0000
,
1000
0001
1000
0001
,
1000
0001
0100
0010
,
0100
0010
0100
0010
,
0100
0010
1000
0010
,
0100
0001
1000
0010
,
0100
0000
0001
0000
1000
0001
1000
0001
,
1000
0001
1000
0001
1000
0001
1000
0001
,
1000
0001
1000
0001
1000
0000
0000
0000
;

//---------------dance-single - ----------------
#NOTES:
     dance-single:
     :
     Hard:
     10:
     1.000,1.000,0.555,0.045,0.188:
0000
0000
0000
0000
,
1001
1001
0000
0000
0000
0000
0000
0000
,
0000
0000
0000
0000
0000
0000
0000
0000
0000
0000
0000
0000
0001
1000
0001
1000
,
0001
0000
0000
0000
0000
0000
0000
0000
0000
0000
0000
0000
0100
0001
0100
0001
,
0100
0000
0000
0000
0000
0000
0000
0000
0000
0000
0000
0000
0010
0100
0010
0100
,
0010
0000
1100
0000
,
1010
0000
0101
0000
0011
0000
1010
0000
1001
0000
0110
0000
,
0011
0000
1100
0000
,
0001
0000
0000
1000
0000
0000
0001
0000
0000
1000
0000
0000
0001
0000
0000
1000
0000
0000
0001
0000
0000
1000
0000
0000
0001
0000
0000
0000
0000
0000
0000
0000
1001
0000
0000
0000
0000
0000
0000
0000
1001
0000
0000
0000
0000
0000
0000
0000
,
0200
0000
0000
0300
0010
0000
1000
0000
,
0010
0001
0010
1000
,
0010
0100
0010
1000
,
0010
0001
0010
0100
,
0010
1000
0010
0100
,
0010
1000
0010
0001
,
0010
1000
0010
0100
,
0010
0001
0010
0100
,
0001
0010
0001
0010
0001
0000
1000
0000
,
0100
0001
0100
1000
,
0100
0001
0100
0010
,
0100
0001
0100
1000
,
0010
0100
0010
0100
0010
0000
1000
0000
,
0010
0100
0010
0001
,
0010
0000
1000
0000
0001
0010
0001
0010
,
0100
1000
0100
1000
0001
0000
0000
0000
,
0110
1000
0010
1000
,
0100
1000
0001
1000
,
0100
0010
0001
0000
0100
0000
0001
0000
,
1000
0001
0010
0001
,
0100
0010
1000
0000
0100
0000
1000
0000
,
0001
1000
0010
1000
,
0100
0010
0001
0000
0100
0000
0001
0000
,
0010
0000
0001
0000
1000
0000
0001
0010
,
0100
1000
0010
0000
0100
0000
0010
0000
,
1000
0010
0001
0010
,
1000
0001
0100
0000
0010
0000
0100
0000
,
1000
0100
0010
0100
,
0001
1000
0010
0000
1000
0000
0010
0000
,
0001
0010
1000
0010
,
0100
0000
0001
0010
0001
0010
0100
1000
,
0100
1000
0010
0000
0100
0000
0110
0000
,
0100
0100
0001
0010
,
0100
0100
0010
0001
,
0100
0100
0010
1000
,
0100
0000
0100
0000
0010
0100
0010
0100
,
0010
0010
0001
1000
,
0010
0000
0010
0000
1000
0001
1000
0001
,
1000
1000
0001
0010
,
0100
0010
0110
0000
,
0100
0100
1000
0010
,
0100
0100
0001
0010
,
0100
0100
0010
0010
,
0001
0001
1000
1000
,
0010
0100
0010
0100
0001
1000
0001
1000
,
0100
0010
0100
0010
0001
1000
0001
1000
,
0100
1000
0010
0100
0001
0010
0100
1000
,
0010
0100
0001
0010
0100
1000
0100
0010
,
0001
0000
0000
0000
,
0011
0000
0000
0000
,
1000
0000
0000
0000
,
1010
0010
0000
0000
,
0100
0000
0000
0000
0100
0000
0000
0000
0100
0000
0000
0000
,
1001
0000
0000
0000
1001
0000
0000
0000
1001
0000
0000
0000
,
0010
0000
0000
0000
,
1000
0001
1000
0001
1000
0001
1000
0001
,
1000
0000
0000
0000
,
1100
0000
0000
0000
,
0001
0000
0000
0000
,
0100
0010
0100
0010
0100
0000
0000
0000
,
0001
0010
0001
0010
0001
0010
0001
0010
,
0001
1000
0001
1000
0001
1000
0001
1000
,
0020
0130
0001
0001
,
0100
0010
0010
0100
,
1000
1000
0100
0010
,
0010
0000
0100
0001
0100
0001
0010
0000
,
0100
0010
0001
0001
,
0100
0001
0001
1000
,
0001
0000
0010
0001
0010
0000
0001
0000
,
1000
0000
0010
0100
0010
0000
1000
0010
,
0100
0001
0010
0000
0100
0000
0100
0000
,
1000
0100
0100
0001
,
0100
0100
1000
0100
,
0100
0010
0001
0010
,
0001
0100
0010
0000
1000
0000
1000
0000
,
0001
0000
1000
0000
1000
0000
0100
0010
,
0100
0110
0220
0000
,
0000
0000
0330
0000
1000
0100
1000
0100
,
1000
0100
1000
0100
1000
0010
1000
0010
,
1000
0010
1000
0010
0100
0010
0100
0010
,
0100
0010
0100
0010
0100
0001
0100
0001
,
0100
0001
0100
0001
0010
0001
0010
0001
,
0010
0001
0010
0001
0010
0100
0010
0100
,
0010
0100
0010
0100
1000
0100
1000
0100
,
1000
0100
1000
0100
1000
0010
1000
0010
,
1000
0010
1000
0010
0100
0000
0100
0000
,
0100
0100
0100
0100
,
0100
0001
0010
0000
0001
0000
0001
0000
,
0001
0000
0001
0000
0001
1000
0010
0000
,
1000
0001
0010
0000
0100
0000
0100
0000
,
0100
0100
1000
1000
,
1000
0000
1000
0000
0001
1000
0001
1000
,
0001
1000
0001
1000
0010
0100
0010
0100
,
0010
0000
0100
0000
0010
0000
0100
0000
0110
0010
0000
0000
1010
0000
0000
0000
,
1001
0000
0000
0001
0000
0000
0000
0000
0000
0000
0000
0000
0011
0000
0000
0000
0010
0000
0000
0000
0010
0000
0000
0000
0011
0000
0000
0001
0000
0000
0000
0000
0000
0000
0000
0000
0101
0000
0000
0000
0000
0000
0000
0000
0000
0000
0000
0000
,
0110
0000
0000
0010
0000
0000
0000
0000
0000
0000
0000
0000
1001
0000
0000
0000
1000
0000
0000
0000
1000
0000
0000
0000
1100
0000
0000
0000
0000
0000
0100
0000
0000
0000
0000
0000
1000
0000
0000
0000
0000
0000
0000
0000
0000
0000
0000
0000
,
1010
0000
0010
0100
0110
0010
1000
0000
,
1001
0000
0001
0010
0011
0001
0100
0000
,
1001
0000
0000
0000
0010
0000
0100
0000
0001
0100
0001
0010
0001
0000
0001
0000
,
1000
1000
0010
0010
0110
0000
0100
0000
,
0001
0010
0011
0001
,
1000
0100
1100
1000
,
0001
0100
0110
0010
,
1000
0001
1000
0001
1000
0000
1000
0000
,
0100
0010
0110
0100
,
1000
0010
1000
0010
1000
0000
1000
0000
,
0001
0001
0101
0100
,
0010
0100
0010
0100
0010
0000
0100
0001
,
0100
0000
0001
0010
0001
0000
1000
0100
,
1000
0000
0010
0100
0010
0000
1000
0100
,
1000
0000
0001
0100
0001
0000
0010
0100
,
0010
0000
0001
1000
0010
0100
0001
1000
,
0010
0100
0001
1000
0001
0010
0100
1000
,
0001
0010
0100
1000
0001
0100
0010
1000
,
0001
0100
0010
1000
0100
0010
0100
1000
,
0010
0100
0001
0010
0100
0000
0000
0000
,
0000
0000
0000
0000
,
0000
0000
0000
0000
,
0000
0000
0000
0000
,
0010
0100
0010
0100
0010
0000
0000
0000
,
0000
0000
0000
0000
,
0001
1000
0001
1000
0001
0000
0000
0000
,
0000
0000
0000
0000
,
0100
0001
0100
0001
0100
0000
0010
0000
,
0100
0100
0001
0010
,
1000
0000
0000
1000
0000
0000
0011
0000
0000
0000
1001
0000
,
0000
0000
1010
0000
0000
0000
0110
0000
0000
0000
1001
0000
,
0000
0000
1100
0000
0000
0000
0011
0000
0000
0000
1001
0000
,
0000
0000
0110
0000
0000
0000
0101
0000
0000
0000
0011
0000
,
0000
0000
1100
0000
0000
0000
1010
0000
0000
0000
0110
0000
,
0000
0000
1010
0000
0000
0000
1001
0000
0000
0000
0011
0000
,
0000
0000
0000
0000
1100
0000
0000
0000
0000
0000
0000
0000
0010
0000
0000
1000
0000
0000
0010
0000
0000
1000
0000
0000
,
0010
1000
0010
1000
0001
1000
0001
1000
,
0001
1000
0001
1000
0001
0010
0001
0010
,
0001
0010
0001
0010
0100
0010
0100
0010
,
0100
0010
0100
0010
0100
1000
0100
1000
,
0100
1000
0100
1000
0010
1000
0010
1000
,
0010
1000
0010
1000
0010
0100
0010
0100
,
0010
0100
0010
0100
0001
1000
0001
1000
,
0001
1000
0001
1000
0020
0000
0000
0000
,
0000
0000
0000
0000
,
0000
0000
0000
0000
,
0000
0000
0000
0000
,
0000
0000
0000
0000
,
0000
0000
0000
0000
,
0000
0000
0000
0000
,
0000
0000
0000
0000
,
0000
0000
0030
0000
;
