#TITLE:C18H27NO3;
#SUBTITLE:;
#ARTIST:Team Grimoire;
#TITLETRANSLIT:;
#SUBTITLETRANSLIT:;
#ARTISTTRANSLIT:;
#CREDIT:Grithokskulk;
#BANNER:C18H27NO3.png;
#BACKGROUND:C18H27NO3-bg.png;
#LYRICSPATH:;
#CDTITLE:SOUND VOLTEX.png;
#MUSIC:C18H27NO3.mp3;
#OFFSET:-11.547;
#SAMPLESTART:58.335;
#SAMPLELENGTH:15.000;
#SELECTABLE:YES;
#BPMS:0.000=210.000,32.000=419.998,290.000=210.000,390.000=839.999,422.000=420.000,550.000=210.002;
#STOPS:32.000=0.840
;
#BGCHANGES:;

//---------------dance-single - ----------------
#NOTES:
     dance-single:
     :
     Easy:
     8:
     0.494,1.000,0.486,0.293,0.000: // measure 1
0200
0000
0320
0000
,  // measure 2
2030
0000
3200
0000
,  // measure 3
0302
0000
0203
0000
,  // measure 4
0320
0000
0032
0000
,  // measure 5
0203
0320
0230
0302
,  // measure 6
2003
3200
0320
0230
,  // measure 7
2300
3020
0230
0302
,  // measure 8
0023
0000
0000
0000
,  // measure 9
0130
0000
0010
0000
,  // measure 10
0010
0000
0010
0000
,  // measure 11
0000
0000
0001
0000
,  // measure 12
0100
0000
0010
0000
,  // measure 13
0000
0000
0010
0000
,  // measure 14
0100
0000
0001
0000
,  // measure 15
1000
0000
0100
0000
,  // measure 16
0010
0000
0100
0000
,  // measure 17
0000
0000
1000
0000
,  // measure 18
0010
0000
0100
0000
,  // measure 19
0000
0000
0010
0000
,  // measure 20
1000
0000
0001
0000
,  // measure 21
0000
0000
0010
0000
,  // measure 22
0001
0000
0100
0000
,  // measure 23
0010
0000
0100
0000
,  // measure 24
0010
0000
0001
0000
,  // measure 25
0010
0000
0100
0000
,  // measure 26
1000
0000
0100
0000
,  // measure 27
0010
0000
0100
0000
,  // measure 28
1000
0000
0001
0000
,  // measure 29
0001
0000
0100
0000
,  // measure 30
0010
0000
0100
0000
,  // measure 31
0001
0000
1000
0000
,  // measure 32
0100
0000
0020
0000
,  // measure 33
0130
0000
1000
0000
,  // measure 34
0010
0000
0100
0000
,  // measure 35
0001
0000
0010
0000
,  // measure 36
0001
0000
0100
0000
,  // measure 37
0010
0000
0100
0000
,  // measure 38
0001
0000
1000
0000
,  // measure 39
0100
0000
0020
0000
,  // measure 40
0100
0000
0100
0000
,  // measure 41
0130
0000
0110
0000
,  // measure 42
0011
0000
0100
0000
,  // measure 43
0010
0000
0101
0000
,  // measure 44
1010
0000
1000
0100
,  // measure 45
0010
0000
1100
0000
,  // measure 46
1001
0000
0001
0100
,  // measure 47
0010
0000
0100
0000
,  // measure 48
0100
0000
0010
0000
,  // measure 49
0010
0000
1010
0000
,  // measure 50
0101
0000
1000
0100
,  // measure 51
0010
0000
1100
0000
,  // measure 52
0011
0000
0001
0100
,  // measure 53
0010
0000
0100
0001
,  // measure 54
1000
0000
0100
0010
,  // measure 55
0100
0000
1100
0000
,  // measure 56
1100
0000
0011
0000
,  // measure 57
0011
0000
1001
0000
,  // measure 58
0110
0000
0001
0100
,  // measure 59
0010
0000
1010
0000
,  // measure 60
1100
0000
0010
0100
,  // measure 61
1000
0000
1001
0000
,  // measure 62
0101
0000
0001
0010
,  // measure 63
0100
0000
0010
0001
,  // measure 64
0100
0000
0010
0000
,  // measure 65
0100
0000
1001
0000
,  // measure 66
0110
0000
1000
0010
,  // measure 67
0100
0000
1001
0000
,  // measure 68
1100
0000
0001
0010
,  // measure 69
0100
0000
0011
0000
,  // measure 70
0011
0000
1100
0000
,  // measure 71
1100
0000
1010
0000
,  // measure 72
0101
0000
0011
0000
,  // measure 73
1100
0000
1002
0103
,  // measure 74
0010
0100
0001
0010
,  // measure 75
0100
0100
0210
1300
,  // measure 76
0100
0010
0100
0100
,  // measure 77
0010
0010
0012
1003
,  // measure 78
0010
0100
0010
0010
,  // measure 79
1000
1000
2100
3001
,  // measure 80
0100
0010
0100
0100
,  // measure 81
0110
0000
0012
1003
,  // measure 82
0010
0100
0010
0010
,  // measure 83
1000
0100
2100
3001
,  // measure 84
0100
0001
0010
0010
,  // measure 85
0100
0100
0012
0103
,  // measure 86
0010
0100
0010
0010
,  // measure 87
1000
0001
2001
3100
,  // measure 88
0010
0100
0010
0010
,  // measure 89
0100
0100
0110
0000
,  // measure 90
0000
0000
0011
0000
,  // measure 91
0000
0000
1100
0000
,  // measure 92
0000
0000
1010
0000
,  // measure 93
0000
0000
0110
0000
,  // measure 94
1001
0000
1100
0000
,  // measure 95
0011
0000
0101
0101
,  // measure 96
1010
1010
0010
0100
,  // measure 97
0001
0010
0100
0010
,  // measure 98
0001
0100
0020
0000
,  // measure 99
0000
0000
0000
0000
,  // measure 100
0000
0000
0000
0000
,  // measure 101
0000
0000
0000
0000
,  // measure 102
0000
0000
0000
0000
,  // measure 103
0000
0000
0000
0000
,  // measure 104
0000
0000
0000
0000
,  // measure 105
0000
0000
0000
0000
,  // measure 106
0000
0000
0130
0000
,  // measure 107
0001
0000
0010
0000
,  // measure 108
0100
0000
0010
0001
,  // measure 109
0010
0000
0100
1000
,  // measure 110
0100
0000
1000
0000
,  // measure 111
0010
0000
0100
0000
,  // measure 112
0010
0000
1000
0001
,  // measure 113
1000
0000
0001
0000
,  // measure 114
0001
0000
0010
0000
,  // measure 115
0100
0010
0001
0000
,  // measure 116
0100
0000
0010
0100
,  // measure 117
0010
0000
1000
0001
,  // measure 118
1000
0000
1000
0000
,  // measure 119
1000
0000
1100
0000
,  // measure 120
1100
0000
0010
0000
,  // measure 121
0010
0000
0011
0000
,  // measure 122
0011
0000
0001
0000
,  // measure 123
0100
0010
1000
0000
,  // measure 124
0100
0000
1000
0001
,  // measure 125
0100
0000
0001
0000
,  // measure 126
0001
0000
0010
0000
,  // measure 127
0100
0010
0001
0000
,  // measure 128
0100
0000
0010
1000
,  // measure 129
0100
0000
0010
0000
,  // measure 130
0010
0000
0100
0000
,  // measure 131
1000
0001
0100
0000
,  // measure 132
0010
0000
0100
0001
,  // measure 133
0010
0000
0100
0000
,  // measure 134
0010
0000
0001
1000
,  // measure 135
0001
0000
0100
0010
,  // measure 136
0100
0000
0002
0000
,  // measure 137
1000
0000
1000
0000
,  // measure 138
1003
0000
2002
0000
,  // measure 139
0000
0000
0000
0000
,  // measure 140
0000
0000
0000
0000
,  // measure 141
0000
0000
0000
0000
,  // measure 142
0000
0000
0000
0000
,  // measure 143
0000
0000
0000
0000
,  // measure 144
0000
0000
3003
0000
;

//---------------dance-single - ----------------
#NOTES:
     dance-single:
     :
     Medium:
     9:
     0.587,1.000,0.301,0.360,0.000:
0200
0320
2030
3200
,
0320
0000
0130
1000
0200
0000
0320
0000
,
0032
0203
0320
0230
,
0302
0000
0013
0001
0200
0000
0320
0000
,
2030
3200
0302
0203
,
0320
0000
0031
0100
0020
0000
2030
0000
,
3002
0023
0230
0320
,
0032
0203
0320
0130
,
1001
0000
1000
0100
,
1000
0000
0100
0000
,
0010
0000
0001
0010
,
0001
0000
0100
0000
,
0010
0000
1000
0001
,
1000
0000
0010
0100
,
0010
0000
1000
0000
,
0100
0000
0010
0000
,
0001
0000
0010
0001
,
0100
0000
0010
0000
,
0100
0000
0001
1000
,
0100
0000
0010
0000
,
0100
0000
1000
0100
,
1000
0000
0010
0100
,
0010
0000
1000
0000
,
0001
0000
0010
0000
,
0100
0000
0010
0001
,
0010
0000
0001
0000
,
0100
0000
0010
0100
,
0001
0000
1000
0000
,
0100
0000
0010
0100
,
1000
0000
0010
0100
,
0010
0000
2000
0000
,
0001
0000
0001
0000
,
3001
0000
0010
0001
,
0100
0000
0010
0000
,
1000
0000
0001
0010
,
0100
0000
1000
0000
,
0100
0000
0010
0100
,
1000
0000
0010
0100
,
0010
0000
1000
0010
,
1000
0001
1000
0000
,
0001
0000
0010
0100
,
0010
0000
0001
0010
,
0001
0000
0100
0010
,
0100
0000
0010
1000
,
0010
0000
1000
0100
,
1000
0000
0001
0010
,
0001
0000
0100
0010
,
0100
0001
1000
0000
,
1001
0000
1000
0100
,
0010
0000
0100
0010
,
0001
0000
0100
0010
,
0100
0000
0001
1000
,
0001
0000
0010
0001
,
0100
0000
0010
1000
,
0100
0000
0020
0000
,
0130
0000
0110
0000
,
1001
0000
0001
0010
,
0100
0000
0010
0100
,
1000
0000
0010
0100
,
0001
0000
1000
0001
,
0010
0000
0001
0100
,
0010
0000
1000
0100
,
0010
0000
0100
1000
,
0010
0100
0001
0000
,
1001
0000
1000
0001
,
0010
0001
0100
0010
,
1000
0000
0100
1000
,
0010
0100
0001
0010
,
0100
0000
0010
0001
,
0010
0000
1000
0100
,
1000
0000
1001
0000
,
0110
0000
0101
0000
,
1010
0000
2100
3001
,
0100
1000
0100
0000
0010
0100
0001
0000
,
1000
0100
0210
1300
,
0010
0100
0001
0000
0010
0001
1000
0010
,
0100
0010
2010
3001
,
0010
0001
0100
0000
0010
0100
0010
0000
,
1000
0001
0012
0103
,
0010
0100
0001
0000
1000
0100
0010
0000
,
0100
1000
2010
3001
,
0010
0001
0100
0000
0010
0100
0010
0000
,
1000
0001
1000
0000
2100
0000
3001
0000
,
0010
0001
0100
0000
0001
1000
0100
0000
,
0010
0100
2100
3010
,
0100
0010
1000
0000
0001
0010
0001
0000
,
0100
0010
0100
0000
0102
0000
1003
0000
,
0100
0010
0100
0000
1000
0000
0010
0000
,
0100
0001
1001
0000
,
0000
0000
0110
0000
,
0000
0000
0011
0000
,
0000
0000
1100
0000
,
0000
0000
1010
0000
,
0110
0000
1001
0000
,
0011
0000
1100
1010
,
0101
0000
0011
0000
0001
0010
0100
1000
,
0010
0100
0001
1000
0100
0010
0001
0100
,
0010
1000
0001
0010
0200
0000
0000
0000
,
0000
0000
0000
0000
,
0000
0000
0000
0000
,
0000
0000
0000
0000
,
0000
0000
0000
0000
,
0000
0000
0000
0000
,
0000
0000
0000
0000
,
0000
0000
0000
0000
,
0000
0000
0310
0000
,
0001
0010
0001
0000
,
0100
0000
0010
1000
,
0100
0010
0100
0000
,
1000
0000
0010
0000
,
1000
0001
0010
0000
,
0001
0000
0100
0010
,
1000
0100
0010
0100
,
1000
0010
0100
0000
,
0001
1000
0100
0000
,
0001
0000
0100
1000
,
0010
0000
0100
0001
,
0010
0000
0011
0000
,
1100
0000
1010
0000
,
0101
0000
1000
0010
,
0100
0010
2000
0000
,
0001
3000
0010
0000
,
0001
0100
0010
0000
,
1000
0000
0001
0010
,
0100
0010
0001
0000
,
0100
0000
0010
0000
,
1000
0001
1000
0000
,
0010
0000
2000
0000
,
0100
0000
0010
0000
,
3100
0000
0001
0000
,
0010
0001
0100
0000
,
0010
0000
1000
0100
,
0010
0000
0001
0010
,
0100
0000
1000
0010
,
0100
0010
1000
0001
,
0010
0100
1000
0000
,
0001
0000
1001
0000
,
0110
0000
2002
0000
,
0000
0000
0000
0000
,
0000
0000
0000
0000
,
0000
0000
0000
0000
,
0000
0000
0000
0000
,
0000
0000
0000
0000
,
0000
0000
3003
0000
;

//---------------dance-single - ----------------
#NOTES:
     dance-single:
     :
     Hard:
     10:
     0.862,1.000,0.410,0.460,0.075:
0200
0320
0230
2300
,
3200
0000
0301
1000
0200
0000
0302
0000
,
0203
0320
0032
2003
,
3200
0000
0310
0100
2000
0000
3020
0000
,
0230
2300
3002
0023
,
2030
0000
3100
0001
0200
0000
2300
0000
,
3020
0230
0302
0023
,
0032
0000
0103
0010
1000
0001
0010
0100
,
2002
3003
0100
0010
,
0100
1000
0100
0001
,
0100
0000
0010
1000
0100
0000
0001
0000
,
0100
1000
0100
0010
,
0100
0000
1000
0010
0100
0000
0010
0000
,
1000
0010
0001
0010
,
0100
0000
0001
0010
0100
0000
0001
0000
,
0100
1000
0010
0001
,
0010
0000
0100
0001
0010
0000
0100
0000
,
0001
0100
1000
0001
,
0010
0000
0100
0010
0001
0000
0100
0000
,
1000
0100
0010
1000
,
0100
0000
0001
0100
1000
0000
0010
0000
,
0100
0010
1000
0010
,
0100
0000
0001
0010
0100
0000
0001
0000
,
0100
1000
0020
0000
,
0230
0000
0301
1000
,
0100
0010
0100
1000
,
0010
0000
0100
0001
0010
0000
1000
0000
,
0010
0001
0100
1000
,
0100
0000
0010
1000
0100
0000
0001
0000
,
0100
1000
0010
0100
,
0010
0000
1000
0001
0010
0000
0100
0000
,
0010
0200
1000
1000
,
2000
3300
0100
0001
,
0010
0100
1000
0010
,
1000
0100
0011
0001
,
0100
1000
0100
0010
,
1000
0100
1100
0000
,
0001
0010
0101
0000
,
0010
0100
0101
0000
,
1010
0000
1100
0000
,
1001
0000
0010
0100
,
0010
1000
0010
0001
,
0010
0100
0010
0001
,
0010
0000
0100
0000
0001
1000
0100
0010
,
0100
0010
0001
1000
,
0001
0100
0001
0010
,
0001
1000
0001
0100
,
0001
0000
0010
0000
0001
1000
0001
0100
,
0001
0000
1000
0000
0100
0010
0100
0000
,
0010
0001
0100
1000
,
0100
0010
1000
0100
,
0001
0000
0100
0000
1000
0010
0100
0010
,
1000
0000
0001
0000
1000
0100
1000
0000
,
0001
0100
0001
0000
1000
0010
1000
0000
,
0001
0010
0001
0000
1000
0000
0010
0000
,
0100
0001
1001
0000
,
0110
0000
0100
0001
,
1000
0100
0001
0100
,
1000
0000
0010
0000
0100
0000
0010
1000
,
0001
0000
0010
0000
0100
1000
0010
0100
,
0001
1000
0001
0000
0010
0000
0100
0000
,
1000
0100
0001
0100
,
1000
0000
0010
0000
0100
0000
1000
0100
,
0001
1000
0010
0020
,
0100
0230
0301
1000
,
0100
0001
0100
1000
,
0010
0000
0100
0000
0010
0000
1000
0010
,
0100
0001
1001
0000
,
0110
0000
0000
0000
1010
0000
0100
0010
,
0100
0000
0000
0000
1001
0000
0100
0001
,
0100
0000
1001
1000
,
1100
0100
0110
0000
,
1001
0000
0102
1003
,
0100
0000
0010
0000
0010
0000
0100
0000
1000
0000
0010
0100
0010
0000
1000
0000
,
0002
0000
0010
0013
2100
0000
3010
0000
,
0100
0000
0010
0100
0010
0000
0100
0000
0002
0000
1000
0000
1000
0000
2003
0000
,
0100
3100
0110
0000
0012
0000
1003
0000
,
0010
0000
0100
0000
1000
0000
0100
0000
0001
0000
1000
0100
1000
0000
0000
0000
,
0010
0100
0001
0010
0100
0000
0000
0000
0021
0000
0000
0000
0130
0000
0000
0000
,
0010
0001
1000
0010
0100
0100
0100
0100
,
0200
0301
2001
3100
,
0010
0000
0100
0000
1000
0000
0010
0000
0100
0000
0001
1000
0001
0000
1000
0000
,
0100
0100
0110
0000
0012
0000
1003
0000
,
0010
0000
0100
0000
0010
0000
1000
0000
0100
0000
0010
0001
0010
0000
0001
0000
,
0200
0000
0010
0310
2010
0000
3001
0000
,
0010
0000
0100
0010
0100
0000
1000
0000
0010
0000
0100
0001
0100
0000
1000
0000
,
0200
0000
0010
0310
0102
0000
2003
0000
,
3100
0000
0010
0100
0020
0000
0000
0000
0130
0000
0100
0000
1000
0000
1000
0000
,
0001
0001
0100
0100
0110
0000
1000
0000
,
0001
0000
0010
0100
1001
0000
0100
0000
,
0010
0000
1000
0100
0011
0000
0100
0000
,
0010
0000
1000
0001
0110
0000
1000
0000
,
0001
0000
1000
0010
0101
0000
1000
0000
,
1001
0001
0011
0010
,
0110
0100
1100
0011
,
0101
0000
1010
0000
0010
0010
1000
1000
,
0001
0000
0001
0000
0010
0000
0010
0000
0001
0100
0001
0100
0001
0100
0001
0100
,
0010
1000
0010
1000
0010
1000
0010
1000
0020
0000
0000
0000
0000
0000
0000
0000
,
0000
0000
0000
0000
,
0000
0000
0000
0000
,
0000
0000
0000
0000
,
0000
0000
0200
0000
,
0000
0000
0000
0000
,
0000
0000
0000
0000
,
0000
0000
0000
0000
,
0330
0000
0001
0100
,
1000
0100
0001
1000
,
0100
0001
0100
1000
,
0100
1000
0001
0010
,
0001
0010
0001
0100
,
1000
0100
0010
1000
,
0100
0010
0002
0010
,
0013
0000
0000
0000
0100
1000
0010
0100
,
0010
0000
1000
0010
,
0100
0010
1000
0001
,
0010
1000
0010
0001
,
0100
0010
1000
0100
,
0110
0000
1100
0000
,
1010
0000
0110
0000
,
0101
0000
1001
0000
,
1001
0000
0110
0000
,
0110
0000
0001
0100
,
1000
0100
0010
1000
,
0100
0000
0010
0000
0100
0000
1000
0010
,
0100
0000
0010
0000
1000
0000
0001
0010
,
0100
0010
0001
1000
,
0010
0100
0010
1000
,
0100
0000
0010
0000
0001
0100
0010
0100
,
0001
0000
0000
0000
1000
0100
0010
0100
,
1000
0000
0010
0100
,
0010
1000
0001
0010
,
1000
0010
0001
0100
,
0010
1000
0100
0001
,
0100
1000
0010
0010
,
0100
0100
0001
0001
,
1000
0000
1000
0000
0010
0100
0010
0100
,
0010
0100
0010
0100
0010
0100
0010
0100
,
0010
0100
0010
0100
0020
0000
0000
0000
,
1000
0000
0001
0000
,
0100
0000
0001
0000
,
1000
0000
0100
0000
,
1000
0000
0200
0000
,
0000
0000
0000
0000
,
0000
0000
0330
0000
;
