#TITLE:Broken;
#SUBTITLE:;
#ARTIST:dj TAKA feat. AiMEE;
#TITLETRANSLIT:;
#SUBTITLETRANSLIT:;
#ARTISTTRANSLIT:;
#CREDIT:Grithokskulk;
#BANNER:Broken.png;
#BACKGROUND:Broken-bg.png;
#LYRICSPATH:;
#CDTITLE:REFLEC BEAT.png;
#MUSIC:Broken.mp3;
#OFFSET:-7.623;
#SAMPLESTART:59.435;
#SAMPLELENGTH:15.000;
#SELECTABLE:YES;
#BPMS:0.000=148.000,64.000=74.000,80.000=148.000;
#STOPS:;
#BGCHANGES:;

//---------------dance-single - ----------------
#NOTES:
     dance-single:
     :
     Easy:
     3:
     0.220,0.253,0.126,0.224,0.000: // measure 1
1000
0000
0100
0000
,  // measure 2
0010
0000
0100
0100
,  // measure 3
0010
0000
0100
0000
,  // measure 4
1000
0001
0000
0001
,  // measure 5
0100
0100
0010
0010
,  // measure 6
0200
0300
0020
0030
,  // measure 7
1000
1000
0001
0001
,  // measure 8
0020
0030
0200
0300
,  // measure 9
0010
0010
0001
0001
,  // measure 10
0200
0300
0020
0030
,  // measure 11
1000
1000
0100
0100
,  // measure 12
2000
3000
0002
0003
,  // measure 13
2002
0000
0000
0000
,  // measure 14
0000
0000
3003
0000
,  // measure 15
0200
0000
0000
0000
,  // measure 16
0300
0000
0001
0001
,  // measure 17
0020
0030
0200
0300
,  // measure 18
2000
3000
0001
1000
,  // measure 19
0020
0030
0100
0100
,  // measure 20
0002
0003
1001
0000
,  // measure 21
2000
0000
3000
0001
,  // measure 22
0002
0000
0000
0003
,  // measure 23
0010
0000
0100
0000
,  // measure 24
0110
0000
1000
0001
,  // measure 25
1002
0000
0000
0000
,  // measure 26
0003
0000
2000
0000
,  // measure 27
0002
0000
0000
0000
,  // measure 28
3003
0000
0000
0000
,  // measure 29
0100
0000
0010
0100
,  // measure 30
0001
0000
0010
0100
,  // measure 31
0010
0000
0001
1000
,  // measure 32
0001
0001
1000
1000
,  // measure 33
0010
0000
0100
0000
,  // measure 34
0010
0000
1000
1000
,  // measure 35
1001
0000
0110
0000
,  // measure 36
1001
0000
0001
0010
,  // measure 37
0001
0000
1000
0010
,  // measure 38
1000
0000
0001
0100
,  // measure 39
0001
0000
1000
0100
,  // measure 40
1000
0000
0001
0010
,  // measure 41
0100
0000
0010
0000
,  // measure 42
0000
0000
0002
0000
,  // measure 43
2000
0000
0000
0000
,  // measure 44
3003
0000
0000
1000
,  // measure 45
1000
0000
0001
0000
,  // measure 46
1001
0000
0010
0010
,  // measure 47
0100
0000
0010
0000
,  // measure 48
0110
0000
0001
0001
,  // measure 49
1000
0001
1001
0000
,  // measure 50
0100
0010
0110
0000
,  // measure 51
0001
0000
1001
0000
,  // measure 52
0100
0100
0010
0010
,  // measure 53
1001
0000
0000
0000
;

//---------------dance-single - ----------------
#NOTES:
     dance-single:
     :
     Medium:
     5:
     0.374,0.379,0.049,0.214,0.000:
1000
0100
1000
0000
0001
0100
0001
0000
,
0010
0010
0100
0100
,
1000
0001
1000
0000
0010
0100
0010
0000
,
1000
0000
0001
0001
0000
0010
0010
0000
,
0100
0010
0100
0000
0010
0000
0010
0000
,
0001
0010
0001
0000
1000
0000
1000
0000
,
0010
0100
0010
0000
0100
0000
0100
0000
,
0001
1000
0001
0000
0010
0100
0010
0100
,
0010
0001
0010
0000
0001
1000
0001
0000
,
0100
0100
0010
0010
,
1000
0100
1000
0000
0001
0100
0001
0000
,
1000
0010
1000
0000
0001
0010
0001
0010
,
0002
0000
2003
0000
,
3020
0000
0230
0000
,
0320
0000
2030
0000
,
3002
0000
0000
0003
,
0020
0000
0230
0000
,
0320
0000
0000
0000
0031
0010
0100
1000
,
0020
0000
0200
0000
0330
0100
0001
0010
,
0200
0000
0000
0010
0320
0000
0000
0000
,
0130
0000
1000
0000
0010
0100
0010
0000
,
1000
0000
0001
0000
0010
0001
0010
0000
,
0001
0000
0100
0100
0000
0010
0000
2000
,
0000
0100
0010
3100
,
0010
0001
0010
0000
0001
0100
0001
0000
,
1000
0100
1000
0000
0002
0000
0000
1000
,
2000
0000
3003
0000
,
1000
0001
1000
0000
0010
0100
0010
0000
,
1000
0100
1000
0000
0001
0010
0001
0000
,
0100
0001
0100
0000
0010
1000
0010
0000
,
1000
0100
1000
0000
0001
0010
0001
0000
,
0100
0000
1000
0000
0100
0001
1000
0000
,
0100
0010
0100
0000
0010
0001
0010
0000
,
0001
1000
0001
0000
1000
0000
0010
0000
,
0100
0100
0000
0010
0010
0000
1000
2000
,
0000
0000
0001
3001
,
0010
0100
0010
0001
0000
0000
0100
0000
,
0010
1000
0010
0100
0000
0000
0001
0000
,
0010
0100
0010
0001
0000
0000
1000
0000
,
0010
0100
0010
0000
1000
0001
1000
0000
,
0210
0000
2000
0000
,
3300
0000
1002
0000
,
0200
0000
0300
0000
,
0003
0000
0000
0000
1000
0100
1000
0000
,
0001
0000
0010
0100
0010
0000
0001
1000
,
0001
0000
0100
0000
0010
1000
0100
0010
,
0100
0000
0010
0001
0010
0000
0001
1000
,
0001
0000
0100
0000
0010
0100
0001
1000
,
0100
0010
0100
0000
1000
0001
1000
0000
,
0001
0100
0001
0000
0010
0100
0010
0000
,
0001
0010
0001
0000
1000
0010
1000
0000
,
1001
0000
0110
0000
0001
1000
0001
0000
,
0110
0000
0000
0000
;

//---------------dance-single - ----------------
#NOTES:
     dance-single:
     :
     Hard:
     9:
     0.635,0.632,0.195,0.389,0.297:
0100
1000
0100
0010
0100
0001
0100
0010
,
0100
1000
0100
0001
0100
1000
0100
0001
,
0010
1000
0010
0001
0010
0100
0010
0001
,
0010
0000
0000
0000
0001
0000
0001
0000
0100
0000
0010
0000
0100
0001
0100
0001
,
0100
0010
1000
0100
0010
0100
1000
0010
,
0001
0010
0100
0010
1000
0010
0100
0010
,
1000
0100
0001
0100
0010
0001
0100
1000
,
0100
0010
0100
0001
0100
1000
0100
0010
,
0100
0001
0010
1000
0010
0001
0100
0001
,
0010
1000
0010
0001
0010
0100
0010
0001
,
1000
0010
0100
0000
0100
0001
1000
0000
,
0100
0000
0000
0000
0110
0000
0110
0000
0010
0000
0001
1000
0001
1000
0001
0000
,
0202
0303
2002
3003
,
2200
0000
3300
0000
0010
0100
1000
0010
,
0220
0330
0202
0303
,
2002
0000
3003
0000
0001
0010
0100
1000
,
0020
0000
0100
0200
0000
0000
0330
0000
0002
0000
1000
2000
0000
0000
3003
0000
,
0200
0000
0010
0020
0000
0000
0330
0000
0001
0010
0100
0000
1000
0010
0100
0000
,
0020
0000
0000
0100
0200
0000
0000
0000
0030
0000
0001
0000
1000
0000
0001
0000
,
0020
0000
0000
0000
0300
0000
1000
2000
0030
0000
0100
0000
0001
0000
3100
0010
,
0200
0001
0001
0000
0310
0000
0110
0000
,
0020
0001
0001
0000
1030
0000
0110
0000
,
0002
0100
0100
0003
0010
0100
1000
0200
,
0000
0010
0010
0300
1000
0100
0001
0100
,
0020
0000
0100
0230
0000
1000
2300
0000
,
3020
0000
0100
0230
0000
0001
0302
0000
,
0023
0000
0100
0230
0000
0010
0320
0000
,
0031
1000
0001
0000
0100
0010
0100
0000
0001
0000
0001
0000
1000
0000
1000
0000
,
0010
0100
0010
0000
1000
0100
1000
0000
0001
0100
0001
0000
0010
0100
0010
0000
,
0001
1000
0001
0000
0010
0100
0010
0000
1000
0100
1000
0000
0010
0100
0010
0000
,
1000
0010
1000
0000
0001
0010
0001
0000
0100
0010
0100
0000
0001
0010
0001
0000
,
1000
0100
1000
0000
0010
0100
0010
0000
1000
0000
0100
0000
0010
0000
0001
0000
,
0100
0010
0100
0000
0001
0010
0001
0000
1000
0100
1000
0000
0001
0100
0001
0000
,
1000
0010
1000
0000
0001
0010
0001
0000
0100
0000
0100
0000
0010
0000
0010
0000
,
1010
0101
0000
0011
1100
0000
1001
0210
,
0000
0000
0000
0000
0000
0000
0001
0000
0301
0000
0000
0001
0010
0000
0100
0000
,
0010
0000
0001
0100
0001
0000
0100
0000
1000
0000
0100
0000
0010
0000
1000
0000
,
0100
0000
0001
0100
0001
0000
0100
0000
1000
0000
0010
0000
0100
0000
0010
0000
,
1000
0000
0001
0010
0001
0000
0100
0000
0010
0000
0100
0001
0010
0000
0100
0000
,
1000
0000
0010
0100
0010
0000
1000
0000
0100
0000
0001
0000
0100
0000
1000
0000
,
0020
0000
0100
0200
0000
0000
0000
0000
,
0330
0000
0002
0000
,
2000
0000
0003
0000
,
3100
0010
0100
0000
1000
0001
1000
0000
0001
0000
0010
0000
0100
0000
1000
0000
,
0010
0000
0100
0010
0100
0000
0001
0000
0010
0000
0100
0010
0100
0000
0010
0000
,
0001
0000
0100
0010
0100
0000
0001
0000
1000
0000
0100
0000
0001
0000
0100
0000
,
1000
0000
0010
1000
0010
0000
0100
0000
0001
0000
0010
0001
0010
0000
0001
0000
,
0100
0000
0010
0100
0010
0000
0100
0000
0001
0000
0010
0000
0100
0000
1000
0000
,
0010
0100
0010
0100
0010
0000
1000
0000
0100
0010
0100
0010
0100
0000
1000
0000
,
0001
0100
0001
0000
1000
0100
1000
0000
0001
0010
0001
0000
1000
0010
1000
0000
,
0001
0010
0001
0100
0001
0000
0000
0000
1000
0100
1000
0010
1000
0000
0000
0000
,
1001
0000
0000
0000
0110
0000
0000
0000
1001
0000
0010
0100
0010
0000
1000
0000
,
1001
0000
0000
0000
;
