#TITLE:Boom Clap;
#SUBTITLE:;
#ARTIST:Charli XCX;
#TITLETRANSLIT:;
#SUBTITLETRANSLIT:;
#ARTISTTRANSLIT:;
#CREDIT:Grithokskulk;
#BANNER:Boom Clap.png;
#BACKGROUND:Boom Clap-bg.png;
#LYRICSPATH:;
#CDTITLE:grithokskulk.png;
#MUSIC:Boom Clap.mp3;
#OFFSET:-2.918;
#SAMPLESTART:34.135;
#SAMPLELENGTH:15.000;
#SELECTABLE:YES;
#BPMS:0.000=92.000;
#STOPS:;
#BGCHANGES:;

//---------------dance-single - ----------------
#NOTES:
     dance-single:
     :
     Easy:
     3:
     0.218,0.197,0.435,0.115,0.000: // measure 1
0000
1001
0000
0110
,  // measure 2
0000
1001
0000
0110
,  // measure 3
0000
1001
0000
0110
,  // measure 4
0010
0010
0010
0010
,  // measure 5
0000
1001
0000
1100
,  // measure 6
0000
0011
0000
1001
,  // measure 7
0000
0110
0000
1001
,  // measure 8
0100
0100
0100
0100
,  // measure 9
0000
1100
0000
1001
,  // measure 10
0000
0011
0000
1001
,  // measure 11
0000
1010
0000
0110
,  // measure 12
0020
0000
0000
0030
,  // measure 13
0110
0110
0000
0010
,  // measure 14
1000
1000
1000
1000
,  // measure 15
1001
1001
0000
0001
,  // measure 16
0020
0030
0200
0300
,  // measure 17
0110
0110
0000
1000
,  // measure 18
0010
0010
0010
0010
,  // measure 19
0101
0101
0000
1000
,  // measure 20
0002
0003
2000
3000
,  // measure 21
1001
1001
0000
0010
,  // measure 22
1000
1000
1000
1000
,  // measure 23
1100
1100
0000
0100
,  // measure 24
0020
0030
0200
0300
,  // measure 25
0110
0110
0000
0001
,  // measure 26
1000
1000
1000
1000
,  // measure 27
1001
1001
0000
0010
,  // measure 28
0002
0003
2000
3000
,  // measure 29
0100
0000
0000
0000
;

//---------------dance-single - ----------------
#NOTES:
     dance-single:
     :
     Medium:
     5:
     0.342,0.305,0.397,0.205,0.000:
1000
1010
0010
0110
,
0100
0101
0001
0011
,
0010
0110
0100
1100
,
1001
1001
1001
1001
,
0001
0000
0100
0010
0100
0000
0001
0000
,
0010
0000
0100
0010
0001
0000
0100
0000
,
0001
0000
0010
0100
0010
0000
0100
0000
,
1100
1100
1100
1100
,
1000
0000
0010
1000
0100
0000
1000
0000
,
0010
0000
0100
0001
0100
0000
0010
0000
,
0100
0000
0001
0010
0001
0000
1000
0000
,
2002
0000
0000
3003
,
1001
0000
0110
0000
1000
0100
1000
0000
,
0001
0010
0100
1000
1000
0100
0010
0001
,
1001
0000
0110
0000
0001
0100
0001
0000
,
2000
3002
2003
3001
,
1001
0000
0110
0000
1000
0010
1000
0000
,
0001
0100
0010
1000
1000
0010
0100
0001
,
0101
0000
1010
0000
1000
0100
1000
0000
,
0020
0000
0230
0000
0320
0000
0230
0300
,
0101
0000
1010
0000
1000
0100
1000
0000
,
1000
0010
0100
0001
0001
0100
0010
1000
,
1010
0000
0101
0000
1000
0100
1000
0000
,
0020
2030
3020
1030
,
1001
0000
0110
0000
0001
0100
0001
0000
,
1000
0100
0010
0001
0001
0010
0100
1000
,
1100
0000
0011
0000
0100
0001
0100
0000
,
0002
0023
0032
0203
,
0310
0000
0000
0000
;

//---------------dance-single - ----------------
#NOTES:
     dance-single:
     :
     Hard:
     8:
     0.499,0.500,0.448,0.231,0.282:
1000
0100
1100
0000
0000
0001
0101
0000
,
0010
1000
1100
0000
0000
0010
0110
0000
,
0001
0010
0011
0000
0000
0100
0110
0000
,
1100
1100
1100
1001
,
1000
0010
0100
0010
0100
0100
0110
0000
,
0001
0100
0010
1000
0100
0100
1100
0000
,
0010
0100
1000
0010
0100
0100
0001
0010
,
0110
0110
0110
1001
,
1000
0010
0100
0010
1000
1000
1100
0000
,
1000
0100
0001
0100
1000
1000
1001
0000
,
0100
0001
0010
0001
0100
0100
0010
0100
,
0202
0000
0000
0303
,
1001
0000
0000
0000
1010
0000
1000
0100
0000
0100
0010
0000
0100
0000
1000
0000
,
0010
0000
0100
0000
0001
0000
0010
0001
0000
0001
0100
0010
1000
0000
0100
0000
,
1100
0000
0000
0000
0011
0000
0100
0001
0000
0001
1000
0000
0100
0000
0010
0100
,
2000
0000
3010
0100
0020
0000
0130
0001
0200
0000
0301
0010
0002
0000
1003
0000
,
1001
0000
0000
0000
0110
0000
0100
0001
0000
0001
0010
0000
0100
0000
1000
0000
,
0010
0000
0100
0000
0010
0000
1000
0100
0000
0100
0010
0001
0100
0000
0010
0000
,
1010
0000
0000
0000
0101
0000
0010
0001
0000
0001
0010
0000
0001
0000
0100
0010
,
2000
0000
3100
0010
0200
0000
1300
0010
0200
0000
0310
0100
0002
0000
0013
0000
,
0011
0000
0000
0000
1100
0000
1000
0001
0000
0001
0100
0000
0010
0000
0100
0000
,
0001
0000
0010
0000
0100
0000
0010
0001
0000
0001
0100
1000
0100
0000
0001
0000
,
0101
0000
0000
0000
1010
0000
1000
0100
0000
0100
0010
0000
0100
0000
1000
0010
,
0200
0000
0310
0100
0020
0000
1030
0100
0020
0000
0130
0010
0200
0000
1300
0000
,
1010
0000
0000
0000
0101
0000
0100
0001
0000
0001
0010
0000
0001
0000
0010
0000
,
0100
0000
1000
0000
0100
0000
0010
0100
0000
0100
1000
0010
0100
0000
0010
0000
,
0110
0000
0000
0000
0101
0000
0001
0010
0000
0010
0001
0000
1000
0000
0010
0100
,
0002
0000
0013
0100
2000
0000
3010
0100
0002
0000
0013
0100
2000
0000
3010
0000
;
